osu file format v14

[General]
AudioFilename: Sako Tomohisa - Getta Banban Anime Size ver..mp3
AudioLeadIn: 2000
PreviewTime: 47746
Countdown: 0
SampleSet: Soft
StackLeniency: 0.3
Mode: 0
LetterboxInBreaks: 0
WidescreenStoryboard: 0

[Editor]
Bookmarks: 591,86099
DistanceSpacing: 1.1
BeatDivisor: 4
GridSize: 4
TimelineZoom: 1.1

[Metadata]
Title:Getta Banban Anime Size ver.
TitleUnicode:ゲッタバンバン アニメサイズver.
Artist:Sako Tomohisa
ArtistUnicode:佐香 智久
Creator:Gero
Version:Easy
Source:ポケットモンスター XY
Tags:Lanturn pkhg ポケモン☆ゲット Pokemon☆Getto Pokémon☆Getto Getto 小川 智之 Ogawa Tomoyuki Getter Bangbang Bang Bang Mad-Paced Getter Mad Paced Opening 3 Pokémon the Series: XY Pokemon Pocket Monsters XY エックスワイ (エックスワイ) (ExWye) Nintendo GAME FREAK J-Pop Jpop ジェイポップ
BeatmapID:746332
BeatmapSetID:337318

[Difficulty]
HPDrainRate:2
CircleSize:2.5
OverallDifficulty:2
ApproachRate:3
SliderMultiplier:0.799999999999999
SliderTickRate:2

[Events]
//Background and Video events
Video,-120,"Video.avi"
0,0,"BG.jpg",0,0
//Break Periods
//Storyboard Layer 0 (Background)
//Storyboard Layer 1 (Fail)
//Storyboard Layer 2 (Pass)
//Storyboard Layer 3 (Foreground)
//Storyboard Sound Samples

[TimingPoints]
591,359.281437125748,4,2,1,60,1,0
3285,-100,4,2,1,80,0,0
47836,-100,4,1,1,90,0,1
59243,-100,4,1,1,90,0,0
59333,-100,4,1,1,90,0,1
72177,-100,4,1,1,90,0,0
72267,-100,4,1,1,90,0,1
72357,-100,4,1,1,90,0,0
75321,-100,4,1,1,90,0,1
86010,-100,4,1,1,90,0,0
86099,-100,4,1,1,90,0,1
86189,-100,4,1,1,90,0,0

[Colours]
Combo1 : 157,133,203
Combo2 : 233,72,54
Combo3 : 226,219,82
Combo4 : 114,157,222
Combo5 : 153,200,119

[HitObjects]
256,96,591,5,2,0:3:0:0:
200,28,950,2,0,B|256:7|256:7|312:28,2,120,4|4|8,0:0|0:0|0:3,0:0:0:0:
200,336,3285,6,0,P|256:354|312:336,1,120,4|2,0:0|0:3,0:0:0:0:
376,270,4183,2,0,B|386:231|386:231|376:192,1,79.9999999999999,2|2,0:3|0:3,0:0:0:0:
448,144,4902,2,0,B|420:104|368:104|368:104|300:104,1,160,2|2,0:3|0:3,0:0:0:0:
256,28,5980,1,2,0:3:0:0:
211,104,6339,6,0,P|200:142|210:180,1,79.9999999999999,2|2,0:3|0:3,0:0:0:0:
256,256,7058,2,0,P|265:294|255:332,1,79.9999999999999,2|2,0:3|0:3,0:0:0:0:
176,294,7776,2,0,L|336:294,1,160,2|2,0:3|0:3,0:0:0:0:
398,356,8854,1,2,0:3:0:0:
460,293,9213,6,0,B|460:224|460:224|468:204|468:204|468:133,1,160,2|2,0:3|0:3,0:0:0:0:
400,76,10291,1,2,0:3:0:0:
332,20,10650,2,0,P|293:9|255:19,1,79.9999999999999,2|2,0:3|0:3,0:0:0:0:
184,72,11369,2,0,P|145:82|107:72,1,79.9999999999999,2|2,0:3|0:3,0:0:0:0:
44,8,12088,6,0,P|66:84|44:160,1,160,2|2,0:3|0:3,0:0:0:0:
4,240,13165,1,2,0:3:0:0:
48,316,13525,2,0,L|208:300,1,160,2|8,0:3|1:0,0:0:0:0:
332,348,14782,6,0,B|352:324|361:296|361:296|352:268|332:244,1,120,12|8,1:0|1:0,0:0:0:0:
300,160,15680,2,0,B|300:124|300:124|300:76|332:48,2,120,0|4|8,0:0|0:0|1:0,0:0:0:0:
212,160,17117,2,0,B|212:124|212:124|212:76|180:48,2,120,0|0|8,0:0|0:0|1:0,0:0:0:0:
180,244,18555,2,0,B|160:268|151:296|151:296|160:324|180:348,2,120,0|4|8,0:0|0:0|1:0,0:0:0:0:
256,296,19992,2,0,B|296:296|296:296|332:320,1,79.9999999999999,0|8,0:0|1:0,0:0:0:0:
404,364,20710,6,0,L|512:244,1,160,4|0,0:0|0:0,0:0:0:0:
452,180,21788,1,8,1:0:0:0:
392,116,22147,2,0,P|354:127|316:117,1,79.9999999999999,0|8,0:0|1:0,0:0:0:0:
256,52,22866,2,0,P|218:43|180:53,1,79.9999999999999,0|8,0:0|1:0,0:0:0:0:
92,36,23585,6,0,L|218:134,1,160,4|4,0:0|0:0,0:0:0:0:
176,212,24662,1,8,1:0:0:0:
136,292,25022,2,0,B|176:312|232:300|256:253|256:253|280:300|336:312|376:292,2,280,4|4|8,0:0|0:0|1:0,0:0:0:0:
73,354,27896,5,12,1:0:0:0:
10,291,28255,2,0,B|30:267|39:239|39:239|30:211|10:187,1,120,8|4,1:0|0:3,0:0:0:0:
72,124,29153,2,0,B|52:100|43:72|43:72|52:44|72:20,1,120,4|4,0:3|1:3,0:0:0:0:
144,72,30052,2,0,P|182:83|220:73,1,79.9999999999999,2|8,0:3|1:0,0:0:0:0:
288,128,30770,6,0,P|269:72|288:16,2,120,2|0|8,0:3|0:0|1:0,0:0:0:0:
348,192,32207,2,0,P|366:247|347:303,2,120,2|0|8,0:3|0:0|1:0,0:0:0:0:
412,132,33644,1,4,0:0:0:0:
348,72,34004,6,0,B|256:33|256:33|164:72,2,200,8|4|2,1:0|0:3|0:3,0:0:0:0:
412,132,36159,1,8,1:0:0:0:
348,196,36519,2,0,B|256:235|256:235|164:196,1,200,2|0,0:3|0:0,0:0:0:0:
100,132,37776,1,4,0:0:0:0:
40,196,38135,2,0,P|21:252|40:308,1,120,0|2,0:0|0:3,0:0:0:0:
168,348,39213,6,0,B|216:312|216:312|296:312|296:312|344:348,1,200,4|2,0:0|0:3,0:0:0:0:
460,284,40650,2,0,B|460:228|492:192|492:192|460:156|460:100,1,200,4|2,0:0|0:3,0:0:0:0:
344,36,42088,2,0,B|296:72|296:72|216:72|216:72|168:36,1,200,4|4,0:0|0:0,0:0:0:0:
105,98,43345,1,8,1:0:0:0:
168,160,43704,2,0,B|228:176|256:235|256:235|284:176|344:160,1,240,8|8,1:0|1:0,0:0:0:0:
407,98,45141,1,8,1:0:0:0:
256,192,45321,12,4,47836,0:0:0:0:
324,192,49273,6,0,P|358:284|324:376,1,200,4|2,0:0|0:2,0:0:0:0:
187,375,50710,2,0,P|154:283|188:192,1,200,4|2,0:0|0:2,0:0:0:0:
108,88,52147,2,0,P|256:36|404:88,1,320,4|0,0:0|0:0,0:0:0:0:
488,192,54123,5,8,0:0:0:0:
416,240,54483,2,0,B|382:269|382:309|382:309|382:349,2,120,2|4|8,0:2|0:0|0:0,0:0:0:0:
340,192,55920,2,0,L|220:192,2,120,2|0|8,0:2|0:0|0:0,0:0:0:0:
416,144,57357,2,0,B|382:114|382:74|382:74|382:34,2,120,2|8|0,0:2|0:0|0:0,0:0:0:0:
488,192,58794,1,8,0:0:0:0:
416,304,59333,6,0,B|366:324|326:308|318:304|310:300|270:284|220:304,1,200,12|2,0:0|0:2,0:0:0:0:
88,284,60770,2,0,P|55:192|88:100,1,200,4|2,0:0|0:2,0:0:0:0:
220,80,62207,2,0,B|270:100|310:84|318:80|326:76|366:60|416:80,1,200,4|2,0:0|0:2,0:0:0:0:
488,192,63644,6,0,P|506:247|488:303,1,120,4|8,0:0|0:0,0:0:0:0:
420,248,64543,2,0,P|401:192|420:136,2,120,2|0|8,0:2|0:0|0:0,0:0:0:0:
369,319,65980,2,0,L|488:303,2,120,2|4|8,0:2|0:0|0:0,0:0:0:0:
312,249,67417,2,0,L|296:368,2,120,2|0|8,0:2|0:0|0:0,0:0:0:0:
380,192,68854,6,0,L|261:175,2,120,8|12|8,0:0|0:0|0:0,0:0:0:0:
448,136,70291,2,0,P|467:192|448:248,2,120,8|4|8,0:0|0:0|0:0,0:0:0:0:
380,80,71728,2,0,P|361:136|380:192,2,120,8|12|8,0:0|0:0|0:0,0:0:0:0:
444,20,73165,2,0,L|244:20,1,200,8|8,0:0|0:0,0:0:0:0:
176,76,74423,2,0,B|200:108|244:108|244:108|288:108,1,120,8|8,0:0|0:0,0:0:0:0:
368,80,75321,6,0,L|254:193,1,160,12|8,0:0|0:0,0:0:0:0:
188,248,76399,1,8,0:0:0:0:
148,328,76758,2,0,P|187:339|225:329,1,79.9999999999999,8|8,0:0|0:0,0:0:0:0:
296,276,77477,2,0,P|335:266|373:276,1,79.9999999999999,8|8,0:0|0:0,0:0:0:0:
420,348,78195,6,0,P|398:272|420:196,1,160,12|8,0:0|0:0,0:0:0:0:
440,64,79453,2,0,B|364:52|312:112|312:112|255:112,1,200,0|8,0:0|0:0,0:0:0:0:
92,36,81070,6,0,P|114:112|92:188,1,160,12|8,0:0|0:0,0:0:0:0:
72,320,82327,2,0,B|148:332|200:272|200:272|256:272,1,200,0|8,0:0|0:0,0:0:0:0:
432,264,83944,6,0,B|432:216|460:192|460:192|432:168|432:120,1,160,12|12,0:0|0:0,0:0:0:0:
300,96,85201,2,0,B|316:144|288:192|288:192|316:240|300:288,1,200,12|12,0:0|0:0,0:0:0:0:
