osu file format v12

[General]
AudioFilename: ED2N.mp3
AudioLeadIn: 1000
PreviewTime: 48421
Countdown: 0
SampleSet: Soft
StackLeniency: 0.7
Mode: 0
LetterboxInBreaks: 0

[Editor]
DistanceSpacing: 0.9
BeatDivisor: 4
GridSize: 4

[Metadata]
Title:Bokutachi no Uta (TV Size)
TitleUnicode:僕たちの歌 (TV Size)
Artist:Sako Tomohisa
ArtistUnicode:佐香智久
Creator:leon1341414
Version:Easy
Source:Zetsuen no Tempest
Tags:絶園のテンペスト ending Shounen-T mintong89
BeatmapID:220604
BeatmapSetID:78854

[Difficulty]
HPDrainRate:3
CircleSize:3
OverallDifficulty:3
ApproachRate:3
SliderMultiplier:1.2
SliderTickRate:2

[Events]
//Background and Video events
0,0,"01.jpg",0,0
Video,0,"Bokutachi no Uta.avi"
//Break Periods
//Storyboard Layer 0 (Background)
//Storyboard Layer 1 (Fail)
//Storyboard Layer 2 (Pass)
//Storyboard Layer 3 (Foreground)
//Storyboard Sound Samples
//Background Colour Transformations
3,100,163,162,255

[TimingPoints]
1231,545.454545454546,4,2,1,15,1,0
9958,-100,4,2,1,30,0,0
49231,-100,4,2,1,40,0,1
65594,-100,4,2,1,15,0,0
66685,-100,4,2,1,40,0,1
81958,-100,4,2,1,30,0,0
84686,-100,4,2,1,15,0,0
86867,-100,4,2,0,15,0,0

[Colours]
Combo1 : 255,189,91
Combo2 : 115,238,223
Combo3 : 126,81,249
Combo4 : 81,176,255

[HitObjects]
216,64,1231,2,0,B|280:64|280:64|296:112|360:144,1,180
208,192,2867,1,0,0:0:0:0:
199,299,3412,2,0,B|278:298|303:232|303:232|330:262|358:280,1,180
435,219,4776,6,0,P|363:171|331:83,1,180
168,88,6412,1,0,0:0:0:0:
168,252,7231,1,0,0:0:0:0:
256,192,7776,12,0,9412,0:0:0:0:
192,80,9958,6,0,P|160:136|96:168,1,120,4|8,0:0|0:0,0:0:0:0:
112,272,11049,1,0,0:0:0:0:
219,273,11594,2,0,P|283:257|339:273,1,120,8|0,0:0|0:0,0:0:0:0:
408,192,12685,2,0,L|472:192,2,60,8|0|0,0:0|0:0|0:0,0:0:0:0:
344,104,13776,1,8,0:0:0:0:
240,104,14321,6,0,L|240:40,2,60
240,216,15412,1,0,0:0:0:0:
296,304,15958,2,0,P|240:320|182:301,1,120,8|0,0:0|0:0,0:0:0:0:
120,216,17049,1,0,0:0:0:0:
120,112,17594,6,0,L|248:112,1,120,0|8,0:0|0:0,0:0:0:0:
352,112,18685,2,0,L|416:112,2,60
296,200,19776,2,0,L|296:320,1,120,0|8,0:0|0:0,0:0:0:0:
184,320,20867,2,0,L|112:320,2,60,0|0|8,0:0|0:0|0:0,0:0:0:0:
184,208,21958,1,0,0:0:0:0:
264,136,22503,1,8,0:0:0:0:
344,208,23049,5,0,0:0:0:0:
400,112,23594,2,0,L|464:112,2,60,8|0|0,0:0|0:0|0:0,0:0:0:0:
288,112,24685,1,8,0:0:0:0:
200,56,25231,2,0,P|184:112|208:176,1,120
256,192,26321,12,0,28503,0:0:0:0:
248,56,29049,5,0,0:0:0:0:
148,96,29594,2,0,P|116:152|108:208,1,120,4|8,0:0|0:0,0:0:0:0:
180,288,30685,2,0,P|211:231|220:172,1,120,0|8,0:0|0:0,0:0:0:0:
284,88,31776,2,0,P|340:80|412:88,1,120,0|8,0:0|0:0,0:0:0:0:
456,180,32867,2,0,L|480:244,2,60,0|0|8,0:0|0:0|0:0,0:0:0:0:
348,176,33958,6,0,P|307:228|248:243,1,120,4|8,0:0|0:0,0:0:0:0:
156,204,35049,2,0,P|194:150|253:132,1,120,0|8,0:0|0:0,0:0:0:0:
320,56,36140,1,0,0:0:0:0:
428,56,36685,2,0,L|492:56,2,60,8|0|0,0:0|0:0|0:0,0:0:0:0:
428,164,37776,1,8,0:0:0:0:
336,224,38321,6,0,P|320:168|336:104,1,120,4|8,0:0|0:0,0:0:0:0:
232,68,39412,2,0,P|175:84|111:68,1,120,0|8,0:0|0:0,0:0:0:0:
44,152,40503,1,0,0:0:0:0:
112,236,41049,2,0,L|112:300,2,60,8|0|0,0:0|0:0|0:0,0:0:0:0:
204,176,42140,1,8,0:0:0:0:
287,120,42685,5,4,0:0:0:0:
395,121,43231,2,0,P|419:97|443:81,2,60,8|0|0,0:0|0:0|0:0,0:0:0:0:
398,228,44321,1,8,0:0:0:0:
311,293,44867,6,0,P|255:277|191:293,1,120,0|8,0:0|0:0,0:0:0:0:
116,216,45958,2,0,L|73:165,1,60
77,116,46503,2,0,L|35:63,1,60
256,192,47049,12,0,48685,0:0:0:0:
256,288,49231,5,6,0:0:0:0:
312,196,49776,2,0,P|344:188|376:164,2,60,8|0|2,0:0|0:0|0:0,0:0:0:0:
204,196,50867,2,0,P|172:203|140:228,2,60,8|0|2,0:0|0:0|0:0,0:0:0:0:
260,104,51958,2,0,B|312:68|312:68|396:68,1,120,8|0,0:0|0:0,0:0:0:0:
424,68,52776,6,0,L|424:128,1,60,0|8,0:0|0:0,0:0:0:0:
424,236,53594,1,2,0:0:0:0:
348,312,54140,2,0,L|348:380,2,60,8|0|2,0:0|0:0|0:0,0:0:0:0:
312,208,55231,2,0,P|264:248|192:256,1,120,8|2,0:0|0:0,0:0:0:0:
160,164,56321,2,0,L|88:164,2,60,8|0|2,0:0|0:0|0:0,0:0:0:0:
212,68,57412,6,0,L|332:68,1,120,8|6,0:0|0:0,0:0:0:0:
432,196,58776,5,0,0:0:0:0:
236,288,59867,5,0,0:0:0:0:
244,72,60958,6,0,P|315:119|324:211,1,180,0|8,0:0|0:0,0:0:0:0:
220,180,62321,1,4,0:0:0:0:
220,288,62867,6,0,B|164:304|164:304|100:288,1,120,8|0,0:0|0:0,0:0:0:0:
76,184,63958,1,8,0:0:0:0:
144,100,64503,1,2,0:0:0:0:
252,96,65049,2,0,B|316:96|316:96|360:144,1,120
356,244,66140,1,0,0:0:0:0:
268,304,66685,6,0,P|252:240|268:176,1,120,6|8,0:0|0:0,0:0:0:0:
280,80,67776,2,0,P|216:96|151:80,1,120,2|8,0:0|0:0,0:0:0:0:
56,84,68867,1,2,0:0:0:0:
104,180,69412,2,0,L|104:244,2,60,8|0|0,0:0|0:0|0:0,0:0:0:0:
204,220,70503,1,8,0:0:0:0:
308,248,71049,6,0,P|368:260|432:244,1,120,2|8,0:0|0:0,0:0:0:0:
364,156,72140,2,0,P|304:144|240:160,1,120,2|8,0:0|0:0,0:0:0:0:
140,160,73231,2,0,L|140:224,2,60,2|0|8,0:0|0:0|0:0,0:0:0:0:
140,104,74049,1,4,0:0:0:0:
228,40,74594,5,0,0:0:0:0:
284,40,74867,2,0,L|348:40,2,60,8|0|2,0:0|0:0|0:0,0:0:0:0:
284,148,75958,2,0,L|284:212,1,60,8|4,0:0|0:0,0:0:0:0:
284,316,76776,6,0,L|220:316,1,60,0|8,0:0|0:0,0:0:0:0:
116,316,77594,2,0,P|132:252|116:196,1,120,2|8,0:0|0:0,0:0:0:0:
92,156,78412,1,0,0:0:0:0:
188,104,78958,6,0,L|188:40,2,60,0|8|0,0:0|0:0|0:0,0:0:0:0:
292,132,80049,2,0,P|276:204|300:268,1,120
224,336,81140,2,0,P|170:248|98:208,1,180,0|6,0:0|0:0,0:0:0:0:
276,76,83049,6,0,P|332:99|368:153,1,120
256,192,84140,12,4,86867,0:0:0:0:
