osu file format v14

[General]
AudioFilename: audio.mp3
AudioLeadIn: 0
PreviewTime: 252949
Countdown: 0
SampleSet: Soft
StackLeniency: 0.4
Mode: 0
LetterboxInBreaks: 0
EpilepsyWarning: 1
WidescreenStoryboard: 1

[Editor]
Bookmarks: 14282,30282,67615,72949,83615,94282,104949,115610,126282,136949,147615,158282,168949,190282,219615,232944,252949,264949,275615,286282,296949,307615,318282,328949,339615,363615,379615,395615,411615,463610
DistanceSpacing: 0.5
BeatDivisor: 4
GridSize: 32
TimelineZoom: 4.599998

[Metadata]
Title:osu!memories
TitleUnicode:osu!memories
Artist:SakiZ
ArtistUnicode:SakiZ
Creator:DeRandom Otaku
Version:Happy Memories
Source:
Tags:osu! memories Aoi Eir IGNITE Toyosaki Aki Diamond Reol No title Maffalda pensamento tipico de esquerda caviar AKINO from bless4 MIIRO Konuko Toumei Elegy yuikonnu ayaponzu Super Nuko World bibuko Reizouko Mitara Pudding ga Nai Team Nekokan Can't Defeat Airman Natsume Chiaki Hanairo Biyori IOSYS Cirno's Perfect Math Class LeaF Calamity Fortune xi Blue Zenith Kuba Oms My Love Halozy Genryuu Kaiko NOMA Brain Power jojo sono chi no kioku end of the world jo stars tommy coda jin Hommarju Latte masterpiece Our Stolen Theory United L.A.O.S ft feat remix The Quick Brown Fox The Big Black Saiya Remote Control Fujijo Seitokai Shikkou bu Best Friends Shihori Magic Girl WEAVER Kuchizuke Diamond gmtn witch slave witch's furioso melodia DragonForce dragon force Cry Thunder Tatsh IMAGE MATERIAL Version 0 UNDEAD CORPORATION Everything will freeze Hatsune Miku Atama no Taisou Panda Eyes Teminite Highscore FREEDOM DiVE Compilation Various Artists hokichi
BeatmapID:1128411
BeatmapSetID:532522

[Difficulty]
HPDrainRate:5
CircleSize:3.8
OverallDifficulty:9
ApproachRate:9.5
SliderMultiplier:1.9
SliderTickRate:1

[Events]
//Background and Video events
0,0,"bg.jpg",0,0
//Break Periods
2,158477,165752
2,190477,211085
2,222477,229752
2,411810,419085
2,419810,421085
2,421810,423085
//Storyboard Layer 0 (Background)
//Storyboard Layer 1 (Fail)
//Storyboard Layer 2 (Pass)
//Storyboard Layer 3 (Foreground)
//Storyboard Sound Samples

[TimingPoints]
3611,333.333333333333,4,2,0,30,1,0
3611,-133.333333333333,4,2,0,30,0,0
12944,-133.333333333333,4,2,0,40,0,0
14277,-111.111111111111,4,2,0,55,0,0
30277,-125,4,2,0,55,0,0
72944,-100,4,2,0,65,0,0
83610,-100,4,2,0,60,0,0
92944,-153.846153846154,4,2,0,60,0,0
93944,-105.263157894737,4,2,0,60,0,0
94277,-95.2380952380952,4,2,0,60,0,0
109360,-95.2380952380952,4,2,0,15,0,0
109444,-95.2380952380952,4,2,0,60,0,0
109527,-95.2380952380952,4,2,0,15,0,0
109610,-95.2380952380952,4,2,0,60,0,0
166277,-95.2380952380952,4,2,0,30,0,0
167610,-95.2380952380952,4,2,0,40,0,0
168610,-95.2380952380952,4,2,0,45,0,0
168944,-200,4,2,0,40,0,0
180610,-200,4,2,0,10,0,0
180944,-200,4,2,0,40,0,0
190277,666.666666666667,4,2,0,40,1,0
211610,-200,4,2,0,35,0,0
215610,-100,4,2,0,35,0,0
219610,333.333333333333,4,2,0,40,1,0
219944,-200,4,2,0,10,0,0
231277,-200,4,2,0,20,0,0
232277,-200,4,2,0,30,0,0
232944,-125,4,2,0,40,0,0
242944,-125,4,2,0,28,0,0
243610,-125,4,2,0,38,0,0
252944,-90.9090909090909,4,2,0,50,0,0
254277,-80,4,2,0,70,0,1
264944,-90.9090909090909,4,2,0,65,0,0
286277,-74.0740740740741,4,2,0,65,0,0
296610,-58.8235294117647,4,2,0,65,0,0
296944,-95.2380952380952,4,2,0,65,0,0
308610,-71.4285714285714,4,2,0,65,0,0
308944,-95.2380952380952,4,2,0,65,0,0
309944,-71.4285714285714,4,2,0,65,0,0
310277,-95.2380952380952,4,2,0,65,0,0
339610,-117.647058823529,4,2,0,30,0,0
350277,-90.9090909090909,4,2,0,45,0,0
359694,-90.9090909090909,4,2,0,20,0,0
363610,250,4,2,0,65,1,0
365047,-100,4,2,0,15,0,0
365110,-100,4,2,0,65,0,0
369047,-100,4,2,0,15,0,0
369110,-100,4,2,0,65,0,0
369297,-100,4,2,0,15,0,0
369360,-100,4,2,0,65,0,0
369547,-100,4,2,0,15,0,0
369610,-100,4,2,0,65,0,0
370797,-100,4,2,0,15,0,0
370860,-100,4,2,0,65,0,0
371047,-100,4,2,0,15,0,0
371110,-100,4,2,0,65,0,0
371297,-100,4,2,0,15,0,0
371360,-100,4,2,0,65,0,0
379610,-100,4,2,0,65,0,1
383610,-83.3333333333333,4,2,0,65,0,1
387610,-71.4285714285714,4,2,0,65,0,1
394610,-71.4285714285714,4,2,0,65,0,0
395610,-80,4,2,0,65,0,1
411610,-80,4,2,0,65,0,0
427610,-80,4,2,0,65,0,1
443547,-80,4,2,0,65,0,0
443610,-74.0740740740741,4,2,0,65,0,1
461610,-66.6666666666667,4,2,0,65,0,1
463610,-66.6666666666667,4,2,0,65,0,0
464610,-66.6666666666667,4,2,0,40,0,0
465610,-66.6666666666667,4,2,0,30,0,0
466610,-66.6666666666667,4,2,0,20,0,0
467610,-66.6666666666667,4,2,0,10,0,0

[Colours]
Combo1 : 255,34,34
Combo2 : 255,47,255
Combo3 : 0,128,255
Combo4 : 151,30,251

[HitObjects]
256,192,445,12,0,2278,0:0:0:0:
44,329,3611,6,0,L|186:335,1,142.500005435944,2|0,0:0|0:0,0:0:0:0:
306,224,4277,2,0,L|164:218,1,142.500005435944
90,162,4777,1,0,0:0:0:0:
380,128,5110,5,0,0:0:0:0:
380,128,5277,2,0,P|445:127|490:188,1,142.500005435944
412,199,5777,1,0,0:0:0:0:
380,128,5944,2,0,P|378:92|384:55,1,71.2500027179719,0|0,0:0|0:0,0:0:0:0:
291,174,6277,6,0,B|202:172|230:143|127:143,1,142.500005435944,2|0,0:0|0:0,0:0:0:0:
152,300,6944,2,0,B|241:302|213:331|316:331,1,142.500005435944,0|0,0:0|0:0,0:0:0:0:
446,330,7610,2,0,B|446:187|446:187|413:116,1,213.750008153916
343,92,8277,2,0,P|408:85|476:38,1,142.500005435944,0|0,0:0|0:0,0:0:0:0:
168,91,8944,6,0,P|98:83|40:43,1,142.500005435944,2|0,0:0|0:0,0:0:0:0:
342,91,9610,2,0,P|412:83|471:42,1,142.500005435944
256,223,10277,2,0,L|256:68,1,142.500005435944
48,168,10944,2,0,L|48:310,1,142.500005435944
256,223,11610,5,2,0:0:0:0:
256,223,11777,2,0,P|287:212|337:217,1,71.2500027179719,0|0,0:0|0:0,0:0:0:0:
378,270,12110,2,0,P|378:206|429:132,1,142.500005435944,0|0,0:0|0:0,0:0:0:0:
418,140,12777,1,0,0:0:0:0:
345,79,12944,6,0,L|265:91,1,71.2500027179719,2|0,0:3|0:0,0:0:0:0:
171,51,13277,2,0,L|91:63,1,71.2500027179719,2|0,0:3|0:0,0:0:0:0:
66,83,13527,1,0,3:0:0:0:
66,83,13610,1,0,3:0:0:0:
169,196,13777,1,0,3:0:0:0:
274,89,13944,2,0,L|334:101,1,35.625001358986,0|0,1:0|0:0,0:0:0:0:
204,203,14110,2,0,L|144:191,1,35.625001358986,0|0,1:0|0:0,0:0:0:0:
342,102,14277,6,0,B|435:102|407:140|507:140,1,170.999994781494,4|8,1:2|0:0,0:0:0:0:
487,33,14777,1,0,0:0:0:0:
359,208,14944,2,0,P|359:257|384:301,1,85.4999973907472,0|0,1:0|0:0,0:0:0:0:
342,102,15277,2,0,P|293:102|249:127,1,85.4999973907472,8|0,0:0|0:0,0:0:0:0:
115,268,15610,6,0,L|102:80,1,170.999994781494,2|8,1:2|0:0,0:0:0:0:
271,287,16110,2,0,L|260:117,1,170.999994781494,2|0,0:0|0:0,0:0:0:0:
427,306,16610,2,0,L|418:192,1,85.4999973907472,8|0,0:0|0:0,0:0:0:0:
258,81,16944,6,0,P|184:59|89:115,1,170.999994781494,2|8,1:2|0:0,0:0:0:0:
192,208,17444,2,0,P|266:230|361:174,1,170.999994781494,2|0,0:0|0:0,0:0:0:0:
102,97,17944,2,0,P|93:142|105:193,1,85.4999973907472,10|0,0:0|0:0,0:0:0:0:
258,81,18277,6,0,P|207:61|160:63,1,85.4999973907472,0|0,1:0|0:0,0:0:0:0:
99,180,18610,1,8,0:0:0:0:
257,278,18777,2,0,P|218:295|176:300,1,85.4999973907472,0|0,0:0|1:0,0:0:0:0:
221,180,19110,1,0,0:0:0:0:
368,196,19277,1,8,0:0:0:0:
375,312,19444,1,0,0:0:0:0:
255,191,19610,6,0,P|228:116|260:26,1,170.999994781494,4|8,1:2|0:0,0:0:0:0:
351,112,20110,1,0,0:0:0:0:
255,191,20277,2,0,P|215:202|163:202,1,85.4999973907472,0|0,1:0|0:0,0:0:0:0:
351,112,20610,2,0,P|391:101|443:101,1,85.4999973907472,8|0,0:0|0:0,0:0:0:0:
471,257,20944,6,0,L|484:67,1,170.999994781494,2|8,1:2|0:0,0:0:0:0:
339,282,21444,2,0,L|352:92,1,170.999994781494,2|0,0:0|0:0,0:0:0:0:
196,289,21944,2,0,L|204:190,1,85.4999973907472,10|0,0:0|0:0,0:0:0:0:
114,323,22277,6,0,P|170:374|260:349,1,170.999994781494,2|8,1:2|0:0,0:0:0:0:
284,171,22777,2,0,P|228:120|138:145,1,170.999994781494,2|0,0:0|0:0,0:0:0:0:
196,289,23277,2,0,L|202:203,1,85.4999973907472,10|0,0:0|0:0,0:0:0:0:
391,48,23610,6,0,P|404:123|396:223,1,170.999994781494,0|8,1:2|0:0,0:0:0:0:
361,351,24110,1,0,0:0:0:0:
284,171,24277,1,10,0:0:0:0:
504,266,24444,1,2,1:2:0:0:
280,294,24610,1,2,1:2:0:0:
253,297,24944,6,0,L|167:307,1,85.4999973907472,4|0,1:2|0:0,0:0:0:0:
65,319,25277,1,0,1:0:0:0:
232,206,25444,2,0,L|146:216,1,85.4999973907472,4|0,1:2|0:0,0:0:0:0:
44,228,25777,1,0,0:0:0:0:
211,109,25944,1,4,1:2:0:0:
253,297,26110,6,0,P|327:330|419:292,1,170.999994781494,2|0,0:0|1:0,0:0:0:0:
342,121,26610,2,0,L|335:207,1,85.4999973907472,4|0,1:2|0:0,0:0:0:0:
204,24,26944,2,0,L|211:109,1,85.4999973907472,4|0,1:2|0:0,0:0:0:0:
253,297,27277,1,0,3:0:0:0:
288,320,27360,1,0,3:0:0:0:
329,330,27444,1,0,3:0:0:0:
371,323,27527,1,0,3:0:0:0:
408,302,27610,6,0,P|416:258|411:212,1,85.4999973907472,4|0,1:2|0:0,0:0:0:0:
398,117,27944,1,0,1:0:0:0:
408,302,28110,2,0,P|363:309|317:304,1,85.4999973907472,4|0,1:2|0:0,0:0:0:0:
224,277,28444,1,0,0:0:0:0:
408,302,28610,1,4,1:2:0:0:
222,143,28777,6,0,P|184:143|138:155,1,85.4999973907472,2|0,0:0|1:0,0:0:0:0:
272,234,29110,1,0,1:0:0:0:
175,54,29277,1,0,1:0:0:0:
133,259,29444,1,0,1:0:0:0:
278,126,29610,1,0,1:0:0:0:
81,153,29777,1,0,3:0:0:0:
81,153,29860,1,0,3:0:0:0:
81,153,29944,1,2,0:3:0:0:
272,234,30110,1,2,0:3:0:0:
39,341,30277,6,0,L|50:258,1,76,4|0,1:2|0:0,0:0:0:0:
153,220,30610,1,0,1:0:0:0:
153,220,30777,1,0,0:0:0:0:
233,300,30944,2,0,P|309:300|366:250,1,152,0|0,1:0|1:0,0:0:0:0:
268,190,31444,1,0,0:0:0:0:
233,300,31610,6,0,L|244:382,1,76,0|0,1:0|0:0,0:0:0:0:
268,190,31944,1,0,1:0:0:0:
153,220,32110,2,0,P|143:147|159:54,1,152,0|0,0:0|0:0,0:0:0:0:
256,19,32610,1,2,0:3:0:0:
256,19,32777,1,0,0:0:0:0:
358,69,32944,6,0,L|447:75,1,76,0|0,1:0|0:0,0:0:0:0:
291,162,33277,2,0,L|367:167,1,76,0|0,1:0|0:0,0:0:0:0:
223,254,33610,2,0,L|298:258,1,76,0|0,1:0|0:0,0:0:0:0:
155,347,33944,2,0,L|230:351,1,76,0|0,1:0|0:0,0:0:0:0:
98,248,34277,5,0,1:0:0:0:
164,155,34444,1,0,0:0:0:0:
223,254,34610,1,0,1:0:0:0:
164,155,34777,1,0,0:0:0:0:
98,248,34944,2,0,L|114:347,1,76,0|0,1:0|0:0,0:0:0:0:
164,155,35277,1,2,0:3:0:0:
223,254,35444,1,0,0:0:0:0:
98,248,35610,6,0,L|17:235,1,76,0|0,1:0|0:0,0:0:0:0:
164,155,35944,2,0,L|245:168,1,76,0|0,1:0|0:0,0:0:0:0:
82,267,36277,2,0,L|1:254,1,76,0|0,1:0|0:0,0:0:0:0:
180,136,36610,2,0,L|261:149,1,76,0|0,1:0|0:0,0:0:0:0:
332,62,36944,5,0,1:0:0:0:
366,171,37110,1,0,0:0:0:0:
443,85,37277,1,0,1:0:0:0:
477,194,37444,1,0,0:0:0:0:
366,171,37610,1,0,1:0:0:0:
443,85,37777,1,0,0:0:0:0:
404,278,37944,2,0,L|423:356,1,76,2|0,0:3|0:0,0:0:0:0:
366,171,38277,6,0,P|333:171|287:190,1,76,0|0,1:0|0:0,0:0:0:0:
212,266,38610,2,0,P|179:266|133:247,1,76,0|0,1:0|0:0,0:0:0:0:
57,169,38944,2,0,P|57:136|76:90,1,76,0|0,1:0|0:0,0:0:0:0:
154,178,39277,2,0,P|154:211|135:257,1,76,0|0,1:0|0:0,0:0:0:0:
81,349,39610,5,0,1:0:0:0:
61,206,39777,1,2,0:0:0:0:
58,187,39860,1,2,0:0:0:0:
56,168,39944,1,2,1:2:0:0:
81,349,40110,1,0,0:0:0:0:
139,250,40277,1,0,1:0:0:0:
197,349,40444,1,0,0:0:0:0:
255,250,40610,2,0,P|255:169|200:108,1,152,2|0,0:3|1:0,0:0:0:0:
149,210,41110,5,0,0:0:0:0:
255,250,41277,2,0,L|337:239,1,76,0|0,1:0|0:0,0:0:0:0:
149,210,41610,2,0,L|67:221,1,76,0|0,1:0|0:0,0:0:0:0:
206,353,41944,1,0,1:0:0:0:
255,250,42110,1,0,0:0:0:0:
149,210,42277,6,0,P|140:171|142:127,1,76,0|0,1:0|0:0,0:0:0:0:
219,52,42610,2,0,P|256:51|293:60,1,76,0|0,1:0|0:0,0:0:0:0:
140,135,42944,2,0,P|102:135|65:126,1,76,0|0,1:0|0:0,0:0:0:0:
323,73,43277,2,0,P|382:98|426:179,1,152,2|0,0:3|1:0,0:0:0:0:
353,261,43777,5,0,0:0:0:0:
240,241,43944,2,0,P|201:247|161:277,1,76,0|0,1:0|0:0,0:0:0:0:
209,373,44277,2,0,P|248:367|288:337,1,76,0|0,1:0|0:0,0:0:0:0:
353,261,44610,1,0,1:0:0:0:
306,173,44777,1,0,0:0:0:0:
278,347,44944,5,0,1:0:0:0:
313,180,45110,1,2,0:0:0:0:
313,180,45194,1,2,0:0:0:0:
313,180,45277,1,2,1:2:0:0:
358,293,45444,1,0,0:0:0:0:
240,241,45610,1,0,1:0:0:0:
380,302,45777,1,0,0:0:0:0:
313,180,45944,2,0,P|313:145|335:96,1,76,2|0,0:3|0:0,0:0:0:0:
426,163,46277,5,0,1:0:0:0:
313,180,46444,2,0,P|273:180|225:157,2,76,0|0|0,0:0|1:0|0:0,0:0:0:0:
426,163,46944,2,0,L|435:246,1,76,0|0,1:0|0:0,0:0:0:0:
321,255,47277,2,0,L|312:172,1,76,0|0,1:0|0:0,0:0:0:0:
357,74,47610,5,0,1:0:0:0:
426,163,47777,1,0,0:0:0:0:
312,179,47944,1,0,1:0:0:0:
381,268,48110,1,0,0:0:0:0:
336,373,48277,1,0,1:0:0:0:
450,357,48444,1,0,0:0:0:0:
296,311,48610,2,0,P|309:343|340:377,1,76,2|0,0:3|0:0,0:0:0:0:
208,259,48944,6,0,L|49:271,1,152,2|0,1:2|1:0,0:0:0:0:
260,167,49444,2,0,L|108:178,1,152,2|0,0:0|0:0,0:0:0:0:
312,75,49944,1,2,1:2:0:0:
368,164,50110,1,2,0:0:0:0:
260,167,50277,5,2,3:2:0:0:
222,169,50360,1,0,3:0:0:0:
184,172,50444,1,0,3:0:0:0:
146,175,50527,1,0,3:0:0:0:
108,178,50610,2,0,L|124:274,1,76,0|0,1:0|0:0,0:0:0:0:
171,97,50944,2,0,L|187:193,1,76,0|0,1:0|0:0,0:0:0:0:
233,15,51277,1,2,0:3:0:0:
92,105,51444,1,0,0:0:0:0:
255,255,51610,6,0,P|334:255|407:215,1,152,4|0,1:2|1:0,0:0:0:0:
493,159,52110,2,0,L|482:61,1,76,0|0,0:0|1:0,0:0:0:0:
389,147,52444,2,0,L|400:245,1,76,0|0,0:0|1:0,0:0:0:0:
345,324,52777,6,0,P|267:324|195:289,1,152,2|0,0:1|0:0,0:0:0:0:
117,215,53277,1,0,1:0:0:0:
34,294,53444,2,0,L|45:381,1,76,0|0,0:0|1:0,0:0:0:0:
126,290,53777,2,0,L|115:203,1,76,0|2,0:0|0:3,0:0:0:0:
44,125,54110,6,0,P|123:164|197:164,1,152,2|0,0:1|0:0,0:0:0:0:
294,130,54610,1,0,1:0:0:0:
270,241,54777,1,0,0:0:0:0:
185,165,54944,2,0,P|179:124|186:84,1,76,0|0,1:0|0:0,0:0:0:0:
294,130,55277,1,0,1:0:0:0:
270,241,55444,6,0,P|207:277|117:258,1,152,2|0,0:1|0:0,0:0:0:0:
102,242,55860,1,0,0:0:0:0:
102,242,55944,1,0,1:0:0:0:
185,165,56110,1,0,0:0:0:0:
270,241,56277,2,0,L|263:323,1,76,0|0,1:0|0:0,0:0:0:0:
185,165,56610,1,2,0:3:0:0:
294,130,56777,6,0,B|370:130|370:130|446:183,1,152,2|0,0:1|0:0,0:0:0:0:
472,280,57277,2,0,L|391:280,1,76,0|0,1:0|0:0,0:0:0:0:
280,280,57610,2,0,P|281:204|294:130,1,152,0|0,1:0|1:0,0:0:0:0:
381,56,58110,6,0,P|314:81|222:65,1,152,2|0,0:1|0:0,0:0:0:0:
130,27,58610,1,0,1:0:0:0:
130,27,58777,1,0,0:0:0:0:
58,116,58944,2,0,L|66:196,1,76,0|0,1:0|0:0,0:0:0:0:
130,27,59277,1,2,0:3:0:0:
235,71,59444,6,0,P|310:81|381:56,1,152,2|0,0:1|0:0,0:0:0:0:
490,24,59944,2,0,L|486:133,1,76,0|0,1:0|0:0,0:0:0:0:
380,56,60277,2,0,L|376:165,1,76,0|0,1:0|0:0,0:0:0:0:
270,88,60610,2,0,L|266:197,1,76,0|0,1:0|0:0,0:0:0:0:
258,278,60944,5,0,1:0:0:0:
363,205,61110,1,2,0:0:0:0:
375,169,61194,1,2,0:0:0:0:
376,131,61277,1,2,1:2:0:0:
267,163,61444,1,0,0:0:0:0:
361,292,61610,1,0,1:0:0:0:
376,131,61777,1,0,0:0:0:0:
361,310,61944,1,2,0:3:0:0:
258,142,62110,6,0,P|190:142|126:202,1,152,2|0,0:1|0:0,0:0:0:0:
228,251,62610,1,0,1:0:0:0:
258,142,62777,1,0,0:0:0:0:
352,204,62944,2,0,P|432:204|491:148,1,152,0|0,1:0|1:0,0:0:0:0:
390,97,63444,6,0,P|310:97|251:153,1,152,2|0,0:1|0:0,0:0:0:0:
228,251,63944,1,0,1:0:0:0:
129,195,64110,1,0,0:0:0:0:
64,289,64277,2,0,L|76:368,1,76,0|0,1:0|0:0,0:0:0:0:
129,195,64610,1,2,0:3:0:0:
228,251,64777,6,0,B|304:264|304:264|390:245,1,152,2|0,0:1|0:0,0:0:0:0:
486,214,65277,1,0,1:0:0:0:
403,135,65444,2,0,P|403:94|421:45,1,76,0|0,0:0|1:0,0:0:0:0:
377,247,65777,1,0,0:0:0:0:
403,135,65944,1,0,1:0:0:0:
486,214,66110,1,0,0:0:0:0:
291,169,66277,5,0,1:0:0:0:
361,327,66444,1,2,0:0:0:0:
361,327,66527,1,2,0:0:0:0:
361,327,66610,1,2,1:2:0:0:
291,169,66777,1,0,0:0:0:0:
486,214,66944,2,0,P|492:176|484:132,1,76,0|0,1:0|0:0,0:0:0:0:
400,30,67277,1,2,0:3:0:0:
400,30,67444,1,0,0:0:0:0:
291,169,67610,6,0,L|135:179,1,152,2|0,1:2|1:0,0:0:0:0:
350,267,68110,2,0,L|198:276,1,152,2|0,0:0|0:0,0:0:0:0:
139,178,68610,1,2,1:2:0:0:
210,88,68777,1,0,0:0:0:0:
291,169,68944,6,0,B|291:243|291:243|325:326,1,152,2|0,1:2|1:0,0:0:0:0:
398,231,69444,2,0,B|398:157|398:157|364:74,1,152,2|0,0:0|0:0,0:0:0:0:
218,36,69944,2,0,L|310:36,1,76,2|0,0:3|0:0,0:0:0:0:
143,84,70277,6,0,B|114:157|114:157|114:231,1,152,2|0,1:2|1:0,0:0:0:0:
184,357,70777,1,2,0:0:0:0:
114,257,70944,1,2,1:2:0:0:
45,357,71110,1,2,0:0:0:0:
215,231,71277,1,2,1:2:0:0:
14,231,71444,1,2,0:0:0:0:
184,357,71610,5,0,3:0:0:0:
221,360,71694,1,0,3:0:0:0:
258,350,71777,1,0,3:0:0:0:
289,329,71860,1,0,3:0:0:0:
311,298,71944,2,0,L|367:309,1,38,0|0,3:0|3:0,3:0:0:0:
215,231,72110,2,0,L|176:235,1,38,0|0,3:0|3:0,3:0:0:0:
311,164,72277,5,8,0:3:0:0:
348,158,72360,1,8,0:3:0:0:
385,163,72444,1,8,0:3:0:0:
419,180,72527,1,8,0:3:0:0:
446,206,72610,1,4,0:3:0:0:
438,169,72694,1,4,0:3:0:0:
437,131,72777,1,4,0:3:0:0:
442,94,72860,1,4,0:3:0:0:
455,58,72944,6,0,P|365:78|255:60,1,190,4|2,1:2|1:2,0:0:0:0:
96,40,73444,2,0,L|109:152,1,95,0|0,0:0|1:0,0:0:0:0:
280,159,73777,2,0,L|269:64,1,95,0|2,0:0|1:2,0:0:0:0:
51,26,74110,6,0,L|64:138,1,95,0|0,0:0|1:0,0:0:0:0:
218,289,74444,2,0,L|207:194,1,95,0|2,0:0|1:2,0:0:0:0:
187,45,74777,1,0,0:2:0:0:
118,204,74944,1,0,1:0:0:0:
293,181,75110,1,0,0:0:0:0:
218,289,75277,1,2,1:2:0:0:
196,132,75444,1,0,0:0:0:0:
196,132,75527,1,0,0:0:0:0:
196,132,75610,6,0,P|196:80|221:34,1,95,0|0,1:0|0:0,0:0:0:0:
317,110,75944,1,2,1:2:0:0:
196,132,76110,2,0,L|87:119,1,95,0|0,0:0|1:0,0:0:0:0:
317,110,76444,2,0,L|426:123,1,95,0|2,0:0|1:2,0:0:0:0:
418,311,76777,6,0,B|411:234|411:234|416:207|416:207|411:104,1,190,2|0,0:0|0:0,0:0:0:0:
256,36,77277,2,0,L|256:143,1,95,2|0,1:2|0:0,0:0:0:0:
312,274,77610,2,0,P|363:274|407:251,1,95,0|0,1:0|0:0,0:0:0:0:
200,274,77944,2,0,P|149:274|105:251,1,95,2|0,1:2|0:0,0:0:0:0:
256,67,78277,5,4,1:2:0:0:
337,186,78444,1,0,0:0:0:0:
175,186,78610,1,2,1:2:0:0:
256,46,78777,1,0,0:0:0:0:
256,236,78944,2,0,L|256:342,1,95,0|0,1:0|0:0,0:0:0:0:
175,186,79277,1,2,1:2:0:0:
337,186,79444,1,0,0:0:0:0:
256,26,79610,6,0,P|165:26|83:91,1,190,0|2,1:0|1:2,0:0:0:0:
213,176,80110,1,0,0:0:0:0:
388,96,80277,1,0,3:0:0:0:
411,90,80360,1,0,3:0:0:0:
434,89,80444,1,0,3:0:0:0:
458,90,80527,1,0,3:0:0:0:
481,94,80610,1,2,3:2:0:0:
374,227,80777,1,0,0:0:0:0:
505,98,80944,6,0,L|499:217,1,95,4|0,1:2|0:0,0:0:0:0:
310,141,81277,2,0,L|316:22,1,95,2|0,0:2|0:0,0:0:0:0:
374,227,81610,2,0,P|336:247|276:242,1,95,4|0,1:2|0:0,0:0:0:0:
135,140,81944,1,2,0:0:0:0:
153,276,82110,1,0,0:0:0:0:
310,141,82277,6,0,L|304:22,1,95,4|0,1:2|0:0,0:0:0:0:
153,276,82610,2,0,L|159:395,1,95,4|0,1:2|0:0,0:0:0:0:
222,220,82944,1,12,0:3:0:0:
183,193,83027,1,8,0:3:0:0:
136,189,83110,1,8,0:3:0:0:
94,210,83194,1,8,0:3:0:0:
67,249,83277,1,4,0:3:0:0:
94,210,83360,1,4,0:3:0:0:
97,164,83444,1,4,0:3:0:0:
77,122,83527,1,4,0:3:0:0:
37,96,83610,6,0,L|230:114,1,190,4|2,1:2|1:2,0:0:0:0:
425,142,84110,1,0,0:0:0:0:
261,215,84277,1,0,1:0:0:0:
331,43,84444,1,2,0:0:0:0:
331,43,84527,1,2,0:0:0:0:
331,43,84610,1,2,1:2:0:0:
371,223,84777,1,2,0:0:0:0:
226,113,84944,6,0,P|182:110|128:116,1,95,4|0,1:2|0:0,0:0:0:0:
371,223,85277,2,0,P|415:226|469:220,1,95,2|0,1:2|0:0,0:0:0:0:
261,215,85610,2,0,P|258:259|264:313,1,95,0|0,1:0|0:0,0:0:0:0:
371,223,85944,1,2,1:2:0:0:
226,113,86110,1,0,0:0:0:0:
128,267,86277,6,0,L|136:379,1,95,4|0,1:2|0:0,0:0:0:0:
226,113,86610,2,0,L|218:1,1,95,2|0,1:2|0:0,0:0:0:0:
127,242,86944,1,0,1:0:0:0:
261,215,87110,1,0,0:0:0:0:
174,129,87277,1,2,1:2:0:0:
214,328,87444,1,0,0:0:0:0:
169,112,87610,5,0,1:0:0:0:
127,242,87777,1,0,0:0:0:0:
261,215,87944,2,0,L|386:227,1,95,2|0,1:2|0:0,0:0:0:0:
489,185,88277,1,0,1:0:0:0:
438,338,88444,1,2,0:0:0:0:
438,338,88527,1,2,0:0:0:0:
438,338,88610,1,2,1:2:0:0:
489,185,88777,1,2,0:2:0:0:
285,215,88944,6,0,P|273:115|293:12,1,190,4|2,1:2|1:2,0:0:0:0:
393,123,89444,1,0,0:0:0:0:
285,215,89610,2,0,P|240:223|186:218,1,95,0|2,1:0|0:0,0:0:0:0:
152,208,89860,1,2,0:0:0:0:
152,208,89944,1,2,1:2:0:0:
273,110,90110,1,2,0:0:0:0:
365,278,90277,6,0,P|358:328|337:374,1,95,4|0,1:2|0:0,0:0:0:0:
248,200,90610,2,0,P|255:150|276:104,1,95,2|0,1:2|0:0,0:0:0:0:
139,278,90944,2,0,P|132:328|111:374,1,95,0|0,1:0|0:0,0:0:0:0:
17,292,91277,1,2,1:2:0:0:
219,345,91444,1,0,0:0:0:0:
151,160,91610,6,0,B|128:89|162:22|162:22|181:52|180:77,1,190,4|2,1:2|1:2,0:0:0:0:
155,204,92110,1,0,0:0:0:0:
272,109,92277,1,0,1:0:0:0:
272,109,92444,1,0,0:0:0:0:
303,267,92610,1,2,1:2:0:0:
155,204,92777,1,0,0:0:0:0:
357,172,92944,6,0,B|407:172|407:172|457:193,1,92.6249957599642,0|0,1:0|0:0,0:0:0:0:
512,232,93277,1,6,1:2:0:0:
445,91,93444,1,0,0:0:0:0:
388,270,93610,1,0,3:0:0:0:
385,292,93694,1,0,3:0:0:0:
389,315,93777,1,0,3:0:0:0:
400,335,93860,1,0,3:0:0:0:
416,351,93944,6,0,B|366:347|366:347|341:353|341:353|262:345,1,135.374996385098,0|0,0:0|0:0,0:0:0:0:
239,318,94277,6,0,L|255:204,1,99.7499969558717,4|0,1:2|0:0,0:0:0:0:
77,248,94610,2,0,L|61:134,1,99.7499969558717,2|0,0:0|0:0,0:0:0:0:
281,347,94944,2,0,L|297:233,1,99.7499969558717,0|0,1:0|0:0,0:0:0:0:
35,277,95277,2,0,L|19:163,1,99.7499969558717,2|0,0:0|0:0,0:0:0:0:
185,76,95610,5,0,1:0:0:0:
252,219,95777,1,0,0:0:0:0:
179,54,95944,1,2,0:0:0:0:
148,249,96110,1,0,0:0:0:0:
265,121,96277,1,0,1:0:0:0:
337,286,96444,1,0,0:0:0:0:
337,286,96527,1,0,0:0:0:0:
337,286,96610,1,2,0:0:0:0:
252,219,96777,1,2,0:0:0:0:
406,127,96944,6,0,L|514:139,1,99.7499969558717,0|0,1:0|0:0,0:0:0:0:
337,286,97277,2,0,L|445:274,1,99.7499969558717,2|0,0:0|0:0,0:0:0:0:
389,97,97610,2,0,L|497:109,1,99.7499969558717,0|0,1:0|0:0,0:0:0:0:
320,316,97944,2,0,L|428:304,1,99.7499969558717,2|0,0:0|0:0,0:0:0:0:
252,219,98277,6,0,P|179:219|95:306,1,199.499993911743,0|2,1:0|0:0,0:0:0:0:
213,335,98777,1,0,0:0:0:0:
252,219,98944,1,0,1:0:0:0:
120,202,99110,1,2,0:0:0:0:
112,178,99194,1,2,0:0:0:0:
108,153,99277,1,2,0:0:0:0:
108,128,99360,1,0,0:0:0:0:
110,103,99444,1,2,0:0:0:0:
116,79,99527,1,0,0:0:0:0:
125,56,99610,6,0,P|175:65|227:59,1,99.7499969558717,4|0,1:2|0:0,0:0:0:0:
400,176,99944,2,0,P|350:167|298:173,1,99.7499969558717,2|0,0:0|0:0,0:0:0:0:
116,79,100277,2,0,P|165:87|217:81,1,99.7499969558717,0|0,1:0|0:0,0:0:0:0:
409,153,100610,2,0,P|359:144|307:150,1,99.7499969558717,2|0,0:0|0:0,0:0:0:0:
120,202,100944,5,0,1:0:0:0:
215,82,101110,1,0,0:0:0:0:
215,269,101277,1,2,0:0:0:0:
310,149,101444,1,0,0:0:0:0:
120,202,101610,2,0,P|76:180|41:137,1,99.7499969558717,0|2,1:0|0:0,0:0:0:0:
41,110,101860,1,2,0:0:0:0:
41,110,101944,1,2,0:0:0:0:
41,274,102110,1,2,0:0:0:0:
142,98,102277,6,0,L|262:110,1,99.7499969558717,0|0,1:0|0:0,0:0:0:0:
41,274,102610,2,0,L|161:262,1,99.7499969558717,2|0,0:0|0:0,0:0:0:0:
132,74,102944,2,0,L|252:86,1,99.7499969558717,0|0,1:0|0:0,0:0:0:0:
31,298,103277,2,0,L|151:286,1,99.7499969558717,2|0,0:0|0:0,0:0:0:0:
290,189,103610,6,0,B|363:189|363:189|442:189|458:266,1,199.499993911743,0|2,1:0|0:0,0:0:0:0:
290,311,104110,1,0,0:0:0:0:
290,189,104277,2,0,B|312:144|312:144|349:112,1,99.7499969558717,0|0,1:0|0:0,0:0:0:0:
394,119,104527,1,8,0:0:0:0:
394,119,104610,2,0,L|464:127,1,49.8749984779358,8|8,0:0|0:0,0:0:0:0:
456,258,104777,2,0,L|505:263,1,49.8749984779358
290,311,104944,6,0,P|246:321|179:312,1,99.7499969558717,4|0,1:2|0:0,0:0:0:0:
147,309,105194,1,0,0:0:0:0:
147,309,105277,2,0,L|83:318,3,49.8749984779358,10|0|0|0,0:0|0:0|0:0|0:0,0:0:0:0:
68,236,105610,2,0,L|4:245,3,49.8749984779358,2|0|0|0,1:2|0:0|0:0|0:0,0:0:0:0:
37,144,105944,1,10,0:0:0:0:
147,309,106110,1,2,0:0:0:0:
183,149,106277,5,6,1:2:0:0:
214,150,106360,1,0,0:0:0:0:
244,154,106444,1,0,0:0:0:0:
274,164,106527,1,0,0:0:0:0:
300,182,106610,1,10,0:0:0:0:
324,201,106694,1,0,0:0:0:0:
353,214,106777,1,0,0:0:0:0:
383,220,106860,1,0,0:0:0:0:
414,223,106944,2,0,L|463:219,3,49.8749984779358,2|0|0|0,1:2|0:0|0:0|0:0,0:0:0:0:
436,128,107277,2,0,B|422:73|438:19|438:19|402:47,1,149.624995433808,10|0,0:0|0:0,0:0:0:0:
336,105,107610,6,0,L|271:102,3,49.8749984779358,4|0|0|0,1:2|0:0|0:0|0:0,0:0:0:0:
221,158,107944,2,0,L|156:155,3,49.8749984779358,10|0|0|0,0:0|0:0|0:0|0:0,0:0:0:0:
106,211,108277,1,2,1:2:0:0:
111,247,108360,1,0,0:0:0:0:
105,284,108444,1,0,0:0:0:0:
87,317,108527,1,0,0:0:0:0:
60,342,108610,1,10,0:0:0:0:
109,336,108694,1,0,0:0:0:0:
159,330,108777,1,0,0:0:0:0:
208,337,108860,1,0,0:0:0:0:
257,344,108944,6,0,L|321:336,3,49.8749984779358,6|0|0|0,1:2|0:0|0:0|0:0,0:0:0:0:
366,271,109277,2,0,L|351:207,1,49.8749984779358,10|0,0:0|0:0,0:0:0:0:
457,307,109444,2,0,L|472:371,1,49.8749984779358,10|0,0:0|0:0,0:0:0:0:
344,180,109610,1,2,1:2:0:0:
312,181,109694,1,0,0:0:0:0:
282,187,109777,1,0,0:0:0:0:
253,198,109860,1,0,0:0:0:0:
226,214,109944,1,10,0:0:0:0:
198,228,110027,1,0,0:0:0:0:
168,238,110110,1,0,0:0:0:0:
138,243,110194,1,0,0:0:0:0:
107,246,110277,6,0,L|54:240,1,49.8749984779358,6|0,1:2|0:0,0:0:0:0:
132,119,110444,1,0,0:0:0:0:
144,119,110527,1,0,0:0:0:0:
156,120,110610,1,10,0:0:0:0:
169,120,110694,1,0,0:0:0:0:
181,121,110777,1,0,0:0:0:0:
198,228,110944,1,2,1:2:0:0:
210,228,111027,1,0,0:0:0:0:
222,229,111110,1,0,0:0:0:0:
235,229,111194,1,0,0:0:0:0:
247,230,111277,2,0,L|352:230,1,99.7499969558717,10|0,0:0|0:0,0:0:0:0:
448,368,111610,6,0,B|449:302|428:271|428:271|450:235|457:165,1,199.499993911743,6|10,1:2|0:0,0:0:0:0:
492,51,112110,1,10,0:0:0:0:
355,133,112277,2,0,L|245:112,1,99.7499969558717,0|0,1:0|0:0,0:0:0:0:
394,32,112610,2,0,L|504:53,1,99.7499969558717,8|0,0:0|0:0,0:0:0:0:
257,114,112944,5,6,1:2:0:0:
250,96,113027,1,2,0:0:0:0:
247,77,113110,1,2,0:0:0:0:
247,59,113194,1,2,0:0:0:0:
250,40,113277,2,2,L|184:46,3,49.8749984779358,10|2|2|2,0:0|0:0|0:0|0:0,0:0:0:0:
118,61,113610,1,6,1:2:0:0:
111,79,113694,1,2,0:0:0:0:
108,98,113777,1,2,0:0:0:0:
108,116,113860,1,2,0:0:0:0:
111,135,113944,2,2,L|45:129,3,49.8749984779358,10|2|2|2,0:0|0:0|0:0|0:0,0:0:0:0:
28,228,114277,6,0,L|52:328,1,99.7499969558717,6|2,1:2|0:0,0:0:0:0:
210,218,114610,2,0,L|233:121,1,99.7499969558717,14|2,0:0|0:0,0:0:0:0:
247,324,114944,1,8,0:3:0:0:
282,336,115027,1,8,0:3:0:0:
319,335,115110,1,8,0:3:0:0:
354,323,115194,1,8,0:3:0:0:
382,299,115277,1,4,0:3:0:0:
401,267,115360,1,4,0:3:0:0:
408,230,115444,1,4,0:3:0:0:
403,194,115527,1,4,0:3:0:0:
385,161,115610,6,0,P|437:154|490:168,1,99.7499969558717,4|0,1:2|0:0,0:0:0:0:
354,323,115944,2,0,P|302:330|249:316,1,99.7499969558717,2|0,1:2|0:0,0:0:0:0:
139,223,116277,1,0,1:0:0:0:
256,126,116444,2,0,P|304:115|354:122,1,99.7499969558717,0|2,0:0|1:2,0:0:0:0:
384,244,116777,6,0,P|383:159|461:83,1,199.499993911743,2|0,0:1|0:0,0:0:0:0:
384,244,117277,2,0,P|329:244|269:217,1,99.7499969558717,2|0,1:2|0:0,0:0:0:0:
140,137,117610,1,0,1:0:0:0:
191,276,117777,1,0,0:0:0:0:
242,137,117944,1,2,1:2:0:0:
191,276,118110,1,0,0:0:0:0:
140,137,118277,6,0,B|137:88|137:88|149:30,1,99.7499969558717,0|0,1:0|0:0,0:0:0:0:
191,276,118610,2,0,L|191:377,1,99.7499969558717,2|0,1:2|0:0,0:0:0:0:
242,137,118944,2,0,B|245:88|245:88|233:30,1,99.7499969558717,0|0,1:0|0:0,0:0:0:0:
191,276,119277,1,2,1:2:0:0:
242,168,119444,1,0,0:0:0:0:
83,220,119610,5,0,1:0:0:0:
271,310,119777,1,0,0:0:0:0:
57,220,119944,1,2,1:2:0:0:
271,130,120110,2,0,P|328:120|376:125,1,99.7499969558717,0|0,0:0|1:0,0:0:0:0:
459,255,120444,1,0,0:0:0:0:
311,259,120610,1,2,1:2:0:0:
480,353,120777,1,0,0:0:0:0:
311,259,120944,6,0,B|253:248|253:248|96:281,1,199.499993911743,4|2,1:2|1:2,0:0:0:0:
252,350,121444,1,0,0:0:0:0:
234,144,121610,1,0,1:0:0:0:
116,276,121777,2,0,P|70:285|13:283,1,99.7499969558717,0|2,0:0|1:2,0:0:0:0:
234,144,122110,6,0,P|330:124|432:149,1,199.499993911743,2|0,0:1|0:0,0:0:0:0:
328,259,122610,1,2,1:2:0:0:
234,144,122777,1,0,0:0:0:0:
427,146,122944,1,0,1:0:0:0:
333,31,123110,1,0,0:0:0:0:
232,240,123277,1,2,1:2:0:0:
433,48,123444,1,0,0:0:0:0:
234,144,123610,6,0,P|186:144|118:127,1,99.7499969558717,0|0,1:0|0:0,0:0:0:0:
334,37,123944,2,0,P|382:37|450:54,1,99.7499969558717,2|0,1:2|0:0,0:0:0:0:
232,240,124277,1,0,1:0:0:0:
371,158,124444,1,0,0:0:0:0:
322,308,124610,1,2,1:2:0:0:
234,144,124777,1,0,0:0:0:0:
405,245,124944,6,0,P|449:245|499:216,1,99.7499969558717,0|0,1:0|0:0,0:0:0:0:
325,117,125277,2,0,P|281:117|231:146,1,99.7499969558717,2|0,1:2|0:0,0:0:0:0:
142,249,125610,1,8,0:3:0:0:
114,223,125694,1,8,0:3:0:0:
97,190,125777,1,8,0:3:0:0:
92,153,125860,1,8,0:3:0:0:
100,117,125944,1,4,0:3:0:0:
148,117,126027,1,4,0:3:0:0:
173,76,126110,1,4,0:3:0:0:
153,33,126194,1,4,0:3:0:0:
105,27,126277,5,4,1:2:0:0:
233,143,126444,1,0,0:0:0:0:
229,180,126527,1,0,0:0:0:0:
225,217,126610,1,2,1:2:0:0:
325,117,126777,1,0,0:0:0:0:
321,79,126860,1,0,0:0:0:0:
317,42,126944,2,0,P|265:51|216:44,1,99.7499969558717,0|0,1:0|0:0,0:0:0:0:
339,200,127277,2,0,P|391:191|440:198,1,99.7499969558717,2|0,1:2|0:0,0:0:0:0:
312,311,127610,5,0,1:0:0:0:
387,138,127777,1,0,0:0:0:0:
461,321,127944,1,2,1:2:0:0:
316,203,128110,2,0,P|264:203|206:226,1,99.7499969558717,0|0,0:0|1:0,0:0:0:0:
103,300,128444,1,0,0:0:0:0:
98,169,128610,1,2,1:2:0:0:
219,218,128777,1,0,0:0:0:0:
214,87,128944,6,0,P|163:87|101:66,1,99.7499969558717,0|0,1:0|0:0,0:0:0:0:
298,87,129277,2,0,P|349:87|411:66,1,99.7499969558717,2|0,1:2|0:0,0:0:0:0:
195,182,129610,2,0,P|144:182|82:161,1,99.7499969558717,0|0,1:0|0:0,0:0:0:0:
317,182,129944,2,0,P|368:182|430:161,1,99.7499969558717,2|0,1:2|0:0,0:0:0:0:
256,261,130277,5,0,1:0:0:0:
256,285,130360,1,0,0:0:0:0:
256,310,130444,1,0,0:0:0:0:
256,335,130527,1,0,0:0:0:0:
256,360,130610,1,2,1:2:0:0:
317,182,130777,1,0,0:0:0:0:
195,182,130944,1,0,1:0:0:0:
349,86,131110,1,0,0:0:0:0:
163,86,131277,1,2,1:2:0:0:
256,21,131444,1,0,0:0:0:0:
256,261,131610,5,4,1:2:0:0:
349,86,131777,1,0,0:0:0:0:
373,80,131860,1,0,0:0:0:0:
397,75,131944,1,2,1:2:0:0:
163,86,132110,1,0,0:0:0:0:
138,80,132194,1,0,0:0:0:0:
114,75,132277,2,0,L|129:176,1,99.7499969558717,0|0,1:0|0:0,0:0:0:0:
256,261,132610,2,0,L|241:160,1,99.7499969558717,2|0,1:2|0:0,0:0:0:0:
149,361,132944,5,0,1:0:0:0:
265,311,133110,1,0,0:0:0:0:
381,261,133277,1,2,1:2:0:0:
497,211,133444,2,0,P|491:156|472:91,1,99.7499969558717,0|0,0:0|1:0,0:0:0:0:
351,37,133777,1,0,0:0:0:0:
263,159,133944,1,2,1:2:0:0:
384,37,134110,1,0,0:0:0:0:
230,159,134277,6,0,P|172:159|111:145,1,99.7499969558717,4|0,1:2|0:0,0:0:0:0:
324,236,134610,2,0,P|382:236|443:250,1,99.7499969558717,2|0,1:2|0:0,0:0:0:0:
233,126,134944,2,0,P|175:126|114:112,1,99.7499969558717,4|0,1:2|0:0,0:0:0:0:
321,269,135277,2,0,P|379:269|440:283,1,99.7499969558717,2|0,1:2|0:0,0:0:0:0:
198,353,135610,5,6,1:2:0:0:
158,324,135694,1,2,0:0:0:0:
138,278,135777,1,2,0:0:0:0:
145,230,135860,1,0,0:0:0:0:
177,192,135944,1,6,1:2:0:0:
223,176,136027,1,2,0:0:0:0:
272,186,136110,1,2,0:0:0:0:
307,220,136194,1,0,0:0:0:0:
320,268,136277,5,8,0:3:0:0:
290,274,136360,1,8,0:3:0:0:
259,278,136444,1,8,0:3:0:0:
228,277,136527,1,8,0:3:0:0:
198,268,136610,1,4,0:3:0:0:
168,261,136694,1,4,0:3:0:0:
136,261,136777,1,4,0:3:0:0:
106,267,136860,1,4,0:3:0:0:
76,276,136944,6,0,P|77:179|13:106,1,199.499993911743,4|2,1:2|1:2,0:0:0:0:
174,83,137444,1,0,0:0:0:0:
172,276,137610,2,0,P|124:287|76:276,1,99.7499969558717,0|0,1:0|0:0,0:0:0:0:
257,191,137944,2,0,P|305:179|353:191,1,99.7499969558717,2|0,1:2|0:0,0:0:0:0:
449,336,138277,5,0,1:0:0:0:
307,263,138444,1,2,0:0:0:0:
480,245,138610,1,2,1:2:0:0:
338,172,138777,1,2,0:0:0:0:
511,154,138944,1,2,1:2:0:0:
366,82,139110,2,0,P|317:82|268:109,1,99.7499969558717,0|2,0:0|1:2,0:0:0:0:
160,177,139444,1,0,0:0:0:0:
338,172,139610,6,0,B|345:267|345:267|338:289|338:289|344:378,1,199.499993911743,0|2,1:0|1:2,0:0:0:0:
243,253,140110,1,0,0:0:0:0:
440,301,140277,2,0,P|474:270|496:220,1,99.7499969558717,0|0,1:0|0:0,0:0:0:0:
243,253,140610,2,0,P|209:284|187:334,1,99.7499969558717,2|0,1:2|0:0,0:0:0:0:
344,370,140944,5,2,1:2:0:0:
338,172,141110,1,2,1:2:0:0:
311,151,141194,1,2,1:2:0:0:
280,139,141277,1,2,1:2:0:0:
247,137,141360,1,2,0:2:0:0:
215,144,141444,1,2,1:2:0:0:
187,161,141527,1,2,0:2:0:0:
164,185,141610,5,2,1:2:0:0:
479,40,141944,1,2,1:2:0:0:
452,40,142277,6,0,B|355:39|355:39|344:48|344:48|256:48,1,199.499993911743,0|2,1:0|1:2,0:0:0:0:
186,173,142777,1,0,1:0:0:0:
186,173,142860,1,0,0:0:0:0:
186,173,142944,1,0,1:0:0:0:
326,173,143110,1,0,1:0:0:0:
256,48,143277,1,2,1:2:0:0:
256,298,143444,1,0,1:0:0:0:
263,305,143777,5,0,1:0:0:0:
263,305,143860,1,0,0:0:0:0:
263,305,143944,1,2,1:2:0:0:
326,173,144110,1,0,1:0:0:0:
186,173,144277,1,0,1:0:0:0:
255,48,144444,1,0,1:0:0:0:
255,48,144527,1,0,1:0:0:0:
255,48,144610,2,0,L|366:48,1,99.7499969558717,2|0,1:2|1:0,0:0:0:0:
451,180,144944,5,6,1:2:0:0:
310,158,145110,1,2,0:0:0:0:
310,158,145194,1,2,0:0:0:0:
310,158,145277,1,2,1:2:0:0:
451,180,145444,1,2,0:0:0:0:
275,251,145610,5,6,1:2:0:0:
416,273,145777,1,2,0:0:0:0:
416,273,145860,1,2,0:0:0:0:
416,273,145944,1,2,1:2:0:0:
275,251,146110,1,2,0:0:0:0:
451,180,146277,6,0,P|451:133|433:79,1,99.7499969558717,4|0,1:2|0:0,0:0:0:0:
275,251,146610,2,0,P|275:298|293:352,1,99.7499969558717,4|0,1:2|0:0,0:0:0:0:
261,122,146944,2,8,L|197:128,3,49.8749984779358,8|8|8|8,0:3|0:3|0:3|0:3,0:3:0:0:
140,173,147277,1,4,0:3:0:0:
147,196,147360,1,4,0:3:0:0:
150,221,147444,1,4,0:3:0:0:
149,246,147527,1,4,0:3:0:0:
144,269,147610,6,0,B|192:280|192:280|245:298,1,99.7499969558717,6|0,1:2|0:0,0:0:0:0:
272,296,147860,2,0,B|320:280|320:280|368:269,1,99.7499969558717,2|0,0:0|0:0,0:0:0:0:
410,264,148110,1,2,0:0:0:0:
368,115,148277,1,0,1:0:0:0:
144,269,148444,1,0,0:0:0:0:
368,269,148610,1,8,0:0:0:0:
144,115,148777,1,0,0:0:0:0:
256,192,148944,6,0,L|356:174,1,99.7499969558717,2|0,1:2|0:0,0:0:0:0:
387,163,149194,2,0,L|363:61,1,99.7499969558717,2|0,0:0|0:0,0:0:0:0:
354,31,149444,1,2,0:0:0:0:
256,192,149610,1,0,1:0:0:0:
256,22,149777,1,0,0:0:0:0:
158,183,149944,1,8,0:0:0:0:
158,13,150110,1,0,0:0:0:0:
60,174,150277,6,0,P|60:226|71:285,1,99.7499969558717,2|0,1:2|0:0,0:0:0:0:
76,312,150527,2,0,P|128:312|187:301,1,99.7499969558717,2|0,0:0|0:0,0:0:0:0:
215,298,150777,1,2,0:0:0:0:
158,166,150944,2,0,P|106:166|47:177,1,99.7499969558717,0|0,1:0|0:0,0:0:0:0:
215,298,151277,2,0,P|267:298|326:287,1,99.7499969558717,10|2,0:0|0:0,0:0:0:0:
256,64,151610,6,0,L|256:171,1,99.7499969558717,2|0,1:2|0:0,0:0:0:0:
256,199,151860,1,2,0:0:0:0:
256,199,151944,1,10,0:0:0:0:
348,120,152110,1,2,0:0:0:0:
348,120,152194,1,2,0:0:0:0:
348,120,152277,1,2,1:2:0:0:
256,287,152444,1,2,0:0:0:0:
164,120,152610,2,0,B|114:119|114:119|61:135,1,99.7499969558717,10|0,0:0|0:0,0:0:0:0:
156,295,152944,6,0,L|268:285,1,99.7499969558717,6|0,1:2|0:0,0:0:0:0:
286,315,153194,2,0,L|398:305,1,99.7499969558717,2|0,0:0|0:0,0:0:0:0:
413,334,153444,1,2,0:0:0:0:
335,192,153610,2,0,B|335:142|335:142|352:89,1,99.7499969558717,0|0,1:0|0:0,0:0:0:0:
177,192,153944,2,0,B|177:142|177:142|160:89,1,99.7499969558717,8|0,0:0|0:0,0:0:0:0:
256,31,154277,6,0,L|256:136,1,99.7499969558717,2|0,1:2|0:0,0:0:0:0:
256,170,154527,2,0,L|256:275,1,99.7499969558717,2|0,0:0|0:0,0:0:0:0:
256,309,154777,1,2,0:0:0:0:
335,192,154944,2,0,P|345:147|336:95,1,99.7499969558717,0|0,1:0|0:0,0:0:0:0:
177,192,155277,2,0,P|167:147|176:95,1,99.7499969558717,8|0,0:0|0:0,0:0:0:0:
256,332,155610,6,0,B|300:330|300:330|310:335|310:335|361:331,1,99.7499969558717,2|0,1:2|0:0,0:0:0:0:
376,298,155860,2,0,B|420:296|420:296|430:301|430:301|481:297,1,99.7499969558717,2|0,0:0|0:0,0:0:0:0:
502,269,156110,1,2,0:0:0:0:
335,192,156277,2,0,B|283:192|283:192|231:214,1,99.7499969558717,0|0,1:0|0:0,0:0:0:0:
160,350,156610,2,0,B|212:350|212:350|264:328,1,99.7499969558717,8|0,0:0|0:0,0:0:0:0:
74,215,156944,5,0,1:0:0:0:
72,239,157027,1,0,0:0:0:0:
71,264,157110,1,0,0:0:0:0:
80,67,157277,1,8,0:0:0:0:
192,228,157444,1,0,0:0:0:0:
192,228,157527,1,0,0:0:0:0:
223,252,157610,5,8,0:3:0:0:
223,252,157694,2,8,L|290:257,1,49.8749984779358,8|8,0:3|0:3,0:3:0:0:
387,166,157860,1,8,0:3:0:0:
387,166,157944,2,4,L|320:161,1,49.8749984779358,4|4,0:3|0:3,0:3:0:0:
232,58,158110,2,4,L|299:63,1,49.8749984779358,4|4,0:3|0:3,0:3:0:0:
144,153,158277,5,4,0:0:0:0:
256,192,166277,12,2,168610,0:0:0:0:
249,137,168944,6,0,P|315:190|247:244,1,190,6|0,1:2|0:0,0:0:0:0:
253,245,170944,2,0,P|291:238|329:244,2,63.3333333333333,2|2|2,2:3|0:0|0:0,0:0:0:0:
154,260,171610,2,0,B|129:176|183:154|143:67,1,190,2|2,0:3|0:0,0:0:0:0:
146,73,173610,5,2,0:0:0:0:
256,356,174277,1,2,0:0:0:0:
366,73,174944,1,2,0:0:0:0:
146,73,176277,6,0,B|101:74|71:86,2,63.3333333333333,2|2|2,0:3|0:0|0:0,0:0:0:0:
245,94,176944,2,0,B|231:189|231:189|245:290,1,190,2|2,0:3|0:0,0:0:0:0:
243,282,178610,5,2,0:0:0:0:
349,172,178944,1,2,0:0:0:0:
432,299,179277,1,2,0:0:0:0:
243,282,179610,6,0,P|243:186|397:87,1,285,6|0,1:2|0:0,0:0:0:0:
388,239,180944,1,2,0:3:0:0:
124,239,181610,1,2,0:0:0:0:
256,35,182277,1,2,0:0:0:0:
256,35,183610,6,0,L|256:133,1,95,2|2,0:3|0:0,0:0:0:0:
256,282,184277,2,0,P|223:290|186:284,2,63.3333333333333,2|2|2,0:0|0:0|0:0,0:0:0:0:
308,194,184944,2,0,P|289:286|319:379,1,190,2|2,0:3|0:0,0:0:0:0:
317,375,186610,5,2,0:0:0:0:
254,236,186944,1,2,0:0:0:0:
191,97,187277,1,2,0:0:0:0:
335,143,187610,6,0,P|412:143|487:226,1,190,2|2,0:3|0:0,0:0:0:0:
177,241,188944,2,0,P|100:241|25:158,1,190,2|2,0:3|0:0,0:0:0:0:
256,192,190277,5,2,0:0:0:0:
127,246,211610,5,0,1:0:0:0:
140,259,212277,1,0,1:0:0:0:
153,272,212944,1,0,1:0:0:0:
163,287,213610,1,0,1:0:0:0:
176,300,214277,1,0,1:0:0:0:
189,313,214944,1,0,1:0:0:0:
202,326,215610,2,0,B|280:271|280:271|374:271,1,190,0|0,1:0|1:0,0:0:0:0:
374,271,216944,5,0,1:0:0:0:
361,258,217610,1,0,1:0:0:0:
348,245,218277,1,0,1:0:0:0:
338,230,218944,1,0,1:0:0:0:
256,192,219610,12,0,222277,0:0:0:0:
256,192,230277,12,0,232610,0:0:0:0:
221,134,232944,6,0,P|221:210|256:292,1,152,6|0,0:0|0:0,0:0:0:0:
288,361,233444,2,0,P|364:361|446:326,1,152,2|0,0:0|0:0,0:0:0:0:
496,267,233944,1,2,0:0:0:0:
372,127,234277,6,0,P|288:127|207:136,1,152,2|0,0:0|0:0,0:0:0:0:
220,225,234777,2,0,P|295:232|371:231,1,152,2|0,0:0|0:0,0:0:0:0:
448,182,235277,1,2,0:0:0:0:
64,182,235944,6,0,P|72:220|91:279,1,76,2|2,0:0|0:0,0:0:0:0:
171,277,236277,2,0,P|93:297|27:345,1,152,2|2,0:0|0:0,0:0:0:0:
216,352,236944,6,0,P|256:299|216:202,1,152,2|0,0:0|0:0,0:0:0:0:
156,179,237444,2,0,P|232:183|321:169,1,152,2|0,0:0|0:0,0:0:0:0:
390,136,237944,1,2,0:0:0:0:
156,179,238277,6,0,B|156:104|156:104|175:17,1,152,2|0,0:0|0:0,0:0:0:0:
263,28,238777,2,0,B|263:103|263:103|244:190,1,152,2|0,0:0|0:0,0:0:0:0:
199,256,239277,1,2,0:0:0:0:
390,136,239610,6,0,L|382:311,1,152,2|0,0:0|0:0,0:0:0:0:
285,304,240110,2,0,L|293:129,1,152,2|0,0:0|0:0,0:0:0:0:
299,54,240610,1,2,0:0:0:0:
199,256,240944,5,2,0:0:0:0:
199,256,241110,2,0,P|128:265|34:251,2,152,2|2|2,0:0|0:0|0:0,0:0:0:0:
274,203,241944,1,2,0:0:0:0:
280,292,242110,1,2,0:0:0:0:
199,150,242277,6,0,P|128:141|34:155,1,152,2|0,0:0|0:0,0:0:0:0:
48,255,242777,2,0,P|123:265|199:255,1,152,2|0,0:0|0:0,0:0:0:0:
274,203,243277,1,0,0:0:0:0:
274,203,243610,6,0,L|434:218,1,152,6|8,1:2|0:0,0:0:0:0:
207,259,244110,2,0,P|187:210|194:171,1,76,2|0,0:0|0:0,0:0:0:0:
287,78,244444,1,0,1:0:0:0:
385,187,244610,2,0,P|384:225|367:259,1,76,10|0,0:0|0:0,0:0:0:0:
287,78,244944,6,0,P|365:71|457:82,1,152,2|8,1:2|0:0,0:0:0:0:
217,131,245444,2,0,P|200:98|199:60,1,76,2|0,1:2|0:0,0:0:0:0:
267,201,245777,1,0,1:0:0:0:
205,258,245944,2,0,P|156:278|117:271,1,76,10|0,0:0|0:0,0:0:0:0:
36,201,246277,6,0,L|33:367,1,152,0|10,1:0|0:0,0:0:0:0:
110,151,246777,1,2,0:0:0:0:
133,276,246944,2,0,P|171:275|205:258,1,76,2|0,0:0|1:0,0:0:0:0:
110,151,247277,2,0,P|72:151|38:169,1,76,10|0,0:0|0:0,0:0:0:0:
232,245,247610,6,0,L|219:163,2,76,2|0|8,1:2|0:0|0:0,0:0:0:0:
177,337,248110,2,0,B|243:297|243:297|324:311,1,152,2|0,1:2|1:0,0:0:0:0:
437,338,248610,2,0,L|433:244,1,76,10|0,0:0|0:0,0:0:0:0:
352,96,248944,5,0,1:0:0:0:
160,96,249277,1,8,1:2:0:0:
160,288,249610,1,0,1:0:0:0:
352,288,249944,1,8,1:2:0:0:
336,112,250277,5,0,1:0:0:0:
176,112,250610,1,8,1:2:0:0:
176,272,250944,1,0,1:0:0:0:
336,272,251277,1,8,1:2:0:0:
320,128,251610,5,0,1:0:0:0:
192,128,251777,1,0,1:0:0:0:
192,256,251944,1,8,1:2:0:0:
320,256,252110,1,0,1:0:0:0:
256,192,252277,5,8,0:3:0:0:
228,173,252360,1,8,0:3:0:0:
196,166,252444,1,8,0:3:0:0:
163,170,252527,1,8,0:3:0:0:
134,186,252610,1,12,0:3:0:0:
113,211,252694,1,4,0:3:0:0:
102,242,252777,1,4,0:3:0:0:
102,275,252860,1,4,0:3:0:0:
115,306,252944,6,0,P|174:284|230:279,1,104.500003189087,4|0,0:1|0:0,0:0:0:0:
328,266,253194,2,0,P|276:258|228:238,1,104.500003189087,4|0,0:1|0:0,0:0:0:0:
115,225,253444,2,0,P|174:203|230:198,1,104.500003189087,4|0,0:1|0:0,0:0:0:0:
328,185,253694,2,0,P|276:177|228:157,1,104.500003189087,4|0,0:1|0:0,0:0:0:0:
127,77,253944,2,0,L|135:140,1,52.2500015945435,4|0,0:1|0:0,0:0:0:0:
302,85,254110,2,0,L|294:22,1,52.2500015945435,4|0,0:1|0:0,0:0:0:0:
258,253,254277,6,0,B|321:288|374:256|374:256|318:283|324:357,1,237.5,4|2,1:0|1:2,0:0:0:0:
240,152,254777,1,0,0:0:0:0:
200,154,254860,1,0,0:0:0:0:
165,173,254944,1,4,1:0:0:0:
141,203,255027,1,0,0:0:0:0:
131,241,255110,1,0,0:0:0:0:
136,280,255194,1,0,0:0:0:0:
157,313,255277,1,2,1:2:0:0:
122,302,255360,1,0,0:0:0:0:
85,299,255444,1,0,0:0:0:0:
48,303,255527,1,0,0:0:0:0:
14,316,255610,6,0,L|9:241,1,59.375,4|0,1:0|0:0,0:0:0:0:
168,113,255777,2,0,L|165:173,1,59.375
157,313,255944,1,2,1:2:0:0:
65,173,256110,1,0,0:0:0:0:
235,235,256277,1,0,1:0:0:0:
10,256,256444,1,0,0:0:0:0:
168,113,256610,1,2,1:2:0:0:
157,313,256777,1,0,0:0:0:0:
266,139,256944,6,0,P|325:128|399:138,1,118.75,4|0,1:0|0:0,0:0:0:0:
330,329,257277,1,2,1:2:0:0:
287,341,257360,1,0,0:0:0:0:
243,334,257444,1,0,0:0:0:0:
207,310,257527,1,0,0:0:0:0:
184,272,257610,1,4,1:0:0:0:
179,228,257694,1,0,0:0:0:0:
193,186,257777,1,0,0:0:0:0:
224,155,257860,1,0,0:0:0:0:
265,138,257944,1,2,1:2:0:0:
304,119,258027,1,0,0:0:0:0:
337,88,258110,1,0,0:0:0:0:
359,50,258194,1,0,0:0:0:0:
367,6,258277,6,0,L|441:25,1,59.375,4|0,1:0|0:0,0:0:0:0:
480,142,258444,1,0,0:0:0:0:
265,138,258610,1,2,1:2:0:0:
367,6,258777,1,0,0:0:0:0:
374,211,258944,2,0,B|381:270|381:270|370:332,1,118.75,0|0,1:0|0:0,0:0:0:0:
265,138,259277,1,2,1:2:0:0:
480,142,259444,1,0,0:0:0:0:
258,267,259610,6,0,B|207:284|169:268|169:268|204:288|228:337,1,178.125,4|0,1:0|0:0,0:0:0:0:
316,332,259944,1,2,1:2:0:0:
97,228,260110,1,0,0:0:0:0:
97,228,260194,1,0,0:0:0:0:
97,228,260277,2,0,B|91:260|91:260|94:306,1,59.375,4|0,1:0|0:0,0:0:0:0:
252,146,260444,1,0,0:0:0:0:
252,146,260527,2,0,B|258:114|258:114|255:68,1,59.375,0|2,0:0|1:2,0:0:0:0:
266,272,260694,1,0,0:0:0:0:
304,279,260777,1,0,0:0:0:0:
341,267,260860,1,0,0:0:0:0:
370,241,260944,6,0,L|366:307,1,59.375,4|0,1:0|0:0,0:0:0:0:
468,182,261110,2,0,L|463:241,1,59.375,0|0,0:0|0:0,0:0:0:0:
380,106,261277,1,2,1:2:0:0:
370,241,261444,1,0,0:0:0:0:
468,182,261610,1,0,1:0:0:0:
282,165,261777,1,0,0:0:0:0:
474,83,261944,1,2,1:2:0:0:
288,66,262110,1,0,0:0:0:0:
370,241,262277,6,0,P|370:298|282:374,1,178.125,4|0,1:0|0:0,0:0:0:0:
221,233,262610,2,0,L|289:285,1,59.375,2|0,1:2|0:0,0:0:0:0:
386,348,262777,1,0,0:0:0:0:
366,148,262944,1,4,1:0:0:0:
366,148,263027,2,0,P|366:116|378:79,1,59.375,0|0,0:0|0:0,0:0:0:0:
228,174,263194,1,0,0:0:0:0:
228,174,263277,2,0,P|228:206|216:243,1,59.375,2|0,1:2|0:0,0:0:0:0:
74,148,263444,1,0,0:0:0:0:
74,148,263527,1,0,0:0:0:0:
74,148,263610,5,4,1:0:0:0:
247,115,263777,1,0,0:0:0:0:
110,238,263944,1,4,1:0:0:0:
148,54,264110,1,0,0:0:0:0:
228,230,264277,1,8,0:3:0:0:
253,245,264360,1,8,0:3:0:0:
281,256,264444,1,8,0:3:0:0:
309,263,264527,1,8,0:3:0:0:
339,265,264610,1,4,0:3:0:0:
369,263,264694,1,4,0:3:0:0:
397,256,264777,1,4,0:3:0:0:
425,245,264860,1,4,0:3:0:0:
451,230,264944,6,0,P|451:183|473:129,1,104.500003189087,4|0,1:2|0:0,0:0:0:0:
309,263,265277,2,0,P|309:310|287:364,1,104.500003189087,2|0,1:2|0:0,0:0:0:0:
172,286,265610,1,0,1:0:0:0:
309,263,265777,2,0,L|418:279,1,104.500003189087,0|2,0:0|1:2,0:0:0:0:
172,286,266110,6,0,P|172:192|286:141,1,209.000006378174,2|0,0:1|0:0,0:0:0:0:
172,286,266610,2,0,P|124:296|66:296,1,104.500003189087,2|0,1:2|0:0,0:0:0:0:
264,240,266944,1,0,1:0:0:0:
111,171,267110,2,0,P|110:118|121:67,1,104.500003189087,0|2,0:0|1:2,0:0:0:0:
314,156,267444,6,0,L|299:370,1,209.000006378174,2|0,0:1|0:0,0:0:0:0:
230,130,267944,2,0,P|260:86|312:69,1,104.500003189087,2|0,1:2|0:0,0:0:0:0:
412,192,268277,1,0,1:0:0:0:
306,314,268444,2,0,P|258:296|230:254,1,104.500003189087,0|2,0:0|1:2,0:0:0:0:
412,192,268777,6,0,B|463:192|463:192|507:227,1,104.500003189087,0|0,0:0|1:0,0:0:0:0:
229,252,269110,2,0,B|178:252|178:252|134:217,1,104.500003189087,0|2,0:0|1:2,0:0:0:0:
319,158,269444,2,0,B|370:158|370:158|414:193,1,104.500003189087,0|0,0:0|1:0,0:0:0:0:
136,218,269777,1,0,0:0:0:0:
319,158,269944,1,2,1:2:0:0:
189,68,270110,1,0,0:0:0:0:
266,308,270277,6,0,P|313:308|377:282,1,104.500003189087,4|0,1:2|0:0,0:0:0:0:
136,218,270610,2,0,P|89:218|25:244,1,104.500003189087,2|0,1:2|0:0,0:0:0:0:
111,358,270944,1,0,1:0:0:0:
136,218,271110,2,0,P|136:171|110:107,1,104.500003189087,0|2,0:0|1:2,0:0:0:0:
277,53,271444,6,0,B|373:61|373:61|381:70|381:70|484:80,1,209.000006378174,2|0,0:1|0:0,0:0:0:0:
212,111,271944,2,0,P|189:65|198:15,1,104.500003189087,2|0,1:2|0:0,0:0:0:0:
334,160,272277,1,0,1:0:0:0:
240,246,272444,2,0,P|194:269|138:258,1,104.500003189087,0|2,0:0|1:2,0:0:0:0:
334,160,272777,1,0,0:0:0:0:
143,260,272944,6,0,B|134:209|134:209|145:146,1,104.500003189087,4|0,1:2|0:0,0:0:0:0:
321,260,273277,2,0,B|330:311|330:311|319:374,1,104.500003189087,2|0,1:2|0:0,0:0:0:0:
108,253,273610,2,0,B|99:202|99:202|110:139,1,104.500003189087,4|0,1:2|0:0,0:0:0:0:
356,267,273944,2,0,B|365:318|365:318|354:381,1,104.500003189087,2|0,1:2|0:0,0:0:0:0:
280,221,274277,6,0,P|323:186|376:182,1,104.500003189087,4|0,1:2|0:0,0:0:0:0:
184,299,274610,2,0,P|141:334|88:338,1,104.500003189087,6|0,1:2|0:0,0:0:0:0:
115,116,274944,1,8,0:3:0:0:
153,108,275027,1,8,0:3:0:0:
191,116,275110,1,8,0:3:0:0:
223,138,275194,1,8,0:3:0:0:
243,171,275277,1,4,0:3:0:0:
250,209,275360,1,4,0:3:0:0:
240,247,275444,1,4,0:3:0:0:
217,278,275527,1,4,0:3:0:0:
183,298,275610,6,0,L|296:312,1,104.500003189087,4|0,1:2|0:0,0:0:0:0:
115,116,275944,2,0,P|98:161|113:233,1,104.500003189087,8|0,0:0|0:0,0:0:0:0:
333,108,276277,1,0,1:0:0:0:
186,175,276444,1,0,1:0:0:0:
329,247,276610,2,0,P|380:247|432:221,1,104.500003189087,8|0,0:0|0:0,0:0:0:0:
272,29,276944,5,0,1:0:0:0:
278,54,277027,1,0,0:0:0:0:
291,76,277110,1,0,0:0:0:0:
309,95,277194,1,0,0:0:0:0:
332,107,277277,2,0,L|224:136,1,104.500003189087,8|0,0:0|0:0,0:0:0:0:
420,176,277610,2,0,L|311:204,1,104.500003189087,0|0,1:0|1:0,0:0:0:0:
507,244,277944,2,0,L|398:272,1,104.500003189087,8|0,0:0|0:0,0:0:0:0:
220,307,278277,6,0,B|208:257|215:198,1,104.500003189087,0|0,1:0|0:0,0:0:0:0:
414,72,278610,2,0,B|426:122|419:181,1,104.500003189087,8|0,0:0|0:0,0:0:0:0:
254,110,278944,1,0,1:0:0:0:
417,205,279110,1,0,1:0:0:0:
214,203,279277,1,8,0:0:0:0:
377,298,279444,1,0,0:0:0:0:
414,72,279610,5,0,1:0:0:0:
418,97,279694,1,0,0:0:0:0:
421,123,279777,1,0,0:0:0:0:
421,149,279860,1,0,0:0:0:0:
421,177,279944,2,0,B|412:223|412:223|419:293,1,104.500003189087,8|0,0:0|0:0,0:0:0:0:
294,162,280277,2,0,B|285:208|285:208|292:278,1,104.500003189087,0|0,1:0|1:0,0:0:0:0:
167,147,280610,2,0,B|158:193|158:193|165:263,1,104.500003189087,8|0,0:0|1:0,0:0:0:0:
421,177,280944,6,0,B|430:131|430:131|423:61,1,104.500003189087,4|0,1:2|0:0,0:0:0:0:
294,162,281277,1,8,0:0:0:0:
417,280,281444,1,0,0:0:0:0:
431,283,281527,1,0,0:0:0:0:
445,286,281610,1,0,1:0:0:0:
290,265,281777,1,0,0:0:0:0:
421,177,281944,1,8,0:0:0:0:
294,162,282110,1,0,0:0:0:0:
205,302,282277,5,0,1:0:0:0:
231,308,282360,1,0,0:0:0:0:
256,303,282444,1,0,0:0:0:0:
277,287,282527,1,0,0:0:0:0:
289,264,282610,2,0,L|302:371,1,104.500003189087,8|0,0:0|0:0,0:0:0:0:
193,198,282944,2,0,L|205:304,1,104.500003189087,0|0,1:0|1:0,0:0:0:0:
96,131,283277,2,0,L|108:237,1,104.500003189087,8|0,0:0|0:0,0:0:0:0:
142,54,283610,6,0,P|88:42|41:60,1,104.500003189087,4|0,1:2|0:0,0:0:0:0:
193,198,283944,2,0,L|306:179,1,104.500003189087,8|0,0:0|0:0,0:0:0:0:
96,131,284277,1,4,1:2:0:0:
112,265,284444,1,0,1:0:0:0:
95,105,284610,1,8,0:0:0:0:
113,289,284777,1,0,0:0:0:0:
256,102,284944,5,4,1:2:0:0:
316,232,285110,1,0,0:0:0:0:
316,232,285194,1,0,0:0:0:0:
316,232,285277,2,0,P|364:244|422:245,1,104.500003189087,12|0,0:0|0:0,0:0:0:0:
196,232,285610,2,0,P|148:244|90:245,1,104.500003189087,4|0,1:2|1:0,0:0:0:0:
188,134,285944,1,4,0:3:0:0:
218,110,286027,1,4,0:3:0:0:
256,102,286110,1,4,0:3:0:0:
294,111,286194,1,4,0:3:0:0:
323,137,286277,6,0,L|385:102,3,64.1250002446175,4|0|0|0,1:2|0:0|0:0|0:0,0:0:0:0:
424,188,286610,2,0,L|486:153,3,64.1250002446175,2|0|0|0,1:2|0:0|0:0|0:0,0:0:0:0:
487,277,286944,1,0,1:0:0:0:
449,289,287027,1,0,0:0:0:0:
410,299,287110,1,0,0:0:0:0:
370,303,287194,1,0,0:0:0:0:
331,294,287277,1,2,1:2:0:0:
293,280,287360,1,0,0:0:0:0:
253,280,287444,1,0,0:0:0:0:
214,288,287527,1,0,0:0:0:0:
176,301,287610,6,0,L|163:231,3,64.1250002446175,0|0|0|0,1:0|0:0|0:0|0:0,0:0:0:0:
82,218,287944,2,0,L|68:147,3,64.1250002446175,2|0|0|0,1:2|0:0|0:0|0:0,0:0:0:0:
119,78,288277,1,0,1:0:0:0:
166,81,288360,1,0,0:0:0:0:
214,84,288444,1,0,0:0:0:0:
257,63,288527,1,0,0:0:0:0:
300,42,288610,2,2,L|288:8,6,32.0625001223087,2|2|2|2|2|2|2,1:2|0:0|0:0|0:0|0:0|0:0|0:0,0:0:0:0:
345,122,288944,5,0,1:0:0:0:
375,131,289027,1,0,0:0:0:0:
406,141,289110,1,0,0:0:0:0:
436,151,289194,1,0,0:0:0:0:
466,161,289277,1,2,1:2:0:0:
443,168,289360,1,0,0:0:0:0:
420,175,289444,1,0,0:0:0:0:
397,182,289527,1,0,0:0:0:0:
374,190,289610,1,0,1:0:0:0:
388,197,289694,1,0,0:0:0:0:
403,204,289777,1,0,0:0:0:0:
417,211,289860,1,0,0:0:0:0:
432,218,289944,2,0,B|431:256|431:256|422:289,1,64.1250002446175,2|0,1:2|0:0,0:0:0:0:
274,183,290110,2,0,B|275:145|275:145|284:112,1,64.1250002446175,2|0,0:0|0:0,0:0:0:0:
396,60,290277,6,0,L|378:146,1,64.1250002446175,0|0,1:0|0:0,0:0:0:0:
333,272,290444,1,0,0:0:0:0:
311,302,290527,1,0,0:0:0:0:
281,324,290610,1,2,1:2:0:0:
245,335,290694,1,0,0:0:0:0:
208,333,290777,1,0,0:0:0:0:
173,320,290860,1,0,0:0:0:0:
145,296,290944,1,0,1:0:0:0:
126,264,291027,1,0,0:0:0:0:
119,227,291110,1,0,0:0:0:0:
123,190,291194,1,0,0:0:0:0:
140,157,291277,1,2,1:2:0:0:
371,157,291444,1,2,1:2:0:0:
256,24,291610,6,0,L|256:96,3,64.1250002446175,4|0|0|0,1:2|0:0|0:0|0:0,0:0:0:0:
256,166,291944,2,0,L|256:238,3,64.1250002446175,2|0|0|0,1:2|0:0|0:0|0:0,0:0:0:0:
256,307,292277,1,0,1:0:0:0:
250,322,292360,1,0,0:0:0:0:
244,337,292444,2,0,P|279:337|327:352,1,64.1250002446175,0|0,0:0|0:0,0:0:0:0:
420,267,292610,1,2,1:2:0:0:
426,252,292694,1,0,0:0:0:0:
432,237,292777,2,0,P|397:237|349:222,1,64.1250002446175,0|0,0:0|0:0,0:0:0:0:
253,114,292944,5,0,1:0:0:0:
212,102,293027,1,0,0:0:0:0:
169,105,293110,1,0,0:0:0:0:
131,124,293194,1,0,0:0:0:0:
103,156,293277,1,2,1:2:0:0:
88,196,293360,1,0,0:0:0:0:
82,238,293444,1,0,0:0:0:0:
87,279,293527,1,0,0:0:0:0:
102,319,293610,1,0,1:0:0:0:
130,351,293694,1,0,0:0:0:0:
168,370,293777,1,0,0:0:0:0:
211,373,293860,1,0,0:0:0:0:
251,362,293944,2,2,L|294:351,6,32.0625001223087,2|2|2|2|2|2|2,1:2|0:0|0:0|0:0|0:0|0:0|0:0,0:0:0:0:
375,328,294277,5,4,1:2:0:0:
377,280,294360,1,0,0:0:0:0:
357,237,294444,1,0,0:0:0:0:
320,207,294527,1,0,0:0:0:0:
273,197,294610,1,2,1:2:0:0:
227,210,294694,1,0,0:0:0:0:
192,242,294777,1,0,0:0:0:0:
227,274,294860,1,0,0:0:0:0:
272,287,294944,1,4,1:2:0:0:
319,277,295027,1,0,0:0:0:0:
356,247,295110,1,0,0:0:0:0:
376,204,295194,1,0,0:0:0:0:
380,157,295277,2,2,L|371:116,2,32.0625001223087,2|2|2,1:2|0:0|0:0,0:0:0:0:
276,129,295444,2,2,L|267:88,2,32.0625001223087
190,189,295610,6,0,L|124:201,1,64.1250002446175,4|0,1:2|0:0,0:0:0:0:
75,335,295777,2,0,L|138:323,1,64.1250002446175
175,175,295944,2,0,L|109:187,1,64.1250002446175,6|0,1:2|0:0,0:0:0:0:
60,321,296110,2,0,L|123:309,1,64.1250002446175
255,257,296277,1,8,0:3:0:0:
277,250,296360,1,8,0:3:0:0:
301,247,296444,1,8,0:3:0:0:
325,249,296527,1,8,0:3:0:0:
348,255,296610,6,0,P|385:312|419:253,1,161.500003080368,6|0,1:2|1:0,0:0:0:0:
383,185,296860,1,0,1:0:0:0:
383,185,296944,6,0,B|372:136|372:136|382:79,1,99.7499969558717,4|0,1:2|0:0,0:0:0:0:
498,139,297277,1,2,1:2:0:0:
348,255,297444,1,0,0:0:0:0:
286,75,297610,2,0,B|237:66|237:66|188:77,1,99.7499969558717,0|0,1:0|0:0,0:0:0:0:
84,294,297944,2,0,B|132:302|132:302|181:291,1,99.7499969558717,2|0,1:2|0:0,0:0:0:0:
224,287,298194,1,0,0:0:0:0:
224,287,298277,6,0,L|334:301,1,99.7499969558717,0|0,1:0|0:0,0:0:0:0:
135,205,298610,2,0,L|25:219,1,99.7499969558717,2|0,1:2|0:0,0:0:0:0:
224,120,298944,2,0,L|334:134,1,99.7499969558717,0|0,1:0|0:0,0:0:0:0:
135,38,299277,1,2,1:2:0:0:
135,205,299444,2,0,P|129:259|111:319,1,99.7499969558717,0|0,0:0|1:0,0:0:0:0:
57,135,299777,5,0,0:0:0:0:
224,120,299944,1,2,1:2:0:0:
135,38,300110,1,0,0:0:0:0:
135,205,300277,2,0,P|141:259|159:319,1,99.7499969558717,0|0,1:0|0:0,0:0:0:0:
224,120,300610,1,2,1:2:0:0:
57,135,300777,1,0,0:0:0:0:
237,237,300944,5,0,1:0:0:0:
135,38,301110,1,0,0:0:0:0:
57,253,301277,1,2,1:2:0:0:
224,120,301444,1,0,0:0:0:0:
270,334,301610,1,0,1:0:0:0:
135,205,301777,1,0,0:0:0:0:
365,268,301944,1,2,1:2:0:0:
283,73,302110,1,0,0:0:0:0:
270,334,302277,6,0,P|311:353|367:360,1,99.7499969558717,4|0,1:2|0:0,0:0:0:0:
280,237,302610,1,10,1:2:0:0:
430,199,302777,1,0,0:0:0:0:
270,334,302944,2,0,P|224:354|175:360,1,99.7499969558717,0|0,1:0|0:0,0:0:0:0:
335,172,303277,2,0,P|384:177|429:198,1,99.7499969558717,2|0,1:2|0:0,0:0:0:0:
470,214,303527,1,0,0:0:0:0:
470,214,303610,6,0,L|457:99,1,99.7499969558717,0|0,1:0|0:0,0:0:0:0:
361,260,303944,2,0,L|349:359,1,99.7499969558717,2|0,1:2|0:0,0:0:0:0:
254,214,304277,2,0,L|241:99,1,99.7499969558717,0|0,1:0|0:0,0:0:0:0:
145,260,304610,2,0,L|133:359,1,99.7499969558717,2|0,1:2|0:0,0:0:0:0:
38,214,304944,5,4,1:2:0:0:
145,118,305110,1,0,0:0:0:0:
254,214,305277,1,2,1:2:0:0:
361,118,305444,1,0,0:0:0:0:
470,214,305610,1,4,1:2:0:0:
361,21,305777,1,0,0:0:0:0:
343,232,305944,1,2,1:2:0:0:
491,93,306110,1,0,0:0:0:0:
278,121,306277,6,0,P|234:127|161:129,1,99.7499969558717,4|0,1:2|0:0,0:0:0:0:
343,232,306610,2,0,P|387:226|460:224,1,99.7499969558717,6|0,1:2|0:0,0:0:0:0:
164,304,306944,1,8,0:3:0:0:
156,273,307027,1,8,0:3:0:0:
155,242,307110,1,8,0:3:0:0:
162,212,307194,1,8,0:3:0:0:
175,184,307277,1,4,0:3:0:0:
194,159,307360,1,4,0:3:0:0:
218,140,307444,1,4,0:3:0:0:
247,127,307527,1,4,0:3:0:0:
277,120,307610,6,0,P|179:115|105:28,1,199.499993911743,4|2,1:2|1:2,0:0:0:0:
331,33,308110,1,0,0:0:0:0:
383,187,308277,2,0,P|393:244|377:302,1,99.7499969558717,0|0,1:0|0:0,0:0:0:0:
331,33,308610,6,0,B|401:33|401:33|453:69,1,132.999995941162,6|0,1:2|0:0,0:0:0:0:
385,285,308944,6,0,P|285:285|208:216,1,199.499993911743,0|2,1:0|1:2,0:0:0:0:
334,153,309444,1,0,0:0:0:0:
385,285,309610,2,0,P|375:338|347:377,1,99.7499969558717,0|0,1:0|0:0,0:0:0:0:
212,223,309944,6,0,B|213:160|213:160|254:101,1,132.999995941162,6|0,1:2|0:0,0:0:0:0:
149,320,310277,6,0,L|30:304,1,99.7499969558717,0|0,1:0|0:0,0:0:0:0:
212,223,310610,2,0,L|93:207,1,99.7499969558717,2|0,1:2|0:0,0:0:0:0:
275,126,310944,2,0,L|156:110,1,99.7499969558717,0|0,1:0|0:0,0:0:0:0:
23,42,311277,1,2,1:2:0:0:
113,209,311444,1,0,0:0:0:0:
234,63,311610,6,0,P|281:54|334:60,1,99.7499969558717,0|0,1:0|0:0,0:0:0:0:
478,161,311944,1,2,1:2:0:0:
430,35,312110,1,0,0:0:0:0:
350,207,312277,2,0,L|359:324,1,99.7499969558717,0|0,1:0|0:0,0:0:0:0:
478,161,312610,1,2,1:2:0:0:
332,59,312777,1,0,3:0:0:0:
307,54,312860,1,0,3:0:0:0:
282,52,312944,6,0,P|244:90|223:234,1,199.499993911743,4|2,1:2|1:2,0:0:0:0:
376,182,313444,1,0,0:0:0:0:
282,52,313610,2,0,P|179:52|102:106,1,199.499993911743,0|2,1:0|1:2,0:0:0:0:
38,263,314110,1,0,0:0:0:0:
221,228,314277,5,0,1:0:0:0:
102,105,314444,1,0,0:0:0:0:
228,250,314610,1,2,1:2:0:0:
282,52,314777,1,0,0:0:0:0:
102,105,314944,2,0,P|49:105|7:85,1,99.7499969558717,0|0,1:0|0:0,0:0:0:0:
282,52,315277,1,2,1:2:0:0:
228,250,315444,1,0,0:0:0:0:
70,27,315610,6,0,L|87:257,1,199.499993911743,4|2,1:2|1:2,0:0:0:0:
162,347,316110,1,0,0:0:0:0:
194,145,316277,1,4,1:2:0:0:
288,311,316444,2,0,B|340:318|340:318|393:312,1,99.7499969558717,0|2,0:0|1:2,0:0:0:0:
340,170,316777,1,0,0:0:0:0:
162,347,316944,6,0,P|108:357|47:353,1,99.7499969558717,4|0,1:2|0:0,0:0:0:0:
340,170,317277,2,0,P|394:160|455:164,1,99.7499969558717,6|0,1:2|0:0,0:0:0:0:
106,257,317610,1,8,0:3:0:0:
117,221,317694,1,8,0:3:0:0:
137,190,317777,1,8,0:3:0:0:
165,164,317860,1,8,0:3:0:0:
198,147,317944,1,4,0:3:0:0:
234,138,318027,1,4,0:3:0:0:
271,139,318110,1,4,0:3:0:0:
307,150,318194,1,4,0:3:0:0:
339,169,318277,6,0,B|354:120|354:120|354:71,1,99.7499969558717,4|0,1:2|0:0,0:0:0:0:
251,231,318610,1,2,1:2:0:0:
322,312,318777,2,0,B|371:326|371:326|424:326,1,99.7499969558717,0|0,0:0|1:0,0:0:0:0:
251,231,319110,1,0,0:0:0:0:
200,359,319277,1,2,1:2:0:0:
163,174,319444,1,0,0:0:0:0:
322,312,319610,5,0,1:0:0:0:
141,266,319777,1,0,0:0:0:0:
353,286,319944,1,2,1:2:0:0:
110,292,320110,1,0,0:0:0:0:
384,260,320277,2,0,B|330:166|423:166|375:58,1,199.499993911743,2|2,1:0|1:2,0:0:0:0:
456,206,320777,1,0,0:0:0:0:
301,115,320944,6,0,L|184:126,1,99.7499969558717,0|0,1:0|0:0,0:0:0:0:
455,206,321277,2,0,P|470:154|470:95,1,99.7499969558717,2|0,1:2|0:0,0:0:0:0:
201,124,321610,2,0,P|203:173|217:221,1,99.7499969558717,2|0,1:0|0:0,0:0:0:0:
278,359,321944,1,2,1:2:0:0:
344,241,322110,1,0,0:0:0:0:
154,315,322277,5,0,1:2:0:0:
154,315,322360,1,0,0:0:0:0:
154,315,322444,1,0,0:0:0:0:
344,241,322610,1,2,1:2:0:0:
278,359,322777,1,0,0:0:0:0:
217,221,322944,2,0,P|203:173|201:124,1,99.7499969558717,2|0,1:0|0:0,0:0:0:0:
241,11,323277,1,2,1:2:0:0:
71,84,323444,1,0,1:0:0:0:
299,154,323610,6,0,B|389:161|389:161|404:176|404:176|500:182,1,199.499993911743,4|2,1:2|1:2,0:0:0:0:
311,57,324110,2,0,B|295:103|295:103|300:175,1,99.7499969558717,0|0,0:0|1:0,0:0:0:0:
386,289,324444,1,0,0:0:0:0:
452,92,324610,1,2,1:2:0:0:
468,341,324777,1,0,0:0:0:0:
299,154,324944,6,0,L|186:164,1,99.7499969558717,0|2,1:0|0:0,0:0:0:0:
162,187,325194,1,2,0:0:0:0:
162,187,325277,1,2,1:2:0:0:
256,40,325444,1,2,0:0:0:0:
306,247,325610,2,0,P|398:278|497:242,1,199.499993911743,2|2,1:0|1:2,0:0:0:0:
398,120,326110,1,0,0:0:0:0:
281,269,326277,6,0,P|291:318|314:373,1,99.7499969558717,4|0,1:2|0:0,0:0:0:0:
398,120,326610,2,0,P|388:71|365:16,1,99.7499969558717,2|0,1:2|0:0,0:0:0:0:
226,117,326944,1,4,1:2:0:0:
398,120,327110,1,0,0:0:0:0:
207,94,327277,1,2,1:2:0:0:
281,269,327444,1,0,0:0:0:0:
80,185,327610,6,0,B|76:237|76:237|83:298,1,99.7499969558717,4|0,1:2|0:0,0:0:0:0:
226,117,327944,2,0,B|231:69|231:69|223:4,1,99.7499969558717,6|0,1:2|0:0,0:0:0:0:
306,247,328277,1,8,0:3:0:0:
327,260,328360,1,8,0:3:0:0:
349,270,328444,1,8,0:3:0:0:
374,276,328527,1,8,0:3:0:0:
398,277,328610,1,4,0:3:0:0:
423,275,328694,1,4,0:3:0:0:
447,269,328777,1,4,0:3:0:0:
470,259,328860,1,4,0:3:0:0:
491,246,328944,6,0,B|488:182|457:156|457:156|485:117|457:34,1,199.499993911743,4|2,1:2|1:2,0:0:0:0:
306,247,329444,1,0,0:0:0:0:
366,103,329610,2,0,P|266:94|167:107,1,199.499993911743,0|2,1:0|1:2,0:0:0:0:
54,227,330110,1,0,0:0:0:0:
167,346,330277,6,0,P|266:359|366:351,1,199.499993911743,0|2,1:0|1:2,0:0:0:0:
499,223,330777,1,0,0:0:0:0:
296,249,330944,1,0,1:0:0:0:
477,331,331110,1,0,0:0:0:0:
380,145,331277,1,2,1:2:0:0:
366,351,331444,1,0,3:0:0:0:
366,351,331527,1,0,3:0:0:0:
366,351,331610,6,0,P|312:358|261:357,1,99.7499969558717,0|0,1:0|0:0,0:0:0:0:
73,250,331944,1,2,1:2:0:0:
153,344,332110,2,0,P|194:267|152:156,1,199.499993911743
87,41,332610,1,2,1:2:0:0:
51,171,332777,1,0,0:0:0:0:
195,70,332944,6,0,P|283:70|366:143,1,199.499993911743,0|2,1:0|1:2,0:0:0:0:
209,298,333444,1,0,3:0:0:0:
209,298,333527,1,0,3:0:0:0:
209,298,333610,2,0,L|239:203,1,99.7499969558717,0|0,1:0|0:0,0:0:0:0:
295,39,333944,1,2,1:2:0:0:
140,126,334110,1,0,0:0:0:0:
362,308,334277,6,0,P|408:223|363:139,1,199.499993911743,4|2,1:2|1:2,0:0:0:0:
266,325,334777,1,0,0:0:0:0:
423,224,334944,2,0,P|467:157|417:51,1,199.499993911743,0|2,1:0|1:2,0:0:0:0:
362,308,335444,1,0,0:0:0:0:
363,139,335610,6,0,P|265:127|148:146,1,199.499993911743,0|2,1:0|1:2,0:0:0:0:
28,253,336110,1,0,0:0:0:0:
204,252,336277,1,0,1:0:0:0:
54,132,336444,1,0,0:0:0:0:
111,316,336610,1,2,1:2:0:0:
166,139,336777,1,0,3:0:0:0:
166,139,336860,1,0,3:0:0:0:
166,139,336944,6,0,P|164:82|147:23,1,99.7499969558717,0|0,1:0|0:0,0:0:0:0:
111,216,337277,1,2,1:2:0:0:
204,252,337444,2,0,P|261:250|320:233,1,99.7499969558717,0|0,0:0|1:0,0:0:0:0:
431,141,337777,1,0,0:0:0:0:
236,161,337944,1,2,1:2:0:0:
351,317,338110,1,0,0:0:0:0:
265,78,338277,6,0,P|205:78|160:207,1,199.499993911743,0|2,1:0|1:2,0:0:0:0:
197,342,338777,1,0,0:0:0:0:
52,220,338944,1,0,1:0:0:0:
236,161,339110,1,0,3:0:0:0:
263,168,339194,1,0,3:0:0:0:
290,175,339277,1,2,3:2:0:0:
106,234,339444,1,0,3:0:0:0:
79,227,339527,1,0,3:0:0:0:
52,220,339610,6,0,P|62:279|47:337,1,107.666668720245,0|0,1:0|0:0,0:0:0:0:
126,358,339944,2,0,P|181:349|237:362,1,107.666668720245,0|0,1:0|0:0,0:0:0:0:
310,359,340277,2,0,P|363:349|416:360,1,107.666668720245,0|0,1:0|0:0,0:0:0:0:
489,325,340610,2,0,P|479:272|489:219,1,107.666668720245,0|0,1:0|0:0,0:0:0:0:
416,181,340944,5,0,1:0:0:0:
320,257,341166,1,0,0:0:0:0:
320,257,341277,1,0,1:0:0:0:
260,139,341499,1,0,0:0:0:0:
260,139,341610,1,0,1:0:0:0:
192,257,341833,1,0,0:0:0:0:
192,257,341944,1,0,1:0:0:0:
96,181,342166,1,0,0:0:0:0:
96,181,342277,6,0,P|96:130|130:82,1,107.666668720245,0|0,1:0|0:0,0:0:0:0:
200,30,342610,2,0,L|210:142,1,107.666668720245,0|0,1:0|0:0,0:0:0:0:
302,137,342944,2,0,L|312:30,1,107.666668720245,0|0,1:0|0:0,0:0:0:0:
385,84,343277,2,0,P|415:127|416:181,1,107.666668720245,0|0,1:0|0:0,0:0:0:0:
357,251,343610,5,0,1:0:0:0:
256,192,343833,1,0,0:0:0:0:
256,192,343944,1,0,1:0:0:0:
308,336,344166,1,0,0:0:0:0:
308,336,344277,1,0,1:0:0:0:
204,336,344499,1,0,0:0:0:0:
204,336,344610,1,0,1:0:0:0:
155,251,344833,1,0,0:0:0:0:
155,251,344944,6,0,P|99:232|68:180,1,107.666668720245,0|0,1:0|0:0,0:0:0:0:
156,157,345277,2,0,P|193:104|210:60,1,107.666668720245,0|0,1:0|0:0,0:0:0:0:
302,65,345610,2,0,P|322:114|354:157,1,107.666668720245,0|0,1:0|0:0,0:0:0:0:
440,193,345944,2,0,P|407:235|357:251,1,107.666668720245,0|0,1:0|0:0,0:0:0:0:
355,158,346277,5,0,1:0:0:0:
317,338,346499,1,0,0:0:0:0:
317,338,346610,1,0,1:0:0:0:
256,198,346833,1,0,0:0:0:0:
256,198,346944,1,0,1:0:0:0:
195,338,347166,1,0,0:0:0:0:
195,338,347277,1,0,1:0:0:0:
157,158,347499,1,0,0:0:0:0:
157,158,347610,6,0,P|120:204|125:267,1,107.666668720245,0|0,1:0|0:0,0:0:0:0:
203,231,347944,2,0,L|310:231,1,107.666668720245,0|0,1:0|0:0,0:0:0:0:
313,317,348277,2,0,L|204:317,1,107.666668720245,0|0,1:0|0:0,0:0:0:0:
355,158,348610,2,0,P|389:197|393:250,1,107.666668720245,0|0,1:0|0:0,0:0:0:0:
256,140,348944,6,0,L|256:29,1,107.666668720245,0|0,1:0|0:0,0:0:0:0:
355,158,349277,2,0,L|320:272,1,107.666668720245,0|0,1:0|0:0,0:0:0:0:
157,158,349610,2,0,L|192:272,1,107.666668720245,0|0,1:0|0:0,0:0:0:0:
256,352,349944,1,0,1:0:0:0:
256,32,350166,1,0,0:0:0:0:
256,32,350277,6,0,L|403:42,1,139.333337585449,0|0,1:0|0:0,0:0:0:0:
476,82,350610,2,0,P|483:44|476:4,2,69.6666687927247,0|0|0,1:0|0:0|0:0,0:0:0:0:
392,121,350944,2,0,L|244:112,1,139.333337585449,0|0,1:0|0:0,0:0:0:0:
172,71,351277,1,0,1:0:0:0:
343,298,351499,1,0,0:0:0:0:
343,298,351610,6,0,P|343:226|309:148,1,139.333337585449,0|0,1:0|0:0,0:0:0:0:
192,163,351944,2,0,P|168:228|169:298,1,139.333337585449,0|0,1:0|0:0,0:0:0:0:
256,346,352277,1,0,1:0:0:0:
256,328,352388,1,0,0:0:0:0:
256,311,352499,1,0,0:0:0:0:
256,227,352610,1,0,1:0:0:0:
256,209,352722,1,0,0:0:0:0:
256,192,352833,1,0,0:0:0:0:
194,125,352944,6,0,P|256:97|318:125,1,139.333337585449,0|0,1:0|0:0,0:0:0:0:
256,192,353277,2,0,L|256:269,2,69.6666687927247,0|0|0,1:0|0:0|0:0,0:0:0:0:
161,132,353610,2,0,P|161:61|210:6,1,139.333337585449,0|0,1:0|0:0,0:0:0:0:
309,10,353944,2,0,P|351:63|351:132,1,139.333337585449,0|0,1:0|0:0,0:0:0:0:
256,261,354277,6,0,L|256:110,1,139.333337585449,0|0,1:0|0:0,0:0:0:0:
318,327,354610,2,0,P|255:354|193:327,1,139.333337585449,0|0,1:0|0:0,0:0:0:0:
182,212,354944,1,0,1:0:0:0:
196,202,355055,1,0,0:0:0:0:
210,192,355166,1,0,0:0:0:0:
302,192,355277,1,0,1:0:0:0:
316,202,355388,1,0,0:0:0:0:
330,212,355499,1,0,0:0:0:0:
256,171,355610,6,0,L|256:23,1,139.333337585449,0|0,1:0|0:0,0:0:0:0:
314,105,355944,2,0,P|367:104|403:90,2,69.6666687927247,0|0|0,1:0|0:0|0:0,0:0:0:0:
198,105,356277,2,0,P|146:105|71:60,1,139.333337585449,0|0,1:0|0:0,0:0:0:0:
256,31,356610,2,0,L|256:171,1,139.333337585449,0|0,1:0|0:0,0:0:0:0:
195,247,356944,6,0,B|256:213|256:213|316:247,1,139.333337585449,0|0,1:0|0:0,0:0:0:0:
316,334,357277,2,0,B|256:368|256:368|195:334,1,139.333337585449,0|0,1:0|0:0,0:0:0:0:
165,254,357610,2,0,L|152:184,2,69.6666687927247,0|0|0,1:0|0:0|0:0,0:0:0:0:
347,254,357944,2,0,L|360:184,2,69.6666687927247,0|0|0,1:0|0:0|0:0,0:0:0:0:
256,123,358277,5,4,0:0:0:0:
256,82,358944,1,4,0:0:0:0:
256,41,359610,5,2,0:0:0:0:
256,192,359694,12,0,362610,0:0:0:0:
256,41,362944,5,0,0:0:0:0:
256,82,363277,1,0,0:0:0:0:
256,123,363610,6,0,P|258:164|278:221,1,95,6|0,1:2|0:0,0:0:0:0:
389,270,363860,2,0,P|297:267|201:296,1,190,10|0,0:0|1:0,0:0:0:0:
88,332,364235,1,0,0:0:0:0:
88,332,364360,2,0,P|78:288|80:228,1,95,8|0,0:0|0:0,0:0:0:0:
194,200,364610,6,0,P|204:244|202:304,1,95,0|0,1:0|0:0,0:0:0:0:
145,94,364860,2,0,B|218:91|218:91|291:103,1,142.5,10|0,0:0|0:0,0:0:0:0:
332,114,365110,2,0,P|378:125|436:115,1,95,2|0,1:2|0:0,0:0:0:0:
387,14,365360,1,10,0:0:0:0:
387,14,365485,1,0,0:0:0:0:
332,114,365610,6,0,B|332:194|332:194|346:217|346:217|346:325,1,190,2|8,1:2|0:0,0:0:0:0:
266,322,365985,2,0,B|266:242|266:242|252:219|252:219|252:111,1,190,2|0,0:0|0:0,0:0:0:0:
172,156,366360,2,0,B|172:252,1,95,10|0,0:0|0:0,0:0:0:0:
87,343,366610,6,0,B|87:247,1,95,2|0,1:2|0:0,0:0:0:0:
47,135,366860,2,0,P|134:135|199:39,1,190,10|0,0:0|1:0,0:0:0:0:
90,34,367235,1,2,0:0:0:0:
172,156,367360,1,10,0:0:0:0:
206,165,367422,1,2,0:0:0:0:
241,168,367485,1,2,0:0:0:0:
276,164,367547,1,2,0:0:0:0:
310,153,367610,6,0,L|316:250,1,95,6|0,1:2|0:0,0:0:0:0:
395,334,367860,2,0,P|319:288|244:352,1,190,10|0,0:0|1:0,0:0:0:0:
197,241,368235,1,0,0:0:0:0:
315,248,368360,2,0,P|320:197|310:153,1,95,8|0,0:0|0:0,0:0:0:0:
282,48,368610,5,0,1:0:0:0:
282,48,368860,2,0,P|231:61|131:61,1,142.5,10|0,0:0|0:0,0:0:0:0:
62,59,369110,2,0,B|55:111|55:111|70:223,1,142.5,2|0,1:2|0:0,0:0:0:0:
71,279,369360,2,0,B|123:272|123:272|212:283,1,142.5,10|0,0:0|0:0,0:0:0:0:
296,279,369610,6,0,P|296:195|390:132,1,190,2|8,1:2|0:0,0:0:0:0:
397,239,369985,1,0,0:0:0:0:
212,283,370110,2,0,P|128:283|65:189,1,190,2|8,1:2|0:0,0:0:0:0:
172,182,370485,1,0,0:0:0:0:
376,321,370610,6,0,B|485:321|485:321|462:291,1,142.5,2|0,1:2|0:0,0:0:0:0:
397,239,370860,2,0,B|376:212|376:212|485:212,1,142.5,10|0,0:0|0:0,0:0:0:0:
435,133,371110,2,0,B|344:133|344:133|284:182,1,142.5,2|0,1:2|0:0,0:0:0:0:
256,242,371360,1,10,0:0:0:0:
376,212,371485,1,0,0:0:0:0:
256,273,371610,6,0,P|163:273|90:204,1,190,2|8,1:2|0:0,0:0:0:0:
213,145,371985,1,0,0:0:0:0:
256,273,372110,2,0,L|252:368,1,95,2|0,1:2|0:0,0:0:0:0:
213,145,372360,2,0,L|217:50,1,95,8|0,0:0|0:0,0:0:0:0:
93,211,372610,6,0,P|163:273|256:273,1,190,2|8,1:2|0:0,0:0:0:0:
360,186,372985,1,0,0:0:0:0:
354,351,373110,1,2,1:2:0:0:
463,270,373235,1,2,0:0:0:0:
256,272,373360,1,10,0:0:0:0:
246,250,373422,1,2,0:0:0:0:
241,227,373485,1,2,0:0:0:0:
241,203,373547,1,2,0:0:0:0:
248,180,373610,6,0,P|200:192|143:192,1,95,2|0,1:2|0:0,0:0:0:0:
92,100,373860,2,0,L|107:299,1,190,8|2,0:0|1:2,0:0:0:0:
248,180,374235,1,0,0:0:0:0:
92,100,374360,2,0,P|41:100|-2:121,1,95,10|0,0:0|0:0,0:0:0:0:
248,180,374610,6,0,B|268:119|250:47|250:47|298:85,1,190,0|8,1:0|0:0,0:0:0:0:
394,194,374985,1,0,0:0:0:0:
176,112,375110,1,2,1:2:0:0:
160,143,375172,1,0,0:0:0:0:
155,178,375235,1,2,0:0:0:0:
160,213,375297,1,0,0:0:0:0:
176,245,375360,2,2,L|123:259,3,47.5,10|2|2|2,0:0|0:0|0:0|0:0,0:0:0:0:
40,276,375610,5,2,1:2:0:0:
92,100,375735,1,0,0:0:0:0:
248,180,375860,2,0,P|296:180|339:156,1,95,8|0,0:0|0:0,0:0:0:0:
391,44,376110,2,0,L|382:250,1,190,2|8,1:2|0:0,0:0:0:0:
264,60,376485,1,0,0:0:0:0:
145,233,376610,6,0,L|137:44,1,190,2|8,1:2|0:0,0:0:0:0:
148,270,376985,1,0,0:0:0:0:
264,60,377110,2,0,P|350:46|455:60,1,190,2|8,1:2|0:0,0:0:0:0:
226,74,377485,1,0,0:0:0:0:
357,321,377610,6,0,P|382:277|382:231,1,95,6|0,1:2|0:0,0:0:0:0:
274,252,377860,2,0,L|483:298,1,190,8|0,0:0|1:0,0:0:0:0:
385,132,378235,1,0,0:0:0:0:
385,132,378297,1,0,0:0:0:0:
385,132,378360,2,0,L|313:138,3,47.5,8|0|0|0,0:0|0:0|0:0|0:0,0:0:0:0:
244,111,378610,6,0,L|239:182,3,47.5,6|0|0|0,3:2|3:0|3:0|3:0,3:0:0:0:
152,193,378860,2,0,L|147:264,3,47.5,0|0|0|0,3:0|3:0|3:0|3:0,3:0:0:0:
64,275,379110,1,8,0:3:0:0:
80,299,379172,1,8,0:3:0:0:
103,318,379235,1,8,0:3:0:0:
130,329,379297,1,8,0:3:0:0:
160,331,379360,1,4,0:3:0:0:
188,324,379422,1,4,0:3:0:0:
214,308,379485,1,4,0:3:0:0:
233,286,379547,1,4,0:3:0:0:
245,259,379610,6,0,L|351:280,1,95,4|0,1:2|0:0,0:0:0:0:
152,193,379860,2,0,L|58:211,1,95,2|0,1:2|0:0,0:0:0:0:
160,331,380110,1,0,1:0:0:0:
240,158,380235,1,0,0:0:0:0:
240,158,380297,1,0,0:0:0:0:
240,158,380360,2,0,P|240:99|217:52,1,95,2|0,1:2|0:0,0:0:0:0:
58,211,380610,6,0,L|152:193,1,95,0|0,1:0|0:0,0:0:0:0:
392,85,380860,2,0,L|298:103,1,95,2|0,1:2|0:0,0:0:0:0:
148,58,381110,1,0,1:0:0:0:
245,259,381235,1,0,0:0:0:0:
245,259,381297,1,0,0:0:0:0:
245,259,381360,1,2,1:2:0:0:
298,102,381485,1,0,0:0:0:0:
183,350,381610,6,0,P|220:366|274:366,1,95,4|0,1:2|0:0,0:0:0:0:
58,211,381860,2,0,P|42:248|42:302,1,95,2|0,1:2|0:0,0:0:0:0:
245,259,382110,1,0,1:0:0:0:
75,177,382235,1,0,0:0:0:0:
75,177,382297,1,0,0:0:0:0:
75,177,382360,1,2,1:2:0:0:
149,338,382485,1,0,0:0:0:0:
261,142,382610,6,0,P|309:142|365:161,1,95,0|0,1:0|0:0,0:0:0:0:
167,190,382860,2,0,P|119:190|63:171,1,95,2|0,1:2|0:0,0:0:0:0:
250,18,383110,2,0,P|328:63|346:183,1,190,0|2,1:0|1:2,0:0:0:0:
274,365,383485,1,0,0:0:0:0:
274,365,383547,1,0,0:0:0:0:
274,365,383610,6,0,L|396:356,1,113.999996520996,4|0,1:2|0:0,0:0:0:0:
198,276,383860,2,0,L|84:284,1,113.999996520996,2|0,1:2|0:2,0:2:0:0:
246,129,384110,1,0,1:0:0:0:
231,276,384235,1,0,0:0:0:0:
210,108,384360,1,2,1:2:0:0:
267,293,384485,1,0,0:0:0:0:
122,153,384610,6,0,P|112:103|142:36,1,113.999996520996,0|0,1:0|0:0,0:0:0:0:
353,245,384860,2,0,P|363:295|333:362,1,113.999996520996,2|0,1:2|0:0,0:0:0:0:
210,108,385110,1,0,1:0:0:0:
267,293,385235,1,0,0:0:0:0:
128,183,385360,1,2,1:2:0:0:
346,210,385485,1,0,0:0:0:0:
148,315,385610,6,0,P|123:324|79:323,3,56.9999982604981,0|0|0|0,3:0|3:0|3:0|3:0,3:0:0:0:
34,257,385860,2,0,P|25:232|26:188,3,56.9999982604981,0|0|0|0,3:0|3:0|3:0|3:0,3:0:0:0:
77,122,386110,1,0,3:0:0:0:
111,112,386172,1,0,3:0:0:0:
146,106,386235,1,0,3:0:0:0:
182,106,386297,1,0,3:0:0:0:
216,113,386360,1,8,0:3:0:0:
252,119,386422,1,8,0:3:0:0:
287,118,386485,1,8,0:3:0:0:
322,112,386547,1,8,0:3:0:0:
356,102,386610,6,0,L|350:167,3,56.9999982604981,2|0|0|0,3:2|3:0|3:2|3:0,3:0:0:0:
427,198,386860,2,0,L|420:262,3,56.9999982604981,0|0|0|0,3:0|3:0|3:0|3:0,3:0:0:0:
340,300,387110,1,2,0:0:0:0:
341,314,387172,1,2,0:0:0:0:
343,328,387235,1,2,0:0:0:0:
345,342,387297,1,2,0:0:0:0:
347,356,387360,2,0,B|264:335|264:335|170:357,1,170.999994781494,2|0,0:3|0:0,0:0:0:0:
106,312,387610,6,0,B|101:279|101:279|108:246,3,66.4999979705811,4|0|0|0,1:2|0:0|0:0|0:0,0:0:0:0:
164,181,387860,2,0,B|169:148|169:148|162:115,3,66.4999979705811,2|0|0|0,1:2|0:0|0:0|0:0,0:0:0:0:
80,86,388110,1,0,1:0:0:0:
96,57,388172,1,0,0:0:0:0:
123,37,388235,1,0,0:0:0:0:
154,28,388297,1,0,0:0:0:0:
187,32,388360,1,2,1:2:0:0:
216,47,388422,1,0,0:0:0:0:
237,73,388485,1,0,0:0:0:0:
248,104,388547,1,0,0:0:0:0:
252,137,388610,6,0,P|251:167|262:207,3,66.4999979705811,0|0|0|0,1:0|0:0|0:0|0:0,0:0:0:0:
361,187,388860,2,0,P|361:153|353:121,3,66.4999979705811,2|0|0|0,1:2|0:0|0:0|0:0,0:0:0:0:
345,28,389110,1,0,1:0:0:0:
393,40,389172,1,0,0:0:0:0:
433,69,389235,1,0,0:0:0:0:
459,111,389297,1,0,0:0:0:0:
469,159,389360,1,2,1:2:0:0:
460,208,389422,1,0,0:0:0:0:
433,250,389485,1,0,0:0:0:0:
393,279,389547,1,0,0:0:0:0:
346,296,389610,6,0,P|314:305|270:304,3,66.4999979705811,0|0|0|0,1:0|0:0|0:0|0:0,0:0:0:0:
219,253,389860,2,0,P|185:253|153:262,3,66.4999979705811,2|0|0|0,1:2|0:0|0:0|0:0,0:0:0:0:
87,338,390110,1,0,1:0:0:0:
99,302,390172,1,0,0:0:0:0:
106,266,390235,1,0,0:0:0:0:
104,228,390297,1,0,0:0:0:0:
95,192,390360,1,2,1:2:0:0:
90,155,390422,1,0,0:0:0:0:
93,118,390485,1,0,0:0:0:0:
103,82,390547,1,0,0:0:0:0:
117,47,390610,6,0,L|197:58,3,66.4999979705811,0|0|0|0,1:0|0:0|0:0|0:0,0:0:0:0:
184,140,390860,2,0,L|264:151,3,66.4999979705811,2|0|0|0,1:2|0:0|0:0|0:0,0:0:0:0:
251,233,391110,2,0,L|331:244,3,66.4999979705811,0|0|0|0,1:0|0:0|0:0|0:0,0:0:0:0:
318,326,391360,2,0,L|398:337,3,66.4999979705811,2|0|0|0,1:2|0:0|0:0|0:0,0:0:0:0:
454,291,391610,5,4,1:2:0:0:
460,250,391672,1,0,0:0:0:0:
453,209,391735,1,0,0:0:0:0:
434,172,391797,1,0,0:0:0:0:
404,144,391860,1,2,1:2:0:0:
366,126,391922,1,0,0:0:0:0:
325,120,391985,1,0,0:0:0:0:
285,128,392047,1,0,0:0:0:0:
249,148,392110,5,0,1:0:0:0:
242,103,392172,1,0,0:0:0:0:
211,70,392235,1,0,0:0:0:0:
167,61,392297,1,0,0:0:0:0:
126,80,392360,1,2,1:2:0:0:
103,118,392422,1,0,0:0:0:0:
106,163,392485,1,0,0:0:0:0:
135,198,392547,1,0,0:0:0:0:
178,210,392610,6,0,L|172:287,3,66.4999979705811,0|0|0|0,1:0|0:0|0:0|0:0,0:0:0:0:
259,240,392860,2,0,L|252:316,3,66.4999979705811,2|0|0|0,1:2|0:0|0:0|0:0,0:0:0:0:
339,269,393110,2,0,L|332:345,3,66.4999979705811,0|0|0|0,1:0|0:0|0:0|0:0,0:0:0:0:
419,298,393360,2,0,L|412:374,3,66.4999979705811,2|0|0|0,1:2|0:0|0:0|0:0,0:0:0:0:
490,249,393610,5,0,3:0:0:0:
453,251,393672,1,0,3:0:0:0:
419,235,393735,1,0,3:0:0:0:
396,206,393797,1,0,3:0:0:0:
390,169,393860,1,8,0:3:0:0:
402,134,393922,1,8,0:3:0:0:
429,108,393985,1,8,0:3:0:0:
464,98,394047,1,8,0:3:0:0:
500,106,394110,5,0,3:2:0:0:
497,147,394172,1,0,3:0:0:0:
482,185,394235,1,8,0:3:0:0:
456,218,394297,1,8,0:3:0:0:
422,241,394360,1,8,0:3:0:0:
382,253,394422,1,8,0:3:0:0:
341,253,394485,1,8,0:3:0:0:
301,241,394547,1,8,0:3:0:0:
267,218,394610,5,4,1:2:0:0:
232,194,395110,1,4,1:2:0:0:
196,169,395610,6,0,P|137:169|78:196,1,118.75,4|0,1:2|0:0,0:0:0:0:
166,328,395860,1,0,0:0:0:0:
196,169,395985,1,0,0:0:0:0:
270,350,396110,2,0,B|389:350|389:350|398:355|398:355|507:355,1,237.5,8|0,0:0|0:0,0:0:0:0:
349,198,396485,1,0,0:0:0:0:
166,328,396610,6,0,B|107:328|107:328|50:295,1,118.75,0|0,1:0|0:0,0:0:0:0:
349,198,396860,2,0,B|408:198|408:198|465:231,1,118.75,0|0,0:0|0:0,0:0:0:0:
252,251,397110,2,0,P|252:144|365:89,1,237.5,8|0,0:0|0:0,0:0:0:0:
349,198,397485,1,0,0:0:0:0:
252,251,397610,6,0,P|192:264|126:248,1,118.75,0|0,1:0|0:0,0:0:0:0:
193,92,397860,1,0,0:0:0:0:
252,251,397985,2,0,P|265:311|249:377,1,118.75,0|8,0:0|0:0,0:0:0:0:
193,92,398235,1,2,0:0:0:0:
349,198,398360,1,2,0:0:0:0:
136,252,398485,1,2,0:0:0:0:
340,88,398610,6,0,P|441:137|445:250,1,237.5,2|2,1:2|0:0,0:0:0:0:
244,247,398985,2,0,P|288:214|361:197,1,118.75,2|8,0:0|0:0,0:0:0:0:
359,360,399235,1,2,0:0:0:0:
244,247,399360,2,0,B|235:188|235:188|244:123,1,118.75,2|0,0:0|0:0,0:0:0:0:
444,250,399610,5,0,1:0:0:0:
249,273,399735,1,0,0:0:0:0:
340,88,399860,1,0,0:0:0:0:
359,360,399985,1,0,0:0:0:0:
243,129,400110,2,0,P|152:129|79:246,1,237.5,8|0,0:0|0:0,0:0:0:0:
143,360,400485,1,0,0:0:0:0:
201,241,400610,6,0,P|269:234|328:244,1,118.75,0|0,1:0|0:0,0:0:0:0:
491,274,400860,1,0,0:0:0:0:
359,360,400985,1,0,0:0:0:0:
418,190,401110,2,0,B|436:115|407:31|407:31|408:75|372:116,1,237.5,8|0,0:0|0:0,0:0:0:0:
318,241,401485,1,0,0:0:0:0:
179,42,401610,6,0,P|237:31|297:33,1,118.75,0|0,1:0|0:0,0:0:0:0:
201,241,401860,1,0,0:0:0:0:
179,42,401985,1,0,0:0:0:0:
201,241,402110,2,0,P|142:252|83:250,1,118.75,8|0,0:0|0:0,0:0:0:0:
318,241,402360,1,0,0:0:0:0:
205,363,402485,1,0,0:0:0:0:
83,250,402610,6,0,B|74:192|74:192|85:127,1,118.75,2|0,1:2|0:0,0:0:0:0:
296,32,402860,2,0,P|301:64|291:120,3,59.375,2|0|0|0,3:2|3:0|3:0|3:0,3:0:0:0:
296,141,403110,2,0,P|352:128|414:145,1,118.75,10|0,0:0|0:0,0:0:0:0:
351,270,403360,1,2,3:2:0:0:
323,279,403422,1,0,3:0:0:0:
293,282,403485,1,0,3:0:0:0:
264,278,403547,1,0,3:0:0:0:
236,268,403610,6,0,P|248:323|235:385,1,118.75,4|0,1:2|0:0,0:0:0:0:
131,172,403860,1,2,0:0:0:0:
296,141,403985,1,0,0:0:0:0:
236,268,404110,2,0,P|142:314|18:258,1,237.5,8|2,0:0|0:0,0:0:0:0:
296,141,404485,1,0,0:0:0:0:
352,342,404610,6,0,P|416:341|469:305,1,118.75,0|0,1:0|0:0,0:0:0:0:
240,143,404860,2,0,P|176:144|123:180,1,118.75,2|0,0:0|0:0,0:0:0:0:
384,244,405110,2,0,P|415:147|362:15,1,237.5,8|2,0:0|0:0,0:0:0:0:
240,143,405485,1,0,0:0:0:0:
384,244,405610,6,0,P|443:246|493:214,1,118.75,0|0,1:0|0:0,0:0:0:0:
240,143,405860,1,2,0:0:0:0:
187,348,405985,2,0,P|244:367|302:347,1,118.75,0|8,0:0|0:0,0:0:0:0:
97,198,406235,1,2,0:0:0:0:
244,280,406360,1,2,0:0:0:0:
68,300,406485,1,2,0:0:0:0:
240,143,406610,6,0,B|354:112|354:112|477:142,1,237.5,2|2,1:2|0:0,0:0:0:0:
244,280,406985,2,0,B|226:227|226:227|226:160,1,118.75,2|8,0:0|0:0,0:0:0:0:
357,202,407235,1,2,0:0:0:0:
297,347,407360,1,2,0:0:0:0:
240,143,407485,1,2,0:0:0:0:
426,274,407610,6,0,P|454:220|441:147,1,118.75,0|0,1:0|0:0,0:0:0:0:
297,347,407860,1,2,0:0:0:0:
240,143,407985,1,0,0:0:0:0:
183,347,408110,2,0,P|82:347|19:234,1,237.5,8|2,0:0|0:0,0:0:0:0:
256,265,408485,1,0,0:0:0:0:
145,129,408610,6,0,P|132:186|131:246,1,118.75,0|0,1:0|0:0,0:0:0:0:
380,246,408860,2,0,P|379:186|367:129,1,118.75,2|0,0:0|0:0,0:0:0:0:
256,28,409110,2,0,L|256:271,1,237.5,8|2,0:0|0:0,0:0:0:0:
367,129,409485,1,0,0:0:0:0:
145,129,409610,6,0,L|-3:142,1,118.75,0|0,1:0|0:0,0:0:0:0:
131,246,409860,1,2,0:0:0:0:
154,96,409985,1,0,0:0:0:0:
256,265,410110,2,0,L|404:252,1,118.75,8|0,0:0|0:0,0:0:0:0:
270,148,410360,1,2,0:0:0:0:
256,300,410485,1,0,0:0:0:0:
367,129,410610,6,0,P|422:129|480:156,1,118.75,2|0,1:2|0:0,0:0:0:0:
256,300,410860,2,0,L|256:163,1,118.75,2|0,0:0|0:0,0:0:0:0:
145,129,411110,2,0,P|90:129|32:156,1,118.75,10|0,0:0|0:0,0:0:0:0:
256,99,411360,2,2,L|256:60,6,29.6875
256,25,411610,5,4,1:2:0:0:
256,192,419610,5,4,1:2:0:0:
256,192,421610,5,4,1:2:0:0:
256,192,423610,5,4,1:2:0:0:
352,96,424610,5,4,1:2:0:0:
160,96,425110,1,4,1:2:0:0:
160,288,425610,1,4,1:2:0:0:
352,288,426110,1,4,1:2:0:0:
352,288,426360,1,4,1:2:0:0:
352,288,426610,1,2,0:0:0:0:
160,192,426860,5,4,1:2:0:0:
256,192,427110,1,4,1:2:0:0:
352,192,427360,1,4,1:2:0:0:
256,73,427610,6,0,L|256:209,1,118.75,6|0,1:2|0:0,0:0:0:0:
256,230,427797,1,0,0:0:0:0:
256,230,427860,1,0,1:0:0:0:
352,102,427985,1,0,0:0:0:0:
160,102,428110,1,0,1:0:0:0:
160,102,428172,2,0,B|101:102|101:102|39:127,1,118.75,0|0,0:0|0:0,0:0:0:0:
45,124,428360,2,0,B|67:179|67:179|67:238,1,118.75,0|0,1:0|0:0,0:0:0:0:
197,324,428610,6,0,L|315:324,1,118.75,2|0,1:2|0:0,0:0:0:0:
352,297,428797,1,0,0:0:0:0:
352,297,428860,1,0,1:0:0:0:
256,112,428985,1,0,0:0:0:0:
256,242,429110,1,0,1:0:0:0:
256,257,429172,1,0,0:0:0:0:
256,272,429235,1,0,0:0:0:0:
337,169,429360,1,0,1:0:0:0:
175,169,429485,1,0,0:0:0:0:
364,168,429610,6,0,P|423:168|477:144,1,118.75,2|0,1:2|0:0,0:0:0:0:
488,100,429797,1,0,0:0:0:0:
488,100,429860,1,0,1:0:0:0:
488,284,429985,1,0,0:0:0:0:
365,167,430110,1,0,1:0:0:0:
337,169,430172,2,0,P|328:224|337:287,1,118.75
341,315,430360,2,0,P|291:339|232:320,1,118.75,0|0,1:0|0:0,0:0:0:0:
59,129,430610,6,0,P|108:104|167:123,1,118.75,2|0,1:2|0:0,0:0:0:0:
198,145,430797,1,0,0:0:0:0:
198,145,430860,1,0,1:0:0:0:
129,355,430985,1,0,0:0:0:0:
118,187,431110,1,2,1:2:0:0:
233,320,431235,1,2,0:2:0:0:
63,282,431360,1,2,1:2:0:0:
220,217,431485,1,2,0:2:0:0:
38,146,431610,6,0,B|38:89|38:89|81:38,1,118.75,2|0,1:2|0:0,0:0:0:0:
125,10,431797,1,0,0:0:0:0:
125,10,431860,1,0,1:0:0:0:
116,189,431985,1,0,0:0:0:0:
213,101,432110,2,0,L|282:101,2,59.375,2|0|0,1:2|0:0|0:0,0:0:0:0:
116,189,432360,2,0,L|47:189,2,59.375,2|0|0,1:2|0:0|0:0,0:0:0:0:
213,276,432610,5,2,1:2:0:0:
242,276,432672,1,0,0:0:0:0:
272,276,432735,1,0,0:0:0:0:
428,189,432860,1,2,1:2:0:0:
398,189,432922,1,0,0:0:0:0:
369,189,432985,1,0,0:0:0:0:
436,346,433110,2,0,P|445:308|445:269,2,59.375,2|0|0,1:2|0:2|0:2,0:2:0:0:
369,189,433360,2,0,P|371:158|379:130,2,59.375,2|0|0,1:2|0:0|0:0,0:0:0:0:
328,352,433610,5,2,1:2:0:0:
328,352,433672,1,0,0:0:0:0:
328,352,433735,1,0,0:0:0:0:
213,276,433860,2,0,L|134:276,2,59.375,2|0|0,1:2|0:0|0:0,0:0:0:0:
328,196,434110,1,2,1:2:0:0:
328,196,434172,1,0,0:0:0:0:
328,196,434235,1,0,0:0:0:0:
213,120,434360,2,0,L|134:120,2,59.375,2|0|0,1:2|0:0|0:0,0:0:0:0:
328,40,434610,6,0,B|386:40|386:40|445:64,1,118.75,2|0,1:2|0:0,0:0:0:0:
495,94,434797,1,0,0:0:0:0:
495,94,434860,1,4,1:2:0:0:
417,268,434985,1,0,0:0:0:0:
368,127,435110,1,4,1:2:0:0:
368,127,435172,1,0,0:0:0:0:
368,127,435235,1,0,0:0:0:0:
417,268,435360,2,0,P|449:268|487:261,2,59.375,4|0|0,1:2|0:0|0:0,0:0:0:0:
256,192,435610,6,0,P|197:198|142:220,1,118.75,6|0,1:2|0:0,0:0:0:0:
24,314,435860,1,0,1:0:0:0:
57,140,435985,1,0,0:0:0:0:
142,312,436110,2,0,P|197:333|255:340,1,118.75,0|0,1:0|0:0,0:0:0:0:
406,265,436360,1,0,1:0:0:0:
256,192,436485,1,0,0:0:0:0:
406,119,436610,6,0,P|415:82|398:27,2,79.1666666666667,2|0|0,1:2|0:0|0:0,0:0:0:0:
326,82,436860,2,0,L|191:94,1,118.75,0|0,1:0|0:0,0:0:0:0:
287,275,437110,2,0,L|422:263,1,118.75,2|0,1:2|0:0,0:0:0:0:
449,268,437297,2,0,L|437:133,1,118.75,2|0,0:0|0:0,0:0:0:0:
406,119,437485,1,2,0:0:0:0:
287,275,437610,6,0,P|227:288|151:264,1,118.75,2|0,1:2|0:0,0:0:0:0:
92,93,437860,2,0,P|152:80|228:104,1,118.75,0|0,1:0|0:0,0:0:0:0:
71,331,438110,2,0,P|58:271|82:195,1,118.75,0|0,1:0|0:0,0:0:0:0:
207,92,438360,1,0,1:0:0:0:
171,275,438485,1,0,0:0:0:0:
320,128,438610,6,0,L|383:122,2,59.375,2|0|0,1:2|0:0|0:0,0:0:0:0:
320,256,438860,2,0,L|383:262,2,59.375,2|0|0,1:2|0:0|0:0,0:0:0:0:
192,256,439110,2,0,L|129:262,2,59.375,2|0|0,1:2|0:0|0:0,0:0:0:0:
192,128,439360,2,0,L|129:122,2,59.375,2|0|0,1:2|0:0|0:0,0:0:0:0:
320,128,439610,6,0,P|379:120|442:120,1,118.75,2|0,1:2|0:0,0:0:0:0:
486,137,439797,1,0,0:0:0:0:
486,137,439860,1,0,1:0:0:0:
395,266,439985,1,0,0:0:0:0:
320,128,440110,1,0,1:0:0:0:
286,101,440172,2,0,B|229:86|229:86|172:102,1,118.75,0|0,0:0|0:0,0:0:0:0:
132,122,440360,2,0,B|145:184|145:184|131:238,1,118.75,0|2,1:0|0:0,0:0:0:0:
52,322,440610,5,2,1:2:0:0:
37,153,440735,1,0,0:0:0:0:
131,237,440860,2,0,B|190:251|190:251|247:238,1,118.75,0|0,1:0|0:0,0:0:0:0:
395,147,441110,2,0,L|394:271,1,118.75,2|0,1:2|0:0,0:0:0:0:
447,206,441297,2,0,L|448:82,1,118.75,2|0,0:0|0:0,0:0:0:0:
395,19,441485,1,2,0:0:0:0:
287,149,441610,6,0,P|224:149|169:118,1,118.75,2|0,1:2|0:0,0:0:0:0:
133,99,441797,1,0,0:0:0:0:
133,99,441860,1,0,1:0:0:0:
263,11,441985,1,0,0:0:0:0:
287,149,442110,1,0,1:0:0:0:
291,178,442172,1,0,0:0:0:0:
287,207,442235,1,0,0:0:0:0:
128,216,442360,2,0,P|122:164|133:98,1,118.75,0|0,1:0|0:0,0:0:0:0:
263,11,442610,5,2,1:2:0:0:
393,98,442735,1,0,0:0:0:0:
263,186,442860,1,4,1:2:0:0:
251,221,442922,1,0,0:0:0:0:
249,258,442985,1,0,0:0:0:0:
257,294,443047,1,0,0:0:0:0:
275,326,443110,5,4,1:2:0:0:
243,316,443172,1,0,0:0:0:0:
210,311,443235,1,0,0:0:0:0:
177,313,443297,1,0,0:0:0:0:
145,321,443360,1,4,1:2:0:0:
112,329,443422,1,0,0:0:0:0:
79,331,443485,1,0,0:0:0:0:
46,327,443547,1,0,0:0:0:0:
14,318,443610,6,0,P|47:258|48:194,1,128.250000489235,6|0,1:2|0:0,0:0:0:0:
40,150,443797,1,0,0:0:0:0:
40,150,443860,1,0,1:0:0:0:
145,44,443985,1,0,0:0:0:0:
241,200,444110,1,0,1:0:0:0:
241,200,444172,2,0,P|244:263|276:319,1,128.250000489235,0|0,0:0|0:0,0:0:0:0:
275,318,444360,2,0,P|330:286|393:283,1,128.250000489235,0|0,1:0|0:0,0:0:0:0:
393,100,444610,6,0,P|330:97|275:66,1,128.250000489235,2|0,1:2|0:0,0:0:0:0:
256,27,444797,1,0,0:0:0:0:
256,27,444860,1,0,1:0:0:0:
332,181,444985,1,0,0:0:0:0:
180,181,445110,1,0,1:0:0:0:
180,181,445172,2,0,B|120:181|120:181|63:219,1,128.250000489235,0|0,0:0|0:0,0:0:0:0:
63,260,445360,2,0,B|119:298|119:298|179:298,1,128.250000489235,0|0,1:0|0:0,0:0:0:0:
332,181,445610,6,0,P|352:115|331:59,1,128.250000489235,2|0,1:2|0:0,0:0:0:0:
320,21,445797,1,0,0:0:0:0:
320,21,445860,1,0,1:0:0:0:
256,120,445985,1,0,0:0:0:0:
192,21,446110,1,0,1:0:0:0:
179,61,446172,2,0,P|159:121|180:181,1,128.250000489235,0|0,0:0|0:0,0:0:0:0:
198,220,446360,2,0,P|217:279|197:339,1,128.250000489235,0|0,1:0|0:0,0:0:0:0:
332,181,446610,6,0,P|387:190|443:237,1,128.250000489235,2|0,1:2|0:0,0:0:0:0:
458,283,446797,1,0,0:0:0:0:
458,283,446860,1,0,1:0:0:0:
431,81,446985,1,0,0:0:0:0:
338,309,447110,2,0,P|283:300|227:253,1,128.250000489235,2|2,1:2|0:0,0:0:0:0:
184,87,447360,1,2,1:2:0:0:
332,181,447485,1,2,0:2:0:0:
91,197,447610,6,0,P|72:263|96:321,1,128.250000489235,2|0,1:2|0:0,0:0:0:0:
123,351,447797,1,0,0:0:0:0:
123,351,447860,1,0,1:0:0:0:
256,296,447985,1,0,0:0:0:0:
195,193,448110,2,0,L|186:257,2,64.1250002446175,2|0|0,1:2|0:0|0:0,0:0:0:0:
316,193,448360,2,0,L|326:257,2,64.1250002446175,2|0|0,1:2|0:0|0:0,0:0:0:0:
100,133,448610,6,0,L|90:196,2,64.1250002446175,2|0|0,1:2|0:0|0:0,0:0:0:0:
412,133,448860,2,0,L|421:196,2,64.1250002446175,2|0|0,1:2|0:0|0:0,0:0:0:0:
256,38,449110,1,2,1:2:0:0:
256,54,449172,1,0,0:0:0:0:
256,70,449235,1,0,0:0:0:0:
256,224,449360,1,2,1:2:0:0:
256,208,449422,1,0,0:0:0:0:
256,192,449485,1,0,0:0:0:0:
462,297,449610,6,0,B|399:314|399:314|335:293,1,128.250000489235,2|0,1:2|0:0,0:0:0:0:
339,88,449860,2,0,B|399:69|399:69|462:87,1,128.250000489235,2|0,1:2|0:0,0:0:0:0:
172,295,450110,2,0,B|112:314|112:314|50:297,1,128.250000489235,2|0,1:2|0:0,0:0:0:0:
50,87,450360,2,0,B|112:69|112:69|172:88,1,128.250000489235,2|0,1:2|0:0,0:0:0:0:
256,320,450610,6,0,L|256:189,1,128.250000489235,2|0,1:2|0:0,0:0:0:0:
256,159,450797,1,0,0:0:0:0:
256,126,450860,1,4,1:2:0:0:
339,294,450985,1,0,0:0:0:0:
173,294,451110,2,0,L|109:317,2,64.1250002446175,4|0|0,1:2|0:0|0:0,0:0:0:0:
339,294,451360,2,0,L|403:317,2,64.1250002446175,4|0|0,1:2|0:0|0:0,0:0:0:0:
256,126,451610,6,0,L|256:257,1,128.250000489235,6|0,1:2|0:0,0:0:0:0:
339,90,451860,1,0,1:0:0:0:
173,90,451985,1,0,0:0:0:0:
339,192,452110,2,0,P|405:192|458:154,1,128.250000489235,0|0,1:0|0:0,0:0:0:0:
173,192,452360,2,0,P|107:192|54:154,1,128.250000489235,0|0,1:0|0:0,0:0:0:0:
256,126,452610,6,0,L|256:37,2,85.5000003261566,2|0|0,1:2|0:0|0:0,0:0:0:0:
256,208,452860,2,0,L|256:339,1,128.250000489235,0|0,1:0|0:0,0:0:0:0:
172,190,453110,2,2,P|109:190|57:225,1,128.250000489235,2|2,1:2|0:2,0:2:0:0:
56,283,453297,2,0,P|109:318|172:318,1,128.250000489235,2|0,0:0|0:0,0:0:0:0:
215,254,453485,1,2,0:0:0:0:
194,66,453610,6,0,B|172:127|172:127|172:190,1,128.250000489235,2|0,1:2|0:0,0:0:0:0:
339,191,453860,2,0,B|339:128|339:128|317:67,1,128.250000489235,0|0,1:0|0:0,0:0:0:0:
306,295,454110,2,0,B|369:295|369:295|430:273,1,128.250000489235,0|0,1:0|0:0,0:0:0:0:
206,295,454360,2,0,B|142:295|142:295|81:273,1,128.250000489235,0|0,1:0|0:0,0:0:0:0:
339,191,454610,6,0,L|339:116,2,64.1250002446175,2|0|0,1:2|0:0|0:0,0:0:0:0:
173,191,454860,2,0,L|173:116,2,64.1250002446175,2|0|0,1:2|0:0|0:0,0:0:0:0:
306,295,455110,2,0,L|381:295,2,64.1250002446175,2|0|0,1:2|0:0|0:0,0:0:0:0:
206,295,455360,2,0,L|131:295,2,64.1250002446175,2|0|0,1:2|0:0|0:0,0:0:0:0:
256,192,455610,6,0,L|256:64,1,128.250000489235,2|0,1:2|0:0,0:0:0:0:
256,22,455797,1,0,0:0:0:0:
256,22,455860,1,0,1:0:0:0:
339,126,455985,1,0,0:0:0:0:
173,126,456110,1,0,1:0:0:0:
141,126,456172,2,0,P|79:133|22:182,1,128.250000489235,0|0,0:0|0:0,0:0:0:0:
28,211,456360,2,0,P|77:250|140:257,1,128.250000489235,0|2,1:0|0:0,0:0:0:0:
256,192,456610,5,2,1:2:0:0:
141,126,456735,1,0,0:0:0:0:
141,258,456860,2,0,P|152:323|190:378,1,128.250000489235,0|0,1:0|0:0,0:0:0:0:
326,374,457110,2,0,P|360:320|371:258,1,128.250000489235,2|0,1:2|0:0,0:0:0:0:
371,211,457297,2,0,P|381:148|415:94,1,128.250000489235,2|0,0:0|0:0,0:0:0:0:
451,64,457485,1,2,0:0:0:0:
256,40,457610,6,0,L|256:172,1,128.250000489235,2|0,1:2|0:0,0:0:0:0:
256,210,457797,1,0,0:0:0:0:
256,252,457860,1,0,1:0:0:0:
346,135,457985,1,0,0:0:0:0:
166,135,458110,2,0,B|148:202|148:202|148:265,1,128.250000489235,0|0,1:0|0:0,0:0:0:0:
364,260,458360,2,0,B|364:202|364:202|346:135,1,128.250000489235,0|0,1:0|0:0,0:0:0:0:
256,40,458610,5,2,1:2:0:0:
225,51,458672,1,0,0:0:0:0:
194,57,458735,1,0,0:0:0:0:
162,54,458797,1,0,0:0:0:0:
132,44,458860,1,0,1:0:0:0:
101,37,458922,1,0,0:0:0:0:
69,38,458985,1,0,0:0:0:0:
38,46,459047,1,0,0:0:0:0:
8,57,459110,5,0,1:0:0:0:
26,84,459172,1,0,0:0:0:0:
39,113,459235,1,0,0:0:0:0:
47,144,459297,1,0,0:0:0:0:
49,176,459360,1,0,1:0:0:0:
46,208,459422,1,0,0:0:0:0:
38,239,459485,1,0,0:0:0:0:
25,268,459547,1,0,0:0:0:0:
7,295,459610,6,0,P|64:318|136:318,1,128.250000489235,2|0,1:2|0:0,0:0:0:0:
359,191,459860,2,0,P|302:168|230:168,1,128.250000489235,0|0,1:0|0:0,0:0:0:0:
7,332,460110,2,0,P|63:354|135:354,1,128.250000489235,0|0,1:0|0:0,0:0:0:0:
359,154,460360,2,0,P|302:131|230:131,1,128.250000489235,0|0,1:0|0:0,0:0:0:0:
451,335,460610,6,0,B|466:273|466:273|448:202,1,128.250000489235,2|0,1:2|0:0,0:0:0:0:
235,130,460860,2,0,B|220:192|220:192|238:263,1,128.250000489235,0|0,1:0|0:0,0:0:0:0:
486,336,461110,2,0,B|501:274|501:274|483:203,1,128.250000489235,0|0,1:0|0:0,0:0:0:0:
200,129,461360,2,0,B|185:191|185:191|203:262,1,128.250000489235,0|0,1:0|0:0,0:0:0:0:
431,52,461610,6,0,P|394:48|342:60,3,71.2500027179719,2|0|0|0,1:2|0:0|0:0|0:0,0:0:0:0:
285,80,461860,2,0,P|249:85|214:81,3,71.2500027179719,0|0|0|0,1:0|0:0|0:0|0:0,0:0:0:0:
136,45,462110,2,0,P|130:80|134:115,3,71.2500027179719,0|0|0|0,1:0|0:0|0:0|0:0,0:0:0:0:
153,196,462360,2,0,P|158:231|154:266,3,71.2500027179719,0|0|0|0,1:0|0:0|0:0|0:0,0:0:0:0:
155,349,462610,5,2,1:2:0:0:
196,363,462672,1,0,0:0:0:0:
241,364,462735,1,0,0:0:0:0:
283,353,462797,1,0,0:0:0:0:
321,329,462860,1,0,1:0:0:0:
349,294,462922,1,0,0:0:0:0:
366,253,462985,1,0,0:0:0:0:
370,209,463047,1,0,0:0:0:0:
361,165,463110,5,0,1:0:0:0:
408,173,463172,1,0,0:0:0:0:
452,154,463235,1,0,0:0:0:0:
479,113,463297,1,0,0:0:0:0:
479,65,463360,1,0,1:0:0:0:
452,25,463422,1,0,0:0:0:0:
408,6,463485,1,0,0:0:0:0:
360,14,463547,1,0,0:0:0:0:
325,48,463610,5,6,1:2:0:0:
256,192,463672,12,0,467610,0:0:0:0:
