osu file format v14

[General]
AudioFilename: Thank you! (1).mp3
AudioLeadIn: 0
PreviewTime: 86981
Countdown: 0
SampleSet: Soft
StackLeniency: 0.7
Mode: 0
LetterboxInBreaks: 1
WidescreenStoryboard: 1

[Editor]
Bookmarks: 20819,86981
DistanceSpacing: 1
BeatDivisor: 8
GridSize: 4
TimelineZoom: 4.199998

[Metadata]
Title:Thank you!
TitleUnicode:Thank you!
Artist:SakiZ
ArtistUnicode:SakiZ
Creator:VGogetto
Version:YukiFC's Insane
Source:
Tags:akasha atsuro jemmmmy Side Nerova Riuz GX FCL 100sec records deathstream Stream Energy Limitless Space World M3 27 2011 Urushi38 Minakami Yuki mtbbsben urushi38 evil twilight sakiz happy stick the poon Wub Woof Wolf
BeatmapID:1330826
BeatmapSetID:630405

[Difficulty]
HPDrainRate:5
CircleSize:4
OverallDifficulty:6
ApproachRate:8.5
SliderMultiplier:1.4
SliderTickRate:1

[Events]
//Background and Video events
0,0,"maxresdefault.jpg",0,0
Video,0,"Thank you!.avi"
//Break Periods
2,62532,63928
//Storyboard Layer 0 (Background)
//Storyboard Layer 1 (Fail)
//Storyboard Layer 2 (Pass)
//Storyboard Layer 3 (Foreground)
//Storyboard Sound Samples

[TimingPoints]
1360,324.324324324324,4,2,1,50,1,0
1360,-200,4,2,1,25,0,0
20170,-200,4,2,1,5,0,0
20495,-200,4,2,1,35,0,0
41251,-175.438596491228,4,2,1,50,0,0
41576,-87.719298245614,4,2,1,60,0,0
64603,-100,4,2,1,55,0,0
64927,-125,4,2,1,55,0,0
74981,-125,4,2,1,60,0,0
75305,-100,4,2,1,65,0,0
85522,-87.719298245614,4,2,1,60,0,0
107089,-83.3333333333333,4,2,1,70,0,0
107332,-83.3333333333333,4,2,1,60,0,0
107738,-76.9230769230769,4,2,1,75,0,1
117305,-76.9230769230769,4,2,1,65,0,1
117792,-76.9230769230769,4,2,1,75,0,1
125981,-76.9230769230769,4,2,1,50,0,1
126387,-76.9230769230769,4,2,1,70,0,1
126954,-66.6666666666667,4,2,1,50,0,1
127197,-76.9230769230769,4,2,1,75,0,1
127927,-76.9230769230769,4,2,1,50,0,1
128170,-76.9230769230769,4,2,1,75,0,1
128251,-76.9230769230769,4,2,1,50,0,1
128332,-76.9230769230769,4,2,1,75,0,1
128414,-76.9230769230769,4,2,1,50,0,1
128495,-100,4,2,1,65,0,0

[HitObjects]
256,192,15630,12,0,20171,0:0:0:0:
144,148,20495,6,0,L|137:178,3,17.5,2|0|0|0,0:0|0:0|0:0|0:0,0:0:0:0:
95,200,20819,6,0,P|144:186|293:335,2,280,4|2|0,3:3|0:1|0:0,0:0:0:0:
314,93,25684,2,0,L|359:89,1,35,2|0,0:0|0:0,0:0:0:0:
436,83,26008,6,0,B|409:142|440:184|440:184|403:250|403:250|418:300|399:359,1,280,2|2,0:0|0:1,0:0:0:0:
96,209,28279,2,0,P|86:181|88:164,1,35,2|0,0:0|0:0,0:0:0:0:
99,89,28603,6,0,B|162:74|231:96|231:96|307:122|379:85,1,280,2|2,0:0|0:1,0:0:0:0:
221,303,30711,2,0,L|172:309,2,35,0|2|0,0:0|0:0|0:0,0:0:0:0:
312,277,31198,6,0,P|339:202|235:164,1,210,2|0,0:0|0:0,0:0:0:0:
158,122,32495,2,0,P|275:75|409:155,1,280,2|0,0:1|0:0,0:0:0:0:
168,328,34765,2,0,L|124:332,1,35,2|0,0:0|0:0,0:0:0:0:
45,335,35090,6,0,P|33:311|49:231,1,105,2|0,0:0|0:0,0:0:0:0:
113,183,35738,2,0,L|161:179,1,35,2|0,0:0|0:0,0:0:0:0:
220,130,36062,2,0,L|254:132,1,35,2|0,0:0|0:0,0:0:0:0:
272,135,36306,1,0,0:0:0:0:
289,137,36387,6,0,P|279:187|446:294,1,280,2|2,0:0|0:1,0:0:0:0:
210,61,38657,2,0,L|172:60,1,35,2|0,0:0|0:0,0:0:0:0:
87,57,38981,2,0,L|95:268,1,210,2|0,0:0|0:0,0:0:0:0:
169,341,40279,1,0,0:0:0:0:
155,92,41251,2,0,L|132:85,3,20
155,92,41576,6,0,L|324:63,1,160,4|8,0:0|0:0,0:0:0:0:
406,83,42061,2,0,L|439:163,1,80
444,323,42386,2,0,L|414:250,1,80,0|8,0:0|0:0,0:0:0:0:
406,248,42629,1,0,0:0:0:0:
398,246,42710,1,0,0:0:0:0:
390,244,42791,1,0,0:0:0:0:
382,243,42872,6,0,P|332:229|243:301,1,160,2|8,0:0|0:0,0:0:0:0:
334,323,43359,2,0,L|348:360,2,40,2|0|0,0:0|0:0|0:0,0:0:0:0:
233,176,43683,2,0,L|219:139,2,40,2|0|8,0:0|0:0|0:0,0:0:0:0:
247,285,44007,2,0,P|191:330|143:333,1,120
113,309,44332,6,0,L|81:231,1,80,0|8,0:0|0:0,0:0:0:0:
36,110,44656,1,0,0:0:0:0:
43,106,44737,1,0,0:0:0:0:
50,102,44818,1,2,0:0:0:0:
57,98,44899,1,0,0:0:0:0:
64,94,44980,1,0,0:0:0:0:
71,90,45061,1,0,0:0:0:0:
78,86,45143,2,0,L|122:62,3,40,8|0|0|0,0:0|0:0|0:0|0:0,0:0:0:0:
152,69,45467,6,0,P|216:86|310:61,1,160,2|8,0:0|0:0,0:0:0:0:
374,127,45953,2,0,P|393:175|388:215,1,80
487,264,46278,2,0,P|470:228|470:189,1,80,0|8,0:0|0:0,0:0:0:0:
302,183,46602,2,0,L|222:224,1,80
78,255,46926,2,0,L|150:219,1,80,0|8,0:0|0:0,0:0:0:0:
233,300,47251,6,0,L|162:337,1,80,2|0,0:0|0:0,0:0:0:0:
328,334,47575,1,0,0:0:0:0:
332,327,47656,1,0,0:0:0:0:
336,320,47737,1,8,0:0:0:0:
340,313,47818,1,0,0:0:0:0:
344,306,47899,1,0,0:0:0:0:
348,299,47980,1,0,0:0:0:0:
351,292,48061,6,0,L|346:243,3,40,2|0|0|0,0:0|0:0|0:0|0:0,0:0:0:0:
419,227,48386,2,0,L|414:178,3,40,8|0|0|0,0:0|0:0|0:0|0:0,0:0:0:0:
495,170,48710,2,0,L|490:121,3,40,2|0|0|0,0:0|0:0|0:0|0:0,0:0:0:0:
434,66,49034,1,8,0:0:0:0:
334,39,49197,1,0,0:0:0:0:
326,41,49278,1,0,0:0:0:0:
318,44,49359,6,0,P|247:67|201:61,1,120,2|0,0:0|0:0,0:0:0:0:
182,91,49683,2,0,P|231:123|251:179,1,120,10|0,0:0|0:0,0:0:0:0:
264,212,50007,2,0,P|193:235|147:229,1,120,2|0,0:0|0:0,0:0:0:0:
128,259,50332,2,0,P|177:291|197:347,1,120,10|0,0:0|0:0,0:0:0:0:
106,349,50656,6,0,L|66:367,3,40,2|0|0|0,0:0|0:0|0:0|0:0,0:0:0:0:
13,308,50980,2,0,L|49:291,3,40,8|0|0|0,0:0|0:0|0:0|0:0,0:0:0:0:
60,205,51305,2,0,L|24:222,3,40,2|0|0|0,0:0|0:0|0:0|0:0,0:0:0:0:
11,143,51629,2,0,L|47:126,3,40,8|0|0|0,0:0|0:0|0:0|0:0,0:0:0:0:
77,51,51953,6,0,P|165:20|235:34,1,160,4|8,0:0|0:0,0:0:0:0:
326,87,52440,2,0,P|363:101|403:101,1,80
471,195,52764,1,0,0:0:0:0:
407,286,52926,1,8,0:0:0:0:
399,289,53007,1,0,0:0:0:0:
391,292,53089,1,0,0:0:0:0:
383,295,53170,1,0,0:0:0:0:
374,298,53251,6,0,P|338:314|298:315,1,80,2|0,0:0|0:0,0:0:0:0:
174,297,53575,2,0,L|123:285,2,40,8|0|0,0:0|0:0|0:0,0:0:0:0:
133,209,53899,2,0,L|82:197,2,40,2|0|0,0:0|0:0|0:0,0:0:0:0:
106,112,54224,2,0,L|16:88,1,80,8|0,0:0|0:0,0:0:0:0:
182,44,54548,6,0,L|259:64,1,80,2|0,0:0|0:0,0:0:0:0:
354,80,54872,1,8,0:0:0:0:
442,129,55034,1,0,0:0:0:0:
444,136,55116,1,0,0:0:0:0:
446,143,55197,1,2,0:0:0:0:
448,150,55278,1,0,0:0:0:0:
450,157,55359,1,0,0:0:0:0:
452,164,55440,1,0,0:0:0:0:
455,171,55521,2,0,L|464:217,3,40,8|0|0|0,0:0|0:0|0:0|0:0,0:0:0:0:
466,258,55845,6,0,B|474:337|405:358|405:358|376:333,1,160,4|8,0:0|0:0,0:0:0:0:
304,280,56332,2,0,P|257:272|214:282,1,80,0|2,0:0|0:0,0:0:0:0:
132,299,56656,2,0,P|93:308|53:304,1,80,0|8,0:0|0:0,0:0:0:0:
86,214,56980,2,0,L|72:126,1,80,0|2,0:0|0:0,0:0:0:0:
152,27,57305,6,0,L|165:107,1,80,0|8,0:0|0:0,0:0:0:0:
233,262,57629,2,0,L|221:183,1,80,0|2,0:0|0:0,0:0:0:0:
303,327,57953,1,0,0:0:0:0:
308,320,58034,1,0,0:0:0:0:
313,313,58116,1,8,0:0:0:0:
318,306,58197,1,0,0:0:0:0:
323,299,58278,1,0,0:0:0:0:
328,292,58359,1,0,0:0:0:0:
332,284,58440,6,0,L|384:279,3,40,2|0|0|0,0:0|0:0|0:0|0:0,0:0:0:0:
367,203,58764,2,0,L|419:198,3,40,8|0|0|0,0:0|0:0|0:0|0:0,0:0:0:0:
400,118,59089,2,0,L|439:114,3,40,0|0|0|0,0:0|0:0|0:0|0:0,0:0:0:0:
315,133,59413,1,8,0:0:0:0:
299,49,59575,1,0,0:0:0:0:
299,49,59656,1,0,0:0:0:0:
299,49,59737,6,0,P|230:56|196:93,1,120,2|0,0:0|0:0,0:0:0:0:
185,60,60061,2,0,P|141:114|143:164,1,120,10|0,0:0|0:0,0:0:0:0:
113,149,60386,2,0,P|120:218|157:252,1,120,2|0,0:0|0:0,0:0:0:0:
124,262,60710,2,0,P|178:306|228:304,1,120,10|0,0:0|0:0,0:0:0:0:
213,335,61034,6,0,L|246:367,3,40,2|0|0|0,0:0|0:0|0:0|0:0,0:0:0:0:
319,339,61359,2,0,L|290:311,3,40,8|0|0|0,0:0|0:0|0:0|0:0,0:0:0:0:
363,279,61683,2,0,L|396:311,3,40,2|0|0|0,0:0|0:0|0:0|0:0,0:0:0:0:
463,268,62008,2,0,L|434:240,3,40,8|0|0|0,0:0|0:0|0:0|0:0,0:0:0:0:
463,268,62332,5,6,0:0:0:0:
394,110,64603,6,0,L|398:69,3,35,2|0|0|0,0:0|0:0|0:0|0:0,0:0:0:0:
369,133,64927,6,0,P|315:126|292:131,1,56,6|0,0:0|0:0,0:0:0:0:
273,139,65171,2,0,P|285:99|264:42,1,84,2|2,0:0|0:0,0:0:0:0:
156,24,65576,2,0,P|112:23|60:24,2,84,2|2|2,0:0|0:0|0:0,0:0:0:0:
255,71,66225,6,0,L|263:151,1,56,2|0,0:0|0:0,0:0:0:0:
257,168,66468,2,0,P|190:158|156:168,1,84,2|2,0:0|0:0,0:0:0:0:
65,211,66873,2,0,L|60:315,2,84,2|2|2,0:0|0:0|0:0,0:0:0:0:
116,88,67522,6,0,P|168:68|220:80,2,84,2|2|2,0:0|0:0|0:0,0:0:0:0:
79,194,68171,2,0,P|27:214|-25:202,2,84,2|2|2,0:0|0:0|0:0,0:0:0:0:
180,170,68819,6,0,L|275:217,2,84,2|2|2,0:0|0:0|0:0,0:0:0:0:
6,70,69630,1,0,0:0:0:0:
6,70,69711,1,0,0:0:0:0:
6,70,69792,2,0,P|54:68|85:69,1,56,2|0,0:0|0:0,0:0:0:0:
189,135,70117,6,0,P|201:176|188:235,2,84,2|2|2,0:0|0:0|0:0,0:0:0:0:
72,104,70765,2,0,P|60:63|73:4,2,84,2|2|2,0:0|0:0|0:0,0:0:0:0:
131,200,71414,2,0,B|148:229|148:229|147:301,2,84,2|2|2,0:0|0:0|0:0,0:0:0:0:
237,33,72225,1,0,0:0:0:0:
237,33,72306,1,0,0:0:0:0:
237,33,72387,2,0,P|269:31|312:33,1,56,2|0,0:0|0:0,0:0:0:0:
312,32,72630,1,0,0:0:0:0:
331,32,72711,6,0,P|301:80|326:148,1,112,2|0,0:0|0:0,0:0:0:0:
275,207,73198,1,2,0:0:0:0:
275,207,73279,1,0,0:0:0:0:
275,207,73360,2,0,B|221:218|221:218|150:206,2,112,2|2|2,0:0|0:0|0:0,0:0:0:0:
414,112,74333,5,2,0:0:0:0:
392,210,74495,1,0,0:0:0:0:
392,210,74576,1,0,0:0:0:0:
392,210,74657,1,2,0:0:0:0:
310,147,74819,1,0,0:0:0:0:
310,147,74900,1,0,0:0:0:0:
310,147,74981,1,2,0:0:0:0:
414,112,75144,1,2,0:0:0:0:
414,112,75225,1,0,0:0:0:0:
414,112,75306,6,0,P|417:67|404:33,1,70,6|0,0:0|0:3,0:0:0:0:
362,21,75549,2,0,L|254:15,1,105,2|0,0:0|3:0,0:0:0:0:
146,78,75954,2,0,P|141:139|142:192,2,105,2|2|0,0:0|0:0|3:0,0:0:0:0:
257,15,76603,6,0,L|339:11,1,70,2|0,0:0|0:3,0:0:0:0:
379,14,76846,2,0,P|363:55|395:133,1,105,2|0,0:0|3:0,0:0:0:0:
423,207,77252,2,0,P|423:262|426:342,2,105,2|2|4,0:0|0:0|3:0,0:0:0:0:
339,121,77900,6,0,P|291:107|225:137,2,105,6|2|0,0:0|0:0|3:0,0:0:0:0:
404,234,78549,2,0,P|452:248|518:218,2,105,2|2|0,0:0|0:0|3:0,0:0:0:0:
401,223,79117,1,0,0:0:0:0:
398,212,79198,6,0,P|350:198|284:228,2,105,2|2|0,0:0|0:0|3:0,0:0:0:0:
477,37,80008,1,0,0:0:0:0:
477,37,80090,1,0,0:0:0:0:
477,37,80171,2,0,P|429:39|379:33,1,70,2|0,0:0|0:0,0:0:0:0:
300,44,80495,6,0,B|241:76|258:146|258:146|205:126|156:178,2,210,6|2|2,0:0|0:0|0:0,0:0:0:0:
426,10,81630,1,4,0:3:0:0:
426,10,81711,1,0,0:0:0:0:
426,10,81792,6,0,P|453:55|405:138,1,140,6|2,0:0|0:0,0:0:0:0:
222,200,82441,2,0,P|188:258|216:320,1,140,2|2,0:0|0:0,0:0:0:0:
320,333,82927,1,4,0:3:0:0:
320,333,83008,1,0,0:0:0:0:
320,333,83090,6,0,L|325:177,1,140,6|0,0:0|0:0,0:0:0:0:
302,90,83576,1,4,0:3:0:0:
302,90,83657,1,0,0:0:0:0:
302,90,83738,2,0,P|241:78|148:117,1,140,2|2,0:0|0:0,0:0:0:0:
74,52,84225,2,0,L|47:39,4,17.5,4|0|0|0|4,0:3|0:0|0:0|0:0|0:3,0:0:0:0:
101,153,84549,6,0,L|86:202,1,35,8|4,0:3|0:3,0:0:0:0:
159,297,84792,2,0,L|148:263,1,35,8|4,0:3|0:3,0:0:0:0:
4,282,85035,2,0,L|36:269,1,35,8|4,0:3|0:3,0:0:0:0:
201,205,85279,1,4,0:3:0:0:
201,205,85360,2,0,P|252:198|298:203,1,70,8|4,0:3|0:3,0:0:0:0:
256,192,85603,12,0,86657,0:0:0:0:
117,95,86981,6,0,P|108:145|89:171,1,80,4|0,0:0|0:0,0:0:0:0:
47,235,87225,2,0,P|92:250|121:279,1,80
183,313,87468,2,0,B|236:344|287:340|287:340|295:333,1,120
360,286,87792,1,0,0:0:0:0:
360,286,87954,2,0,P|380:252|382:213,1,80,2|0,0:0|0:0,0:0:0:0:
368,115,88279,5,2,0:0:0:0:
247,36,88522,1,0,0:0:0:0:
239,180,88765,1,0,0:0:0:0:
368,115,88927,5,2,0:0:0:0:
196,202,89171,1,0,0:0:0:0:
287,33,89414,1,0,0:0:0:0:
294,32,89495,1,0,0:0:0:0:
301,35,89576,6,0,P|352:51|393:47,1,80,4|0,0:0|0:0,0:0:0:0:
457,41,89819,2,0,P|467:89|460:127,1,80
436,194,90062,2,0,P|425:244|436:280,1,80
358,333,90387,1,0,0:0:0:0:
266,303,90549,1,2,0:0:0:0:
173,329,90711,2,0,L|120:318,1,40
173,329,90873,5,2,0:0:0:0:
266,303,91117,1,0,0:0:0:0:
358,333,91360,1,0,0:0:0:0:
404,249,91522,1,0,0:0:0:0:
405,241,91603,1,0,0:0:0:0:
406,233,91684,1,0,0:0:0:0:
406,225,91765,1,0,0:0:0:0:
404,217,91846,1,2,0:0:0:0:
402,209,91927,1,0,0:0:0:0:
400,201,92008,1,0,0:0:0:0:
398,193,92090,1,0,0:0:0:0:
393,186,92171,6,0,P|372:145|376:100,1,80,4|0,0:0|0:0,0:0:0:0:
258,39,92495,2,0,L|297:52,2,40,8|0|0,0:0|0:0|0:0,0:0:0:0:
163,28,92819,1,0,0:0:0:0:
89,89,92981,1,0,0:0:0:0:
80,185,93144,2,0,L|73:228,3,40,8|0|0|0,0:0|0:0|0:0|0:0,0:0:0:0:
86,270,93468,5,2,0:0:0:0:
90,276,93549,1,0,0:0:0:0:
94,282,93630,2,0,L|117:327,1,40
174,267,93792,5,8,0:0:0:0:
178,273,93873,1,0,0:0:0:0:
182,279,93954,2,0,L|205:324,1,40
261,262,94117,5,2,0:0:0:0:
265,268,94198,1,0,0:0:0:0:
269,274,94279,2,0,L|292:319,1,40
365,323,94441,6,0,P|406:308|433:270,1,80,8|0,0:0|0:0,0:0:0:0:
441,234,94684,1,0,0:0:0:0:
438,186,94765,2,0,L|427:97,1,80,2|0,0:0|0:0,0:0:0:0:
353,78,95008,2,0,L|354:172,1,80
311,226,95252,2,0,P|271:241|231:235,1,80
155,179,95576,6,0,L|113:164,2,40,0|0|8,0:0|0:0|0:0,0:0:0:0:
145,83,95900,1,0,0:0:0:0:
126,67,95981,1,0,0:0:0:0:
103,57,96062,2,0,P|56:60|23:80,1,80,2|0,0:0|0:0,0:0:0:0:
2,168,96387,2,0,P|49:165|82:145,1,80,8|0,0:0|0:0,0:0:0:0:
155,179,96711,5,2,0:0:0:0:
177,170,96792,1,0,0:0:0:0:
196,155,96873,1,0,0:0:0:0:
212,137,96954,1,0,0:0:0:0:
225,117,97035,1,8,0:0:0:0:
239,97,97117,1,0,0:0:0:0:
259,84,97198,1,0,0:0:0:0:
279,71,97279,1,0,0:0:0:0:
302,72,97360,6,0,P|338:87|364:118,1,80,6|0,0:0|0:0,0:0:0:0:
412,182,97603,2,0,L|422:262,1,80
352,338,97846,2,0,L|342:258,1,80,2|0,0:0|0:0,0:0:0:0:
206,172,98171,2,0,L|211:211,1,40
184,287,98333,2,0,L|145:292,1,40
72,257,98495,2,0,L|67:218,1,40
68,137,98657,6,0,P|125:109|141:83,1,80,6|0,0:0|0:0,0:0:0:0:
213,92,98900,2,0,L|299:79,1,80
327,152,99144,2,0,L|406:140,1,80,2|0,0:0|0:0,0:0:0:0:
444,43,99468,2,0,L|394:51,1,40
326,68,99630,2,0,L|334:117,1,40
406,140,99792,2,0,L|455:131,1,40
455,212,99954,6,0,L|461:306,1,80,6|0,0:0|0:0,0:0:0:0:
385,358,100198,2,0,L|380:279,1,80
301,263,100441,2,0,P|256:279|208:272,1,80,2|0,0:0|0:0,0:0:0:0:
132,199,100765,2,0,L|91:181,1,40
187,260,100927,2,0,L|224:277,1,40
109,282,101090,2,0,L|92:318,1,40
132,199,101252,6,0,L|166:111,1,80,6|0,0:0|0:0,0:0:0:0:
108,49,101495,2,0,L|80:124,1,80
92,202,101738,2,0,P|141:200|183:215,1,80,2|0,0:0|0:0,0:0:0:0:
317,270,102062,1,0,0:0:0:0:
408,299,102225,2,0,L|426:253,3,40,2|0|0|0,0:0|0:0|0:0|0:0,0:0:0:0:
437,216,102549,6,0,P|381:162|386:75,1,160,4|8,0:0|0:0,0:0:0:0:
464,35,103035,1,0,0:0:0:0:
475,82,103117,1,0,0:0:0:0:
459,127,103198,2,0,P|386:158|307:158,1,160,2|8,0:0|0:0,0:0:0:0:
224,110,103684,1,0,0:0:0:0:
186,21,103846,1,2,0:0:0:0:
381,84,104008,5,0,0:0:0:0:
420,173,104171,1,8,0:0:0:0:
428,353,104333,1,0,0:0:0:0:
389,264,104496,1,2,0:0:0:0:
367,274,104576,1,0,0:0:0:0:
343,280,104657,1,0,0:0:0:0:
319,280,104738,1,0,0:0:0:0:
295,274,104819,1,8,0:0:0:0:
273,263,104900,1,0,0:0:0:0:
252,251,104981,1,0,0:0:0:0:
231,238,105062,1,0,0:0:0:0:
206,230,105144,6,0,P|168:231|125:251,1,80,4|0,0:0|0:0,0:0:0:0:
146,327,105387,2,0,P|184:326|227:306,1,80,4|0,0:0|0:0,0:0:0:0:
308,190,105630,2,0,L|313:138,2,40
146,327,105954,1,0,0:0:0:0:
49,225,106117,1,10,0:0:0:0:
47,217,106198,1,0,0:0:0:0:
45,209,106279,1,0,0:0:0:0:
44,201,106360,1,0,0:0:0:0:
42,193,106441,2,0,L|49:141,3,40,2|0|0|0,0:0|0:0|0:0|0:0,0:0:0:0:
62,108,106765,2,0,L|87:61,3,40,8|0|0|0,0:0|0:0|0:0|0:0,0:0:0:0:
112,36,107089,2,0,L|140:12,6,20.9999993591309,2|0|0|0|0|0|0,3:0|0:0|0:0|0:0|0:0|0:0|0:0,0:0:0:0:
160,120,107414,2,0,L|182:155,1,41.9999987182618,2|2,0:0|0:0,0:0:0:0:
119,201,107576,2,0,L|141:236,1,41.9999987182618,6|2,0:1|0:0,0:0:0:0:
197,295,107738,6,0,P|248:305|308:280,1,90.9999958343508,6|0,0:0|0:0,0:0:0:0:
324,239,107981,2,0,L|318:375,1,136.499993751526,2|2,0:0|0:0,0:0:0:0:
453,352,108387,2,0,P|479:324|445:220,2,136.499993751526,4|2|2,3:0|0:0|0:0,0:0:0:0:
305,323,109035,6,0,L|301:197,1,90.9999958343508,4|0,3:0|0:0,0:0:0:0:
363,200,109279,2,0,P|296:212|212:171,1,136.499993751526,2|2,0:0|0:0,0:0:0:0:
125,110,109684,2,0,B|79:73|79:73|53:-4,2,136.499993751526,4|2|2,3:0|0:0|0:0,0:0:0:0:
256,195,110333,6,0,P|316:211|406:148,1,136.499993751526,6|2,0:0|0:0,0:0:0:0:
408,162,110657,1,4,0:3:0:0:
330,75,110819,1,2,0:0:0:0:
256,195,110981,2,0,L|253:343,2,136.499993751526,4|2|2,3:0|0:0|0:0,0:0:0:0:
185,65,111630,6,0,P|134:57|66:126,2,136.499993751526,6|2|2,0:0|0:0|0:0,0:0:0:0:
333,294,112441,1,2,0:0:0:0:
333,294,112603,2,0,L|338:171,1,90.9999958343508,4|2,3:0|0:0,0:0:0:0:
394,65,112927,6,0,L|487:61,1,90.9999958343508,6|0,0:0|0:0,0:0:0:0:
484,107,113171,2,0,P|510:157|444:229,1,136.499993751526,2|2,0:0|0:0,0:0:0:0:
336,203,113576,2,0,P|264:206|178:202,2,136.499993751526,4|2|2,3:0|0:0|0:0,0:0:0:0:
479,134,114225,6,0,P|488:82|468:35,1,90.9999958343508,6|0,0:0|0:0,0:0:0:0:
411,25,114468,1,2,0:0:0:0:
411,25,114549,2,0,L|285:20,1,90.9999958343508,4|2,0:3|0:0,0:0:0:0:
142,231,115035,1,2,0:0:0:0:
142,231,115117,1,0,0:0:0:0:
142,231,115198,2,0,P|176:241|297:205,1,136.499993751526,4|0,3:0|0:0,0:0:0:0:
302,161,115522,6,0,L|289:363,1,181.999991668702,6|4,0:0|0:3,0:0:0:0:
156,366,116008,1,2,0:0:0:0:
156,366,116090,1,2,0:0:0:0:
156,366,116171,2,0,P|89:375|6:286,2,181.999991668702,4|4|6,3:0|3:0|0:0,0:0:0:0:
252,270,116981,6,0,P|267:256|278:238,4,22.7499989585877,4|0|0|0|4,0:3|0:0|0:3|0:0|3:0,0:0:0:0:
178,154,117306,2,0,P|185:134|188:114,4,22.7499989585877,4|0|2|0|4,3:0|0:0|0:0|0:0|3:0,0:0:0:0:
53,95,117630,1,4,3:0:0:0:
53,95,117711,1,2,0:0:0:0:
53,95,117792,1,4,3:0:0:0:
18,202,117954,1,4,3:0:0:0:
18,202,118035,1,2,0:0:0:0:
18,202,118117,6,0,L|23:327,1,90.9999958343508,6|0,0:0|0:0,0:0:0:0:
61,348,118360,2,0,P|127:369|209:333,1,136.499993751526,2|2,0:0|0:0,0:0:0:0:
260,233,118765,2,0,P|261:146|257:74,2,136.499993751526,4|2|2,3:0|0:0|0:0,0:0:0:0:
348,344,119414,6,0,P|408:361|457:337,1,90.9999958343508,4|0,3:0|0:0,0:0:0:0:
497,376,119657,2,0,L|501:230,1,136.499993751526,2|2,0:0|0:0,0:0:0:0:
432,121,120062,2,0,P|376:93|300:134,2,136.499993751526,4|2|2,3:0|0:0|0:0,0:0:0:0:
417,284,120711,6,0,P|341:290|259:285,1,136.499993751526,6|2,0:0|0:0,0:0:0:0:
148,200,121198,1,2,0:0:0:0:
148,200,121360,2,0,P|130:151|174:71,1,136.499993751526,4|2,3:0|0:0,0:0:0:0:
321,38,121846,1,2,0:0:0:0:
321,38,122008,6,0,L|317:182,2,136.499993751526,6|2|2,0:0|0:0|0:0,0:0:0:0:
61,125,122819,1,2,0:0:0:0:
61,125,122900,1,0,0:0:0:0:
61,125,122981,2,0,P|58:178|59:228,1,90.9999958343508,4|0,3:0|0:0,0:0:0:0:
186,336,123306,6,0,B|219:329|255:340|255:340|297:318|297:318|313:352|356:351|356:351|396:326|445:335,2,272.999987503052,6|4|2,0:0|3:0|3:0,0:0:0:0:
81,246,124441,1,0,0:0:0:0:
81,246,124522,1,0,0:0:0:0:
81,246,124603,6,0,P|79:153|85:36,1,181.999991668702,4|4,0:0|3:0,0:0:0:0:
353,22,125252,2,0,P|356:112|354:203,1,181.999991668702,4|4,3:0|3:0,0:0:0:0:
278,317,125738,1,0,0:0:0:0:
278,317,125819,1,0,0:0:0:0:
278,317,125900,6,0,B|225:343|225:343|75:324,1,181.999991668702,6|4,0:0|0:3,0:0:0:0:
36,207,126387,1,4,3:0:0:0:
36,207,126468,1,0,0:0:0:0:
36,207,126549,2,0,P|23:135|101:55,1,181.999991668702,4|4,3:0|3:0,0:0:0:0:
226,60,127035,1,4,0:3:0:0:
226,60,127116,1,4,0:3:0:0:
226,60,127198,5,6,0:0:0:0:
287,181,127360,2,0,L|306:213,4,22.7499989585877,2|0|2|0|4,0:3|0:0|0:3|0:0|3:3,0:0:0:0:
219,299,127684,2,0,L|200:331,4,22.7499989585877,2|0|2|0|4,0:3|0:0|0:3|0:0|3:0,0:0:0:0:
350,335,128008,1,4,0:3:0:0:
350,335,128090,1,6,0:3:0:0:
350,335,128171,2,0,L|369:367,6,22.7499989585877,4|0|0|0|2|0|0,3:0|0:0|0:0|0:0|1:2|0:0|0:0,0:0:0:0:
402,276,128495,1,12,0:0:0:0:
