osu file format v14

[General]
AudioFilename: Thank you! (1).mp3
AudioLeadIn: 0
PreviewTime: 86981
Countdown: 0
SampleSet: Soft
StackLeniency: 0.7
Mode: 0
LetterboxInBreaks: 1
WidescreenStoryboard: 0

[Editor]
Bookmarks: 20819,86981
DistanceSpacing: 1
BeatDivisor: 4
GridSize: 4
TimelineZoom: 3.399999

[Metadata]
Title:Thank you!
TitleUnicode:Thank you!
Artist:SakiZ
ArtistUnicode:SakiZ
Creator:VGogetto
Version:Four Heaven
Source:
Tags:akasha atsuro jemmmmy Side Nerova Riuz GX FCL 100sec records deathstream Stream Energy Limitless Space World M3 27 2011 Urushi38 Minakami Yuki mtbbsben urushi38 evil twilight sakiz happy stick the poon Wub Woof Wolf
BeatmapID:1330821
BeatmapSetID:630405

[Difficulty]
HPDrainRate:7
CircleSize:4.2
OverallDifficulty:9
ApproachRate:9.5
SliderMultiplier:1.8
SliderTickRate:1

[Events]
//Background and Video events
0,0,"maxresdefault.jpg",0,0
Video,0,"Thank you!.avi"
//Break Periods
//Storyboard Layer 0 (Background)
//Storyboard Layer 1 (Fail)
//Storyboard Layer 2 (Pass)
//Storyboard Layer 3 (Foreground)
//Storyboard Sound Samples

[TimingPoints]
1360,324.324324324324,4,2,1,50,1,0
20819,-200,4,2,1,50,0,0
20900,-200,4,2,1,20,0,0
22116,-200,4,2,1,50,0,0
22197,-200,4,2,1,20,0,0
25684,-200,4,2,1,50,0,0
26089,-200,4,2,1,20,0,0
27305,-200,4,2,1,50,0,0
28684,-200,4,2,1,20,0,0
29900,-200,4,2,1,50,0,0
29981,-200,4,2,1,20,0,0
30711,-200,4,2,1,50,0,0
31278,-200,4,2,1,20,0,0
32495,-200,4,2,1,50,0,0
32576,-200,4,2,1,20,0,0
34765,-200,4,2,1,50,0,0
35170,-200,4,2,1,20,0,0
35576,-200,4,2,1,50,0,0
36468,-200,4,2,1,20,0,0
37684,-200,4,2,1,50,0,0
37765,-200,4,2,1,20,0,0
38657,-200,4,2,1,50,0,0
39062,-200,4,2,1,20,0,0
39954,-200,4,2,1,50,0,0
40359,-200,4,2,1,20,0,0
41251,-90.9090909090909,4,2,1,60,0,0
64278,-100,4,2,1,20,0,0
64603,-100,4,2,1,55,0,0
74981,-100,4,2,1,60,0,0
75305,-100,4,2,1,65,0,0
81954,-80,4,2,1,65,0,0
82603,-66.6666666666667,4,2,1,65,0,0
83251,-80,4,2,1,65,0,0
85522,-100,4,2,1,65,0,0
85684,-100,4,2,1,70,0,0
85765,-100,4,2,1,65,0,0
85846,-100,4,2,1,60,0,0
85927,-100,4,2,1,55,0,0
86008,-100,4,2,1,65,0,0
86089,-100,4,2,1,60,0,0
86170,-100,4,2,1,55,0,0
86251,-100,4,2,1,50,0,0
86332,-100,4,2,1,60,0,0
86414,-100,4,2,1,55,0,0
86495,-100,4,2,1,50,0,0
86576,-100,4,2,1,45,0,0
86657,-100,4,2,1,65,0,0
86738,-100,4,2,1,50,0,0
86819,-100,4,2,1,65,0,0
86900,-100,4,2,1,50,0,0
86981,-90.9090909090909,4,2,1,60,0,0
104981,-100,4,2,1,50,0,0
105224,-100,4,2,1,45,0,0
105387,-100,4,2,1,70,0,0
105468,-100,4,2,1,45,0,0
105630,-100,4,2,1,70,0,0
105873,-100,4,2,1,45,0,0
106116,-100,4,2,1,70,0,0
106603,-80,4,2,1,70,0,0
106703,-80,4,2,1,60,0,0
107738,-80,4,2,1,75,0,1
117305,-80,4,2,1,65,0,1
117468,-100,4,2,1,65,0,1
117792,-100,4,2,1,75,0,1
125981,-100,4,2,1,50,0,1
126387,-100,4,2,1,70,0,1
126630,-100,4,2,1,50,0,1
126873,-100,4,2,1,70,0,1
126954,-100,4,2,1,50,0,1
127197,-100,4,2,1,75,0,1
127927,-100,4,2,1,50,0,1
128170,-100,4,2,1,75,0,1
128251,-100,4,2,1,50,0,1
128332,-100,4,2,1,75,0,1
128414,-100,4,2,1,50,0,1
128495,-100,4,2,1,65,0,0

[HitObjects]
94,295,20495,5,2,0:0:0:0:
94,295,20576,1,0,0:0:0:0:
94,295,20657,1,0,0:0:0:0:
94,295,20738,1,0,0:0:0:0:
94,295,20819,2,0,P|154:265|50:243,1,270,4|0,3:3|0:0,0:0:0:0:
196,341,22117,6,0,B|247:324|299:339|299:339|342:353|411:334|411:334|369:299|375:243|406:214|406:214|378:215|342:211|321:189|313:152|336:120|353:114|367:107|385:101|418:112|435:142|435:142|401:73|474:18,1,720,2|0,0:1|0:0,0:0:0:0:
272,151,25684,2,0,L|279:207,1,45,2|0,0:0|0:0,0:0:0:0:
239,286,26008,6,0,B|178:273|131:289|131:289|84:307|35:293|22:240|29:174|102:176|124:185|142:215,1,360,2|2,0:0|0:1,0:0:0:0:
404,297,28279,2,0,L|411:241,1,45,2|0,0:0|0:0,0:0:0:0:
361,162,28603,6,0,P|340:197|334:107,1,270,2|0,0:0|0:0,0:0:0:0:
441,174,29900,2,0,P|384:262|269:278,1,225,2|0,0:1|0:0,0:0:0:0:
219,219,30873,2,0,L|220:159,1,45,2|0,0:0|0:0,0:0:0:0:
147,89,31198,6,0,P|136:132|86:40,1,270,2|0,0:0|0:0,0:0:0:0:
222,150,32495,6,0,B|276:166|328:149|328:149|390:125|448:148|448:148|402:158|371:203|373:244|408:279|456:305|523:272|526:224|507:175,1,540,2|0,0:1|0:0,0:0:0:0:
301,298,34765,2,0,L|241:298,1,45,2|0,0:0|0:0,0:0:0:0:
183,215,35090,6,0,P|226:214|287:141,1,135,2|0,0:0|0:0,0:0:0:0:
232,83,35738,2,0,L|176:88,1,45,2|0,0:0|0:0,0:0:0:0:
316,260,36062,1,2,0:0:0:0:
347,259,36143,1,0,0:0:0:0:
379,259,36224,1,0,0:0:0:0:
411,258,36305,1,0,0:0:0:0:
443,257,36387,6,0,B|424:233|418:206|428:179|451:164|451:164|419:170|393:164|374:150|374:150|356:138|328:134|294:148,1,270,2|0,0:0|0:0,0:0:0:0:
154,179,37684,2,0,P|184:180|138:109,1,180,2|0,0:1|0:0,0:0:0:0:
67,238,38657,2,0,L|69:285,1,45,2|0,0:0|0:0,0:0:0:0:
168,300,38981,6,0,P|187:277|317:300,1,180,2|0,0:0|0:0,0:0:0:0:
244,180,39954,1,0,0:0:0:0:
315,54,40279,6,0,P|295:77|165:54,1,180,2|0,0:1|0:0,0:0:0:0:
361,295,41251,5,2,0:2:0:0:
351,271,41332,1,2,0:2:0:0:
349,246,41413,1,2,0:2:0:0:
352,221,41494,1,2,0:2:0:0:
362,198,41575,1,4,0:0:0:0:
496,152,41737,1,2,0:2:0:0:
480,120,41818,1,2,0:2:0:0:
456,96,41899,1,2,0:2:0:0:
424,81,41980,1,2,0:2:0:0:
389,76,42061,6,0,L|265:72,1,100,2|0,0:2|3:0,0:0:0:0:
96,64,42386,1,2,0:3:0:0:
184,112,42548,1,2,0:2:0:0:
204,128,42629,1,2,0:2:0:0:
220,148,42710,1,2,0:2:0:0:
232,172,42791,1,2,0:2:0:0:
236,196,42872,5,2,0:3:0:0:
239,235,42953,1,2,0:2:0:0:
226,272,43034,1,8,0:2:0:0:
200,303,43116,1,2,0:2:0:0:
164,320,43197,1,8,0:2:0:0:
124,322,43278,1,2,0:2:0:0:
86,307,43359,1,2,0:3:0:0:
57,278,43440,1,2,0:2:0:0:
44,238,43521,2,0,L|8:244,2,33.3333333333333,2|0|0,0:2|0:2|0:2,0:0:0:0:
140,224,43683,1,2,0:2:0:0:
252,292,43845,6,0,L|326:326,1,66.6666666666667,2|2,0:3|0:2,0:0:0:0:
356,313,44007,1,2,0:2:0:0:
416,168,44170,1,2,0:3:0:0:
512,172,44332,2,0,P|483:237|460:256,1,100,2|2,0:2|0:2,0:0:0:0:
308,92,44656,1,2,0:2:0:0:
308,92,44737,1,2,0:2:0:0:
308,92,44818,6,0,L|240:68,1,50,2|2,0:2|0:2,0:0:0:0:
156,128,44980,2,0,L|188:168,1,50,2|2,0:3|0:2,0:0:0:0:
104,280,45143,2,0,L|90:209,1,50,2|2,0:2|0:2,0:0:0:0:
12,164,45305,2,0,L|-2:93,1,50,2|2,0:2|0:2,0:0:0:0:
44,16,45467,5,2,0:3:0:0:
156,128,45629,1,8,0:0:0:0:
244,16,45791,1,8,0:0:0:0:
308,176,45953,2,0,P|312:240|292:280,1,100,2|0,0:3|0:2,0:0:0:0:
268,300,46197,1,0,0:2:0:0:
268,300,46278,1,2,0:3:0:0:
156,188,46440,1,0,0:0:0:0:
156,188,46521,1,0,0:0:0:0:
156,188,46602,1,2,0:3:0:0:
84,332,46764,5,4,0:0:0:0:
28,132,46926,2,0,P|40:72|72:28,1,100,2|0,0:2|0:0,0:0:0:0:
451,39,47251,2,0,P|476:82|484:132,1,100,2|0,0:2|0:0,0:0:0:0:
356,116,47575,5,2,0:3:0:0:
340,124,47656,1,2,0:2:0:0:
328,140,47737,1,2,0:2:0:0:
320,160,47818,1,2,0:2:0:0:
320,180,47899,1,2,0:2:0:0:
328,200,47980,1,2,0:2:0:0:
340,216,48061,1,2,0:3:0:0:
356,228,48143,1,2,0:2:0:0:
376,232,48224,2,0,L|412:204,2,33.3333333333333,8|0|0,0:0|0:2|0:2,0:0:0:0:
300,292,48386,5,8,0:0:0:0:
268,316,48467,1,2,0:2:0:0:
252,352,48548,1,2,0:3:0:0:
220,328,48629,1,2,0:2:0:0:
180,320,48710,1,2,0:2:0:0:
140,324,48791,1,2,0:2:0:0:
104,340,48872,1,2,0:2:0:0:
64,340,48953,1,2,0:2:0:0:
32,320,49034,1,2,0:3:0:0:
16,284,49116,1,2,0:2:0:0:
20,244,49197,1,10,0:2:0:0:
44,212,49278,1,2,0:2:0:0:
80,192,49359,5,4,0:0:0:0:
116,176,49440,1,2,0:2:0:0:
144,148,49521,2,0,L|164:96,2,33.3333333333333,2|0|0,0:2|0:2|0:2,0:0:0:0:
204,216,49683,5,2,0:2:0:0:
236,240,49764,1,2,0:2:0:0:
260,272,49845,2,0,L|284:356,1,50,2|0,0:2|0:2,0:0:0:0:
304,144,50007,5,2,0:2:0:0:
336,116,50089,1,2,0:2:0:0:
348,80,50170,2,0,L|360:24,2,33.3333333333333,2|0|0,0:3|0:0|0:0,0:0:0:0:
408,192,50332,5,2,0:2:0:0:
432,224,50413,1,2,0:2:0:0:
460,252,50494,2,0,L|468:316,2,33.3333333333333,2|0|0,0:2|0:0|0:0,0:0:0:0:
392,152,50656,5,2,0:3:0:0:
355,186,50737,1,2,0:2:0:0:
305,195,50818,1,2,0:2:0:0:
255,189,50899,1,2,0:2:0:0:
215,158,50980,1,2,0:2:0:0:
173,185,51061,1,2,0:2:0:0:
152,231,51143,1,2,0:3:0:0:
159,280,51224,1,2,0:2:0:0:
192,317,51305,1,2,0:2:0:0:
240,328,51386,1,2,0:2:0:0:
288,316,51467,2,0,P|307:299|324:280,2,33.3333333333333,2|0|0,0:3|0:0|0:0,0:0:0:0:
184,372,51629,5,2,0:2:0:0:
136,364,51710,1,2,0:2:0:0:
92,344,51791,1,2,0:3:0:0:
52,312,51872,1,2,0:3:0:0:
32,268,51953,5,4,0:0:0:0:
24,116,52116,2,0,L|48:64,1,50,2|2,0:2|0:2,0:0:0:0:
169,51,52278,2,0,L|148:96,1,50,2|2,0:2|0:2,0:0:0:0:
136,194,52440,2,0,P|192:194|248:222,1,100,2|0,0:2|0:0,0:0:0:0:
452,369,52764,1,2,0:3:0:0:
427,260,52926,6,0,L|416:212,1,50,2|2,0:2|0:2,0:0:0:0:
458,137,53089,2,0,L|447:89,1,50,2|2,0:2|0:2,0:0:0:0:
352,48,53251,1,2,0:3:0:0:
312,40,53332,1,2,0:2:0:0:
276,56,53413,1,8,0:0:0:0:
252,88,53494,1,2,0:2:0:0:
240,124,53575,1,8,0:0:0:0:
208,148,53656,1,2,0:2:0:0:
168,156,53737,1,2,0:3:0:0:
136,136,53818,1,2,0:2:0:0:
116,100,53899,6,0,L|108:60,2,33.3333333333333,2|0|0,0:2|0:0|0:0,0:0:0:0:
16,116,54061,2,0,P|20:168|52:236,1,100,2|2,0:2|0:3,0:0:0:0:
100,282,54332,1,2,0:2:0:0:
100,282,54386,1,2,0:2:0:0:
48,364,54548,1,2,0:3:0:0:
144,372,54710,6,0,L|252:384,1,100,2|0,0:2|0:0,0:0:0:0:
364,380,55034,2,0,L|332:336,1,50,2|2,0:2|0:2,0:0:0:0:
260,216,55197,6,0,L|232:176,2,33.3333333333333,2|0|0,0:2|0:0|0:0,0:0:0:0:
356,180,55359,2,0,L|375:207,2,33.3333333333333,2|0|0,0:3|0:0|0:0,0:0:0:0:
272,100,55521,6,0,P|292:68|320:48,1,50,2|2,0:2|0:2,0:0:0:0:
407,70,55683,2,0,P|443:61|477:67,1,50,2|2,0:2|0:2,0:0:0:0:
490,185,55845,1,2,0:3:0:0:
429,274,56007,1,8,0:0:0:0:
400,300,56089,1,2,0:0:0:0:
372,328,56170,1,8,0:0:0:0:
344,356,56251,1,2,0:0:0:0:
312,380,56332,6,0,P|248:376|204:344,1,100,2|2,0:3|0:3,0:0:0:0:
112,316,56575,1,2,0:0:0:0:
112,316,56656,2,0,P|140:268|184:244,1,100,2|2,0:3|0:3,0:0:0:0:
280,260,56899,1,2,0:0:0:0:
280,260,56980,6,0,P|272:192|244:156,1,100,2|4,0:3|0:0,0:0:0:0:
68,84,57305,2,0,L|192:84,1,100,2|0,0:2|0:0,0:0:0:0:
444,84,57629,2,0,L|320:84,1,100,2|0,0:2|0:0,0:0:0:0:
256,192,57953,6,0,L|256:256,1,50,2|0,0:3|0:0,0:0:0:0:
256,312,58116,2,0,L|256:376,1,50,2|0,0:2|0:0,0:0:0:0:
137,373,58278,6,0,P|149:345|149:317,2,33.3333333333333,2|0|0,0:2|0:0|0:0,0:0:0:0:
72,336,58440,2,0,P|48:356|36:376,1,50,2|2,0:0|0:2,0:0:0:0:
196,232,58602,2,0,P|196:196|188:176,2,33.3333333333333,8|0|0,0:2|0:0|0:0,0:0:0:0:
124,212,58764,6,0,P|87:209|62:215,1,50,8|2,0:0|0:2,0:0:0:0:
188,84,58926,2,0,P|173:51|155:31,1,50,2|2,0:3|0:2,0:0:0:0:
324,84,59089,2,0,P|339:51|357:31,1,50,2|2,0:2|0:2,0:0:0:0:
388,212,59251,2,0,P|425:209|450:215,1,50,2|2,0:0|0:2,0:0:0:0:
256,300,59413,2,0,L|256:360,1,50,2|2,0:3|0:2,0:0:0:0:
256,180,59575,2,0,L|256:228,2,33.3333333333333,2|0|0,0:2|0:0|0:0,0:0:0:0:
268,57,59737,5,4,0:0:0:0:
304,37,59818,1,2,0:2:0:0:
344,37,59899,2,0,L|348:1,2,33.3333333333333,2|0|0,0:2|0:0|0:0,0:0:0:0:
328,136,60061,5,2,0:2:0:0:
321,175,60143,1,2,0:2:0:0:
329,214,60224,1,2,0:2:0:0:
347,249,60305,1,2,0:2:0:0:
379,271,60386,1,2,0:2:0:0:
417,281,60467,1,2,0:2:0:0:
456,279,60548,6,0,L|488:263,2,33.3333333333333,2|0|0,0:3|0:0|0:0,0:0:0:0:
364,332,60710,1,2,0:2:0:0:
324,344,60791,1,2,0:2:0:0:
284,352,60872,2,0,L|264:380,2,33.3333333333333,2|0|0,0:2|0:0|0:0,0:0:0:0:
348,248,61034,5,2,0:3:0:0:
358,193,61116,1,2,0:2:0:0:
327,147,61197,1,10,0:2:0:0:
272,139,61278,1,2,0:2:0:0:
228,172,61359,1,8,0:0:0:0:
221,226,61440,1,2,0:2:0:0:
190,271,61521,1,2,0:3:0:0:
139,293,61602,1,0,0:0:0:0:
84,285,61683,1,2,0:2:0:0:
43,247,61764,1,2,0:2:0:0:
29,193,61845,1,2,0:3:0:0:
45,140,61926,1,2,0:2:0:0:
87,104,62007,6,0,L|116:71,2,33.3333333333333,2|0|0,0:3|0:0|0:0,0:0:0:0:
194,77,62170,2,0,L|227:43,2,33.3333333333333,2|0|0,0:3|0:0|0:0,0:0:0:0:
306,50,62332,1,4,0:0:0:0:
256,192,62414,12,0,64278,0:0:0:0:
446,331,64603,5,2,0:0:0:0:
447,286,64684,1,0,0:0:0:0:
448,241,64765,1,0,0:0:0:0:
450,196,64846,1,0,0:0:0:0:
451,151,64927,6,0,P|372:161|330:138,1,90,6|0,0:0|0:0,0:0:0:0:
293,60,65171,1,2,0:0:0:0:
306,54,65252,2,0,B|353:44|353:44|417:58,1,90,0|2,0:0|0:0,0:0:0:0:
223,214,65576,1,2,0:0:0:0:
126,89,65738,1,0,0:0:0:0:
126,89,65819,1,2,0:0:0:0:
126,89,65900,1,0,0:0:0:0:
70,240,66062,1,2,0:0:0:0:
302,165,66225,6,0,L|400:168,1,90,2|0,0:0|0:0,0:0:0:0:
477,114,66468,1,2,0:0:0:0:
485,130,66549,2,0,P|488:199|474:225,1,90,0|2,0:0|0:0,0:0:0:0:
353,336,66873,1,2,0:0:0:0:
320,191,67035,1,0,0:0:0:0:
320,191,67117,1,2,0:0:0:0:
320,191,67198,1,0,0:0:0:0:
169,186,67360,1,2,0:0:0:0:
401,78,67522,6,0,L|412:176,1,90,2|0,0:0|0:0,0:0:0:0:
303,291,67765,2,0,P|301:223|330:171,1,90,2|0,0:0|0:0,0:0:0:0:
411,167,68008,2,0,L|478:174,1,45,2|0,0:0|0:0,0:0:0:0:
465,324,68171,2,0,P|397:333|359:319,1,90,2|0,0:0|0:0,0:0:0:0:
220,281,68415,2,0,P|160:276|100:307,1,90,2|0,0:0|0:0,0:0:0:0:
47,334,68657,2,0,L|52:386,1,45,2|0,0:0|0:0,0:0:0:0:
67,232,68819,6,0,P|96:182|91:130,1,90,2|0,0:0|0:0,0:0:0:0:
195,65,69062,2,0,P|235:121|289:130,1,90,2|0,0:0|0:0,0:0:0:0:
428,214,69306,2,0,L|310:214,1,90,2|0,0:0|0:0,0:0:0:0:
265,301,69630,1,0,0:0:0:0:
390,128,69792,1,2,0:0:0:0:
472,322,69954,1,0,0:0:0:0:
237,214,70117,6,0,B|192:224|192:224|119:206,1,90,2|0,0:0|0:0,0:0:0:0:
182,107,70360,1,2,0:0:0:0:
200,107,70441,2,0,L|316:109,1,90,0|2,0:0|0:0,0:0:0:0:
407,184,70765,1,2,0:0:0:0:
360,305,70927,1,0,0:0:0:0:
360,305,71008,1,2,0:0:0:0:
360,305,71090,1,0,0:0:0:0:
509,262,71252,1,2,0:0:0:0:
271,230,71414,6,0,L|138:239,1,90,2|0,0:0|0:0,0:0:0:0:
23,171,71657,2,0,L|113:176,1,90,2|0,0:0|0:0,0:0:0:0:
283,102,71900,2,0,L|150:111,1,90,2|0,0:0|0:0,0:0:0:0:
108,54,72225,1,0,0:0:0:0:
260,199,72387,2,0,P|322:187|370:91,1,135,2|0,0:0|0:0,0:0:0:0:
398,35,72711,2,0,L|409:151,1,90,2|0,0:0|0:0,0:0:0:0:
428,326,73035,1,0,0:0:0:0:
436,199,73198,6,0,L|433:264,1,45,2|0,0:0|0:0,0:0:0:0:
341,334,73360,2,0,L|350:146,1,180,2|2,0:0|0:0,0:0:0:0:
430,88,73846,1,0,0:0:0:0:
272,182,74008,5,2,0:0:0:0:
148,54,74171,1,0,0:0:0:0:
148,54,74252,1,0,0:0:0:0:
148,54,74333,1,2,0:0:0:0:
48,207,74495,1,0,0:0:0:0:
61,206,74576,1,0,0:0:0:0:
74,204,74657,6,0,L|84:283,1,45,2|0,0:0|0:0,0:0:0:0:
207,351,74819,2,0,L|210:288,1,45,0|0,0:0|0:0,0:0:0:0:
228,139,74981,1,2,0:0:0:0:
269,156,75062,1,0,0:0:0:0:
313,155,75143,1,2,0:0:0:0:
354,136,75224,1,0,0:0:0:0:
384,103,75306,6,0,L|392:226,1,90,6|0,0:0|0:3,0:0:0:0:
311,299,75549,1,2,0:0:0:0:
310,287,75630,2,0,L|302:160,1,90,0|0,0:0|3:0,0:0:0:0:
296,73,75954,1,2,0:0:0:0:
190,192,76117,1,0,0:3:0:0:
190,192,76198,1,2,0:0:0:0:
190,192,76279,1,0,0:0:0:0:
79,81,76441,1,0,3:0:0:0:
2,225,76603,6,0,L|8:332,1,90,2|0,0:0|0:3,0:0:0:0:
104,361,76846,1,2,0:0:0:0:
114,365,76927,2,0,B|158:370|158:370|230:352,1,90,0|0,0:0|3:0,0:0:0:0:
279,260,77252,1,2,0:0:0:0:
87,211,77414,1,0,0:0:0:0:
87,211,77495,1,2,0:0:0:0:
87,211,77576,1,0,0:0:0:0:
307,137,77738,1,4,3:0:0:0:
58,102,77900,6,0,L|158:103,1,90,6|0,0:0|0:0,0:0:0:0:
260,188,78144,2,0,P|202:227|186:268,1,90,2|0,0:0|0:0,0:0:0:0:
244,321,78387,2,0,L|300:327,1,45,0|0,3:0|0:0,0:0:0:0:
433,261,78549,2,0,L|422:151,1,90,2|0,0:0|0:0,0:0:0:0:
307,29,78792,2,0,L|292:138,1,90,2|0,0:0|0:0,0:0:0:0:
239,183,79035,2,0,L|183:167,1,45,0|0,3:0|0:0,0:0:0:0:
294,264,79198,6,0,P|366:264|415:232,1,90,2|0,0:0|0:0,0:0:0:0:
232,329,79441,2,0,P|189:340|145:335,1,90,2|0,0:0|0:0,0:0:0:0:
52,199,79684,2,0,L|60:306,1,90,0|0,3:0|0:0,0:0:0:0:
169,189,80008,1,0,0:0:0:0:
32,88,80171,1,2,0:0:0:0:
166,266,80333,1,4,0:3:0:0:
213,50,80495,5,6,0:0:0:0:
223,57,80981,1,2,0:0:0:0:
235,63,81468,2,0,L|239:161,1,90,2|4,0:0|0:3,0:0:0:0:
240,166,81711,1,0,0:0:0:0:
241,179,81792,1,6,0:0:0:0:
374,161,81954,6,0,L|369:266,1,56.25,0|0,0:0|0:0,0:0:0:0:
362,320,82117,1,2,0:0:0:0:
194,88,82279,6,0,L|143:184,1,56.25,0|0,0:0|0:0,0:0:0:0:
97,260,82441,1,2,0:0:0:0:
263,355,82603,6,0,L|260:242,1,67.5000025749208,0|0,0:0|0:0,0:0:0:0:
260,135,82765,1,2,0:0:0:0:
31,80,82927,6,0,L|109:76,1,67.5000025749208,4|0,0:3|0:0,0:0:0:0:
307,56,83090,1,6,0:0:0:0:
463,164,83252,6,0,P|399:178|331:156,1,112.5,8|0,0:3|0:0,0:0:0:0:
196,62,83576,1,4,0:3:0:0:
195,78,83657,1,0,0:0:0:0:
194,94,83738,1,2,0:0:0:0:
93,289,83900,2,0,L|102:176,1,112.5,8|2,0:3|0:0,0:0:0:0:
264,318,84225,2,0,L|228:318,4,28.125,4|0|0|0|4,0:3|0:0|0:0|0:0|0:3,0:0:0:0:
385,83,84549,5,8,0:3:0:0:
385,83,84630,1,4,0:3:0:0:
427,344,84792,1,8,0:3:0:0:
427,344,84873,1,4,0:3:0:0:
239,157,85035,1,8,0:3:0:0:
239,157,85116,1,4,0:3:0:0:
500,198,85279,1,4,0:3:0:0:
500,198,85360,1,8,0:3:0:0:
139,75,85522,1,2,0:2:0:0:
130,94,85603,1,2,0:2:0:0:
121,113,85684,5,2,0:2:0:0:
112,132,85765,1,2,0:2:0:0:
103,149,85846,1,2,0:2:0:0:
94,168,85927,1,2,0:2:0:0:
85,186,86008,1,2,0:2:0:0:
76,204,86090,1,2,0:2:0:0:
66,222,86171,1,2,0:2:0:0:
58,241,86252,1,2,0:2:0:0:
48,259,86333,1,2,0:2:0:0:
40,277,86414,1,2,0:2:0:0:
30,296,86495,1,2,0:2:0:0:
22,314,86576,1,2,0:2:0:0:
12,332,86657,5,2,0:3:0:0:
58,316,86738,1,2,0:3:0:0:
108,313,86819,1,2,0:3:0:0:
157,325,86900,1,2,0:3:0:0:
200,348,86981,6,0,P|256:368|312:360,1,100,6|0,0:0|0:0,0:0:0:0:
400,340,87225,1,2,0:3:0:0:
400,340,87306,2,0,L|460:312,1,50,2|0,0:3|0:0,0:0:0:0:
311,245,87468,2,0,L|265:266,1,50,2|0,0:3|0:0,0:0:0:0:
436,200,87630,1,8,0:3:0:0:
464,172,87711,1,2,0:2:0:0:
476,132,87792,1,2,0:2:0:0:
472,92,87873,1,2,0:2:0:0:
452,56,87954,1,8,0:3:0:0:
420,32,88035,1,2,0:2:0:0:
380,24,88117,1,2,0:2:0:0:
340,28,88198,1,2,0:2:0:0:
308,52,88279,6,0,P|264:78|208:80,1,100,2|0,0:3|0:0,0:0:0:0:
76,36,88522,2,0,P|128:72|144:116,1,100,2|0,0:3|0:0,0:0:0:0:
144,196,88765,1,10,0:3:0:0:
8,353,88927,2,0,P|24:296|76:253,1,100,2|0,0:3|0:0,0:0:0:0:
108,344,89171,1,2,0:2:0:0:
156,348,89252,5,8,3:0:0:0:
204,336,89333,1,2,0:2:0:0:
244,308,89414,1,2,0:2:0:0:
264,264,89495,1,2,0:2:0:0:
264,216,89576,6,0,P|244:160|204:132,1,100,2|0,0:3|0:0,0:0:0:0:
100,112,89819,1,2,0:3:0:0:
100,112,89900,2,0,L|48:112,1,50,2|0,0:3|0:0,0:0:0:0:
224,44,90062,2,0,L|274:44,1,50,2|0,0:3|0:0,0:0:0:0:
348,104,90225,1,8,0:3:0:0:
388,108,90306,1,2,0:2:0:0:
420,136,90387,1,2,0:2:0:0:
432,176,90468,1,2,0:2:0:0:
420,216,90549,1,8,0:3:0:0:
388,240,90630,1,2,0:2:0:0:
364,272,90711,1,2,0:2:0:0:
368,316,90792,1,2,0:2:0:0:
388,348,90873,6,0,L|488:324,1,100,2|2,0:3|0:0,0:0:0:0:
288,292,91116,2,0,L|184:344,1,100,2|2,0:3|0:0,0:0:0:0:
96,372,91360,2,0,L|56:312,1,50,2|0,0:3|0:0,0:0:0:0:
12,240,91522,5,10,0:3:0:0:
4,192,91603,1,2,0:2:0:0:
8,144,91684,1,2,0:2:0:0:
24,96,91765,1,2,0:2:0:0:
56,56,91846,2,0,P|84:24|104:8,1,50,10|0,0:3|0:0,0:0:0:0:
221,51,92008,2,0,P|193:83|173:99,1,50,2|0,0:3|0:0,0:0:0:0:
136,176,92170,6,0,P|164:232|200:264,1,100,6|0,0:3|0:0,0:0:0:0:
288,304,92414,1,2,0:0:0:0:
288,304,92495,2,0,L|360:328,1,50,2|0,0:3|0:0,0:0:0:0:
424,264,92657,2,0,L|457:331,1,50,2|0,0:3|0:0,0:0:0:0:
496,152,92819,1,8,0:3:0:0:
484,132,92900,1,2,0:2:0:0:
476,108,92981,1,2,0:2:0:0:
472,84,93062,1,2,0:2:0:0:
472,60,93144,5,10,0:3:0:0:
432,88,93225,1,2,0:3:0:0:
380,96,93306,1,2,0:3:0:0:
332,92,93387,1,2,0:3:0:0:
288,68,93468,6,0,L|240:24,2,50,8|0|0,0:3|0:0|0:0,0:0:0:0:
184,124,93711,1,2,0:0:0:0:
184,124,93792,2,0,L|136:80,2,50,8|0|0,0:3|0:0|0:0,0:0:0:0:
84,180,94035,1,2,0:0:0:0:
84,180,94116,2,0,L|36:136,2,50,8|0|0,0:3|0:0|0:0,0:0:0:0:
180,228,94360,1,2,0:0:0:0:
180,228,94441,5,8,0:3:0:0:
276,288,94603,1,2,0:2:0:0:
304,328,94684,1,2,0:2:0:0:
332,368,94765,2,0,L|282:364,1,50,4|0,0:3|0:0,0:0:0:0:
384,268,94927,1,0,0:2:0:0:
412,228,95008,2,0,L|472:232,1,50,2|0,0:3|0:0,0:0:0:0:
480,112,95171,1,2,0:0:0:0:
452,72,95252,2,0,L|402:68,1,50,2|0,0:3|0:0,0:0:0:0:
296,144,95414,5,8,0:3:0:0:
280,180,95495,1,2,0:2:0:0:
252,208,95576,1,2,0:2:0:0:
216,228,95657,1,2,0:2:0:0:
176,236,95738,1,8,0:3:0:0:
136,232,95819,1,2,0:2:0:0:
100,212,95900,1,2,0:2:0:0:
72,184,95981,1,2,0:2:0:0:
56,148,96062,6,0,L|54:77,1,50,2|0,0:0|0:0,0:0:0:0:
150,68,96225,2,0,L|157:18,1,50,2|0,0:0|0:0,0:3:0:0:
272,65,96387,2,0,L|287:17,1,50,2|0,0:0|0:0,0:0:0:0:
216,228,96549,2,0,L|222:264,1,25,4|4,0:3|0:3,0:0:0:0:
241,235,96630,2,0,L|247:271,1,25,4|4,0:3|0:3,0:0:0:0:
269,246,96711,6,0,L|282:295,1,50,2|0,0:0|0:0,0:0:0:0:
356,158,96873,2,0,L|369:207,1,50,2|0,0:0|0:0,0:0:0:0:
383,28,97035,1,2,0:0:0:0:
410,42,97117,1,2,0:0:0:0:
433,61,97198,2,0,L|454:32,1,25,4|4,0:3|0:3,0:0:0:0:
453,84,97279,2,0,L|482:58,1,25,4|4,0:3|0:3,0:0:0:0:
467,110,97360,6,0,P|488:169|485:220,1,100,6|0,0:3|0:0,0:0:0:0:
324,244,97603,2,0,P|348:312|376:340,1,100,2|0,0:3|0:0,0:0:0:0:
480,376,97846,2,0,L|412:352,1,50,2|0,0:3|0:0,0:0:0:0:
252,304,98008,1,8,0:3:0:0:
213,297,98090,1,2,0:2:0:0:
172,304,98171,1,2,0:2:0:0:
136,320,98252,1,2,0:2:0:0:
104,340,98333,1,8,0:3:0:0:
64,344,98414,1,2,0:2:0:0:
28,328,98495,1,2,0:2:0:0:
8,292,98576,1,2,0:2:0:0:
8,252,98657,6,0,L|32:141,1,100,2|0,0:3|0:0,0:0:0:0:
132,28,98900,2,0,L|107:138,1,100,2|0,0:3|0:0,0:0:0:0:
168,224,99144,2,0,L|152:292,1,50,2|0,0:3|0:0,0:0:0:0:
200,380,99306,1,8,0:3:0:0:
248,360,99387,1,2,0:2:0:0:
284,324,99468,1,2,0:2:0:0:
304,280,99549,1,2,0:2:0:0:
312,232,99630,2,0,L|308:152,1,50,10|0,0:3|0:0,0:0:0:0:
456,316,99792,2,0,L|458:365,1,50,2|0,0:0|0:0,0:0:0:0:
424,160,99954,6,0,P|396:100|368:76,1,100,2|0,0:3|0:0,0:0:0:0:
264,28,100197,2,0,P|229:63|211:109,1,100,2|0,0:3|0:0,0:0:0:0:
236,224,100441,2,0,L|296:216,1,50,2|0,0:3|0:0,0:0:0:0:
392,180,100603,1,8,0:3:0:0:
424,159,100684,1,2,0:2:0:0:
446,126,100765,1,2,0:2:0:0:
450,86,100846,1,2,0:2:0:0:
431,50,100927,1,8,0:3:0:0:
397,70,101008,1,2,0:2:0:0:
376,104,101090,1,2,0:2:0:0:
374,143,101171,1,2,0:2:0:0:
392,180,101252,6,0,L|451:280,1,100,2|0,0:3|0:0,0:0:0:0:
304,268,101495,2,0,P|236:284|188:328,1,100,2|0,0:3|0:0,0:0:0:0:
372,364,101738,1,2,0:3:0:0:
160,372,101900,1,8,0:3:0:0:
76,200,102062,6,0,L|40:136,1,50,2|0,0:2|0:2,0:0:0:0:
112,28,102225,2,0,L|155:53,1,50,8|2,0:3|0:2,0:0:0:0:
248,188,102387,2,0,L|273:144,1,50,8|8,0:3|0:0,0:0:0:0:
336,52,102549,1,4,0:3:0:0:
368,28,102630,1,2,0:2:0:0:
408,24,102711,1,2,0:2:0:0:
444,44,102792,1,2,0:2:0:0:
464,80,102873,1,8,0:3:0:0:
456,120,102954,1,2,0:2:0:0:
432,152,103035,2,0,L|392:184,1,50,2|2,0:2|0:2,0:0:0:0:
260,276,103198,5,8,0:3:0:0:
252,316,103279,1,2,0:2:0:0:
268,352,103360,1,2,0:2:0:0:
304,372,103441,1,2,0:2:0:0:
344,368,103522,1,8,0:3:0:0:
376,344,103603,1,2,0:2:0:0:
388,304,103684,1,10,0:2:0:0:
376,268,103765,1,2,0:2:0:0:
348,240,103846,6,0,L|292:196,1,50,12|0,0:3|0:0,0:0:0:0:
216,288,104008,2,0,L|255:318,1,50,2|0,0:2|0:0,0:0:0:0:
204,176,104171,2,0,L|148:132,1,50,8|0,0:3|0:0,0:0:0:0:
72,224,104333,2,0,L|111:254,1,50,2|0,0:2|0:0,0:0:0:0:
64,112,104495,6,0,L|8:68,3,49.5000015106202,8|0|0|0,0:3|0:0|0:0|0:0,0:0:0:0:
96,304,104819,2,0,L|172:308,1,50,8|0,0:3|0:0,0:0:0:0:
352,347,104981,6,0,L|356:285,1,45,2|2,0:0|0:0,0:0:0:0:
367,98,105144,1,6,0:0:0:0:
321,68,105225,1,4,0:3:0:0:
270,53,105306,1,4,0:3:0:0:
216,53,105387,1,4,0:3:0:0:
164,68,105468,1,4,3:0:0:0:
119,97,105549,1,4,0:3:0:0:
83,138,105630,1,4,3:0:0:0:
61,187,105711,1,4,3:0:0:0:
53,240,105792,5,4,3:0:0:0:
102,261,105873,1,4,0:3:0:0:
156,269,105954,1,4,0:3:0:0:
209,261,106035,1,4,0:3:0:0:
260,242,106116,1,4,3:0:0:0:
310,223,106197,1,4,3:0:0:0:
363,216,106278,1,4,3:0:0:0:
417,221,106359,1,4,3:0:0:0:
468,238,106440,5,6,0:0:0:0:
356,353,106603,2,0,L|306:350,3,37.5,2|0|0|4,3:0|0:0|0:0|3:0,0:0:0:0:
161,62,106927,2,0,L|221:56,2,37.5,2|0|0,3:0|0:0|0:0,0:0:0:0:
119,80,107090,5,4,3:0:0:0:
78,115,107171,1,2,0:0:0:0:
62,166,107252,1,2,0:0:0:0:
75,221,107333,1,2,0:0:0:0:
116,262,107414,1,6,0:1:0:0:
181,276,107495,1,2,0:0:0:0:
241,247,107576,1,6,0:1:0:0:
270,188,107657,1,2,0:0:0:0:
262,123,107738,6,0,P|186:108|127:148,1,112.5,6|0,0:0|0:0,0:0:0:0:
291,311,107981,1,2,0:0:0:0:
306,320,108062,2,0,L|426:319,1,112.5,4|2,0:3|0:0,0:0:0:0:
436,95,108387,1,4,3:0:0:0:
259,223,108549,1,0,0:0:0:0:
259,223,108630,1,2,0:0:0:0:
259,223,108711,1,4,0:3:0:0:
110,69,108873,1,2,0:0:0:0:
43,281,109035,6,0,B|90:309|90:309|163:317,1,112.5,4|0,3:0|0:0,0:0:0:0:
307,160,109279,1,2,0:0:0:0:
301,150,109360,2,0,L|157:146,1,112.5,4|2,0:3|0:0,0:0:0:0:
287,308,109684,1,4,3:0:0:0:
423,123,109846,1,0,0:0:0:0:
423,123,109927,1,2,0:0:0:0:
423,123,110008,1,4,0:3:0:0:
512,333,110171,1,2,0:0:0:0:
256,218,110333,6,0,P|204:262|198:330,1,112.5,6|0,0:0|0:0,0:0:0:0:
354,232,110576,2,0,P|341:164|286:125,1,112.5,2|0,0:0|0:0,0:0:0:0:
183,121,110819,2,0,L|116:132,1,56.25,2|0,0:0|0:0,0:0:0:0:
11,262,110981,2,0,L|167:266,1,112.5,4|0,3:0|0:0,0:0:0:0:
330,339,111225,2,0,L|467:329,1,112.5,2|0,0:0|0:0,0:0:0:0:
498,213,111468,2,0,L|491:147,1,56.25,2|0,0:0|0:0,0:0:0:0:
378,49,111630,6,0,P|376:128|354:165,1,112.5,6|0,0:0|0:0,0:0:0:0:
151,156,111873,2,0,P|129:104|134:49,1,112.5,2|0,0:0|0:0,0:0:0:0:
257,202,112117,2,0,L|256:340,1,112.5,2|4,0:0|0:3,0:0:0:0:
122,294,112441,1,2,0:0:0:0:
385,294,112603,1,4,3:0:0:0:
122,294,112765,1,2,0:0:0:0:
385,294,112927,6,0,L|393:173,1,112.5,6|0,0:0|0:0,0:0:0:0:
270,55,113171,1,2,0:0:0:0:
263,62,113252,2,0,P|276:159|316:202,1,112.5,4|2,0:3|0:0,0:0:0:0:
420,93,113576,1,4,3:0:0:0:
145,148,113738,1,0,0:0:0:0:
145,148,113819,1,2,0:0:0:0:
145,148,113900,1,4,0:3:0:0:
391,244,114062,1,2,0:0:0:0:
176,276,114225,6,0,L|58:271,1,112.5,6|0,0:0|0:0,0:0:0:0:
284,188,114468,2,0,L|421:178,1,112.5,2|0,0:0|0:0,0:0:0:0:
190,109,114711,2,0,L|72:104,1,112.5,2|4,0:0|0:3,0:0:0:0:
241,213,115035,1,2,0:0:0:0:
469,290,115198,1,4,3:0:0:0:
206,331,115360,1,0,0:0:0:0:
396,179,115522,6,0,L|395:61,1,112.5,6|0,0:0|0:0,0:0:0:0:
237,196,115846,1,4,0:3:0:0:
76,31,116008,2,0,L|81:115,1,56.25,2|2,0:0|0:0,0:0:0:0:
94,299,116171,1,4,3:0:0:0:
237,196,116333,2,0,L|232:64,1,112.5,0|4,0:0|3:0,0:0:0:0:
392,303,116657,2,0,L|401:210,1,56.25,0|0,0:0|0:0,0:0:0:0:
416,9,116819,1,6,0:0:0:0:
263,117,116981,6,0,L|230:112,4,28.125,4|0|0|0|4,0:3|0:0|0:3|0:0|3:0,0:0:0:0:
95,232,117306,2,0,L|132:227,2,28.125,4|0|2,3:0|0:0|0:0,0:0:0:0:
88,252,117468,5,4,3:0:0:0:
114,298,117549,1,2,0:0:0:0:
154,335,117630,1,4,3:0:0:0:
202,358,117711,1,2,0:0:0:0:
255,366,117792,1,4,3:0:0:0:
309,358,117873,1,2,0:0:0:0:
357,335,117954,1,4,3:0:0:0:
397,299,118035,1,2,0:0:0:0:
422,250,118117,6,0,P|431:172|407:128,1,90,6|0,0:0|0:0,0:0:0:0:
137,66,118360,1,2,0:0:0:0:
148,69,118441,2,0,L|244:70,1,90,4|2,0:3|0:0,0:0:0:0:
470,85,118765,1,4,3:0:0:0:
247,223,118927,1,0,0:0:0:0:
247,223,119008,1,2,0:0:0:0:
247,223,119090,1,4,0:3:0:0:
296,0,119252,1,2,0:0:0:0:
87,71,119414,6,0,L|93:195,1,90,4|0,3:0|0:0,0:0:0:0:
189,366,119657,1,2,0:0:0:0:
190,356,119738,2,0,L|198:237,1,90,4|2,0:3|0:0,0:0:0:0:
227,47,120062,1,4,3:0:0:0:
278,266,120225,1,0,0:0:0:0:
278,266,120306,1,2,0:0:0:0:
278,266,120387,1,4,0:3:0:0:
328,42,120549,1,2,0:0:0:0:
178,226,120711,6,0,B|135:212|135:212|72:217,1,90,6|0,0:0|0:0,0:0:0:0:
242,349,120954,2,0,L|367:350,1,90,2|0,0:0|0:0,0:0:0:0:
436,272,121198,2,0,L|437:206,1,45,2|0,0:0|0:0,0:0:0:0:
328,42,121360,2,0,L|318:143,1,90,4|0,3:0|0:0,0:0:0:0:
204,308,121603,2,0,L|198:195,1,90,2|0,0:0|0:0,0:0:0:0:
116,99,121846,2,0,L|110:161,1,45,2|0,0:0|0:0,0:0:0:0:
117,318,122008,6,0,P|160:322|223:292,1,90,6|0,0:0|0:0,0:0:0:0:
388,228,122252,2,0,P|345:232|282:202,1,90,2|0,0:0|0:0,0:0:0:0:
111,143,122495,2,0,P|154:147|217:117,1,90,2|4,0:0|0:3,0:0:0:0:
297,39,122819,1,2,0:0:0:0:
170,242,122981,1,4,3:0:0:0:
112,15,123144,1,0,0:0:0:0:
318,243,123306,5,6,0:0:0:0:
67,232,123468,1,4,0:3:0:0:
282,136,123630,1,2,0:3:0:0:
240,317,123792,1,4,3:0:0:0:
111,134,123954,1,4,0:3:0:0:
301,8,124117,1,4,0:3:0:0:
432,188,124279,2,0,L|424:314,1,90,2|0,3:0|0:0,0:0:0:0:
201,346,124603,5,4,0:0:0:0:
299,119,124765,2,0,L|304:189,1,45,0|0,0:0|0:0,0:0:0:0:
336,364,124927,1,4,3:0:0:0:
106,268,125090,6,0,L|113:198,1,45,0|0,0:0|0:0,0:0:0:0:
134,20,125252,1,4,3:0:0:0:
399,117,125414,6,0,L|322:122,1,45,0|0,0:0|0:0,0:0:0:0:
70,142,125576,1,4,3:0:0:0:
270,0,125738,6,0,L|278:69,1,45,0|0,0:0|0:0,0:0:0:0:
307,308,125900,1,6,0:0:0:0:
248,330,125981,1,4,0:3:0:0:
185,329,126062,1,6,0:3:0:0:
128,305,126143,1,4,0:3:0:0:
83,261,126224,1,4,0:3:0:0:
58,203,126305,1,4,0:3:0:0:
56,141,126386,1,4,3:0:0:0:
77,82,126467,1,0,0:0:0:0:
118,35,126549,5,4,3:0:0:0:
179,19,126630,1,4,0:3:0:0:
239,34,126711,1,4,0:3:0:0:
284,77,126792,1,4,0:3:0:0:
316,131,126873,1,4,3:0:0:0:
356,180,126954,1,4,0:3:0:0:
415,195,127035,1,4,0:3:0:0:
467,162,127116,1,4,0:3:0:0:
480,101,127197,5,6,0:0:0:0:
223,213,127360,2,0,L|224:252,4,22.5,2|0|2|0|4,0:3|0:0|0:3|0:0|3:3,0:0:0:0:
487,339,127684,6,0,L|424:313,1,45,2|2,0:3|0:3,0:0:0:0:
209,210,127846,1,4,3:0:0:0:
210,139,127927,1,4,0:3:0:0:
249,79,128008,1,4,0:3:0:0:
314,50,128089,1,6,0:3:0:0:
384,59,128170,1,4,3:0:0:0:
439,105,128251,1,4,0:3:0:0:
462,171,128332,1,2,1:0:0:0:
449,241,128413,1,4,0:3:0:0:
394,292,128495,1,12,0:0:0:0:
