osu file format v14

[General]
AudioFilename: xi.mp3
AudioLeadIn: 0
PreviewTime: 57387
Countdown: 0
SampleSet: Soft
StackLeniency: 0.7
Mode: 0
LetterboxInBreaks: 1
WidescreenStoryboard: 1

[Editor]
DistanceSpacing: 3.2
BeatDivisor: 4
GridSize: 4
TimelineZoom: 2.799999

[Metadata]
Title:Ganbaruzo
TitleUnicode:Ganbaruzo↓
Artist:SakiZ
ArtistUnicode:SakiZ
Creator:VGogetto
Version:Pikastrata's Easy
Source:
Tags:xi freedom dive glorious crown monstrata nakagawa kanon snow nino atsuro new game aoba pikastar haruto logic agent
BeatmapID:1408585
BeatmapSetID:647728

[Difficulty]
HPDrainRate:3
CircleSize:3
OverallDifficulty:3
ApproachRate:2
SliderMultiplier:0.86
SliderTickRate:1

[Events]
//Background and Video events
0,0,"BG.jpg",0,0
Video,0,"Ganbaruzo↓.avi"
//Break Periods
2,75747,78244
2,92776,101659
//Storyboard Layer 0 (Background)
//Storyboard Layer 1 (Fail)
//Storyboard Layer 2 (Pass)
//Storyboard Layer 3 (Foreground)
//Storyboard Sound Samples

[TimingPoints]
4239,266.075388026608,4,1,0,70,1,0
4239,-215.05376344086,4,2,0,55,0,0
12753,-215.05376344086,4,2,0,60,0,0
21267,-215.05376344086,4,1,0,50,0,0
23396,-215.05376344086,4,1,0,70,0,0
40425,-215.05376344086,4,2,0,70,0,1
54261,-215.05376344086,4,2,0,70,0,0
54527,-215.05376344086,4,2,0,35,0,0
54793,-215.05376344086,4,2,0,5,0,0
55325,-215.05376344086,4,2,0,10,0,0
55458,-215.05376344086,4,2,0,20,0,0
55591,-215.05376344086,4,2,0,30,0,0
55724,-215.05376344086,4,2,0,40,0,0
55857,-215.05376344086,4,2,0,50,0,0
55990,-215.05376344086,4,2,0,60,0,0
56123,-215.05376344086,4,2,0,70,0,0
56256,-215.05376344086,4,2,0,80,0,0
56389,-100,4,2,0,85,0,0
56921,-100,4,2,5,85,0,0
57188,-100,4,2,5,85,0,0
57254,-100,4,2,5,70,0,0
57454,-100,4,2,5,80,0,1
73418,-100,4,2,5,85,0,1
74482,-100,4,2,5,90,0,1
75547,-100,4,2,3,75,0,0
77409,-100,4,2,3,70,0,0
77498,-100,4,2,3,5,0,0
77587,-100,4,2,3,70,0,0
77764,-100,4,2,3,5,0,0
77853,-100,4,2,3,70,0,0
84061,-100,4,2,3,80,0,0
90447,-100,4,2,5,80,0,0
101090,-100,4,2,3,80,0,0
102154,-100,4,2,3,60,0,0
102686,-100,4,2,3,60,0,0
102952,-100,4,2,3,75,0,0
103019,-100,4,2,3,60,0,0
103219,-100,4,2,3,50,0,0
103751,-100,4,2,3,55,0,0
104283,-100,4,2,3,60,0,0
104815,-100,4,2,3,65,0,0
105347,-100,4,2,3,70,0,0
105879,-100,4,2,5,65,0,0
106411,-100,4,2,3,60,0,0
106944,-100,4,2,3,70,0,0
107476,-100,4,2,5,80,0,1
111666,-100,4,2,5,80,0,0
111733,-100,4,2,5,90,0,1
111799,-100,4,2,5,80,0,1
119183,-100,4,2,5,80,0,1
120247,-100,4,2,5,85,0,1
122376,-100,4,2,5,90,0,1
123440,-100,4,2,5,80,0,0
125436,-100,4,2,5,60,0,0
125569,-100,4,2,5,80,0,1
125968,-100,4,2,5,90,0,1
126101,-100,4,2,5,80,0,1
126234,-100,4,2,5,90,0,1
126367,-100,4,2,5,80,0,1
127165,-100,4,2,3,65,0,1
127232,-100,4,2,3,80,0,1
127298,-100,4,2,3,70,0,1
127365,-100,4,2,3,85,0,1
127431,-100,4,2,3,90,0,1
127631,-100,4,2,5,70,0,0
127697,-100,4,2,5,60,0,1
127764,-100,4,2,5,60,0,0

[HitObjects]
296,44,4239,6,0,P|220:40|128:80,1,160.000002384186,6|2,0:0|0:0,0:0:0:0:
84,216,6367,2,0,P|160:220|252:180,1,160.000002384186,6|2,0:0|0:0,0:0:0:0:
316,180,7964,1,2,0:0:0:0:
392,156,8496,2,2,P|380:88|296:48,2,160.000002384186
372,232,11156,1,2,0:0:0:0:
336,304,11689,2,2,P|264:324|168:304,1,160.000002384186,2|6,0:0|0:0,0:0:0:0:
76,192,13817,5,4,0:0:0:0:
180,72,14882,2,0,P|258:57|334:78,1,160.000002384186,6|2,0:0|0:0,0:0:0:0:
436,192,17010,1,6,0:0:0:0:
436,192,18074,6,6,L|440:240|436:288,1,80.0000011920928
356,268,19139,2,6,L|352:220|356:172,1,80.0000011920928
316,120,20203,2,6,P|260:88|232:88,1,80.0000011920928
164,88,21267,6,0,P|124:80|76:92,1,80.0000011920928
88,168,22332,2,0,P|128:176|176:164,1,80.0000011920928
244,180,23396,6,0,P|304:200|368:284,1,160.000002384186,4|8,0:0|0:0,0:0:0:0:
444,276,24992,1,0,0:0:0:0:
444,196,25525,2,0,P|440:144|356:68,1,160.000002384186,0|8,0:0|0:0,0:0:0:0:
292,40,27121,1,0,0:0:0:0:
212,40,27653,6,0,L|120:40,1,80.0000011920928
52,40,28717,2,0,P|36:88|44:132,1,80.0000011920928,8|0,0:0|0:0,0:0:0:0:
36,196,29782,2,0,B|116:164|160:248|276:196,1,240.000003576278
348,212,31910,6,0,P|332:288|248:328,2,160.000002384186,4|8|0,0:0|0:0|0:0,0:0:0:0:
424,184,34571,1,0,0:0:0:0:
392,112,35103,2,0,P|372:72|328:52,1,80.0000011920928,0|8,0:0|0:0,0:0:0:0:
264,64,36168,2,0,P|184:84|100:60,1,160.000002384186
32,64,37764,1,8,0:0:0:0:
256,192,38296,12,4,40425,0:0:0:0:
52,160,41489,5,8,0:0:0:0:
92,308,42553,2,0,L|164:308|256:308,1,160.000002384186,4|8,0:0|0:0,0:0:0:0:
332,308,44150,1,0,0:0:0:0:
408,284,44682,6,0,P|424:228|404:128,1,160.000002384186,4|8,0:0|0:0,0:0:0:0:
340,80,46278,1,0,0:0:0:0:
264,52,46811,2,0,P|216:48|184:60,1,80.0000011920928,4|8,0:0|0:0,0:0:0:0:
108,60,47875,2,0,L|68:36,2,40.0000005960464,4|0|8,0:0|0:0|0:0,0:0:0:0:
108,140,48939,6,0,P|136:180|240:192,1,160.000002384186,4|8,0:0|0:0,0:0:0:0:
320,192,50536,1,0,0:0:0:0:
324,272,51068,2,0,P|400:220|396:160,1,160.000002384186,4|8,0:0|0:0,0:0:0:0:
388,80,52664,1,0,0:0:0:0:
312,52,53196,6,0,P|260:36|152:64,2,160.000002384186,4|8|4,0:0|0:0|0:0,0:0:0:0:
352,132,55857,1,0,0:0:0:0:
299,203,56389,2,0,L|123:161,1,172,8|2,0:0|0:3,0:0:0:0:
107,80,57188,1,12,0:0:0:0:
192,91,57454,6,0,L|183:277,1,172,4|0,3:2|3:0,0:0:0:0:
239,327,58252,1,0,3:0:0:0:
317,290,58518,2,0,P|325:331|313:372,2,85.9999999999999,2|2|2,0:1|3:1|3:1,0:0:0:0:
271,216,59316,1,2,3:1:0:0:
313,140,59582,6,0,P|365:91|464:120,1,172,2|0,3:1|3:0,0:0:0:0:
394,175,60381,1,2,3:2:0:0:
408,259,60647,2,0,L|425:360,1,85.9999999999999,2|2,3:1|3:1,0:0:0:0:
344,380,61179,2,0,L|329:295,1,85.9999999999999,2|2,3:1|3:1,0:0:0:0:
273,230,61711,6,0,B|227:213|227:213|103:233,1,172,4|2,3:2|3:1,0:0:0:0:
43,172,62509,1,2,3:1:0:0:
105,111,62775,2,0,B|227:131|227:131|273:114,1,172,2|2,3:1|3:1,0:0:0:0:
349,74,63574,1,2,3:1:0:0:
423,32,63840,6,0,P|435:74|424:115,1,85.9999999999999,0|2,3:0|3:1,0:0:0:0:
351,160,64372,2,0,P|339:201|350:242,1,85.9999999999999,0|2,3:0|3:1,0:0:0:0:
428,276,64904,2,0,P|361:325|285:294,1,172,4|4,3:2|3:2,0:0:0:0:
205,142,65968,6,0,P|128:110|62:159,1,172,4|0,3:2|3:0,0:0:0:0:
33,240,66766,1,0,3:0:0:0:
3,319,67032,2,0,P|47:324|89:304,1,85.9999999999999,2|2,3:1|3:1,0:0:0:0:
163,270,67565,2,0,P|205:265|244:282,1,85.9999999999999,2|2,3:1|3:1,0:0:0:0:
311,336,68097,6,0,B|329:288|329:288|297:157,1,172,2|0,3:1|3:0,0:0:0:0:
367,116,68895,1,2,3:1:0:0:
433,170,69161,2,0,L|410:266,2,85.9999999999999,4|2|0,3:2|3:1|3:0,0:0:0:0:
448,86,69959,1,2,3:1:0:0:
381,31,70225,6,0,B|296:8|295:47|208:24,1,172,4|2,3:2|3:1,0:0:0:0:
131,59,71024,1,2,3:1:0:0:
51,93,71290,2,0,B|74:136|117:145|117:145|102:238,1,172,4|4,3:2|3:2,0:0:0:0:
85,313,72088,1,2,3:1:0:0:
148,368,72354,6,0,P|190:378|231:366,1,85.9999999999999,4|2,3:2|3:1,0:0:0:0:
298,312,72886,2,0,P|339:300|380:309,1,85.9999999999999,6|2,3:2|3:1,0:0:0:0:
456,348,73418,2,0,P|465:306|453:265,1,85.9999999999999,6|6,3:2|3:1,0:0:0:0:
379,221,73950,2,0,P|369:179|381:138,1,85.9999999999999,4|4,3:2|3:2,0:0:0:0:
256,192,74350,12,6,75547,1:2:0:0:
204,268,79804,6,0,L|197:369,2,85.9999999999999,4|8|2,3:2|1:2|0:0,0:0:0:0:
210,183,80602,1,4,3:2:0:0:
216,98,80868,2,0,L|132:41,2,85.9999999999999,4|8|2,0:0|1:2|0:0,0:0:0:0:
286,146,81666,1,8,1:2:0:0:
356,193,81933,6,0,L|446:148,2,85.9999999999999,4|0|2,3:2|3:0|0:3,0:0:0:0:
280,230,82731,1,4,3:2:0:0:
204,267,82997,2,0,B|192:225|192:225|210:180,2,85.9999999999999,4|4|4,1:2|1:2|1:2,0:0:0:0:
275,315,83795,1,4,1:2:0:0:
353,279,84061,6,0,L|452:298,1,85.9999999999999,4|0,3:2|3:3,0:0:0:0:
428,209,84593,2,0,L|444:124,1,85.9999999999999,0|0,3:0|3:0,0:0:0:0:
358,134,85126,2,0,L|273:117,1,85.9999999999999,0|0,3:0|3:3,0:0:0:0:
283,204,85658,2,0,L|266:288,1,85.9999999999999,0|2,3:0|3:2,0:0:0:0:
205,348,86190,6,0,P|156:356|122:341,1,85.9999999999999,4|0,3:2|3:3,0:0:0:0:
45,378,86722,2,0,P|37:328|52:295,1,85.9999999999999,8|4,3:3|3:2,0:0:0:0:
15,217,87254,2,0,P|64:209|102:227,1,85.9999999999999,8|8,3:3|3:3,0:0:0:0:
175,187,87786,2,0,P|182:236|170:269,1,85.9999999999999,12|4,3:3|3:2,0:0:0:0:
244,308,88319,6,0,B|285:319|285:319|326:305,1,85.9999999999999,4|0,3:2|0:0,0:0:0:0:
402,344,88851,2,0,B|413:303|413:303|399:261,1,85.9999999999999,12|4,3:3|3:2,0:0:0:0:
324,219,89383,2,0,B|310:177|310:177|321:136,1,85.9999999999999,8|0,1:3|0:0,0:0:0:0:
358,60,89915,2,0,B|317:49|317:49|276:63,1,85.9999999999999,8|4,1:3|3:2,0:0:0:0:
256,192,90314,12,6,92576,3:2:0:0:
273,302,103219,54,0,P|325:238|300:160,1,172,4|0,1:2|1:0,0:0:0:0:
239,222,104017,1,2,1:0:0:0:
154,200,104283,2,0,P|130:160|131:116,2,85.9999999999999,2|2|2,1:0|1:0|1:0,0:0:0:0:
215,138,105081,1,2,1:0:0:0:
186,55,105347,6,0,P|148:36|45:102,1,172,2|0,1:0|0:0,0:0:0:0:
50,180,106146,1,2,0:0:0:0:
52,265,106412,2,0,P|81:294|130:304,1,85.9999999999999,4|2,0:0|0:0,0:0:0:0:
196,263,106944,1,4,3:2:0:0:
196,180,107210,1,0,3:0:0:0:
267,138,107476,6,0,B|311:116|351:141|351:141|338:239,1,172,4|2,3:2|3:1,0:0:0:0:
328,309,108274,1,2,3:1:0:0:
389,367,108540,2,0,P|469:343|493:264,1,172,2|2,3:1|3:1,0:0:0:0:
466,183,109338,1,2,3:1:0:0:
438,101,109605,6,0,L|458:11,1,85.9999999999999,4|0,3:2|0:0,0:0:0:0:
370,20,110137,2,0,L|280:0,1,85.9999999999999,4|2,3:2|3:1,0:0:0:0:
234,70,110669,2,0,L|150:88,1,85.9999999999999,4|2,3:2|3:2,0:0:0:0:
66,106,111201,1,4,3:2:0:0:
54,277,111733,6,0,B|137:316|137:252|227:295,1,172,6|0,1:2|3:0,0:0:0:0:
281,352,112531,1,2,0:1:0:0:
363,327,112797,2,0,P|342:290|306:269,1,85.9999999999999,2|0,3:1|3:0,0:0:0:0:
245,209,113330,2,0,L|228:107,1,85.9999999999999,0|0,3:0|3:0,0:0:0:0:
165,71,113862,6,0,B|205:40|205:40|328:50,1,172,2|0,3:1|3:0,0:0:0:0:
410,55,114660,1,2,3:1:0:0:
447,130,114926,2,0,P|457:175|443:219,1,85.9999999999999,2|0,3:1|3:0,0:0:0:0:
371,253,115458,2,0,P|361:208|375:164,1,85.9999999999999,2|2,3:1|3:2,0:0:0:0:
303,115,115990,6,0,P|222:111|176:179,1,172,4|2,3:2|3:1,0:0:0:0:
204,261,116789,1,2,3:1:0:0:
231,342,117055,2,0,P|184:344|145:324,2,85.9999999999999,4|0|4,3:2|3:0|3:2,0:0:0:0:
288,279,117853,1,2,3:1:0:0:
345,216,118119,6,0,P|392:214|431:234,1,85.9999999999999,4|0,3:2|3:0,0:0:0:0:
510,248,118651,2,0,P|488:289|451:313,1,85.9999999999999,4|2,3:2|3:1,0:0:0:0:
371,300,119183,6,0,L|406:113,1,172,4|4,3:2|3:2,0:0:0:0:
355,59,119981,1,4,3:2:0:0:
291,117,120248,2,0,B|250:134|206:117|206:117|168:136|122:117,1,172,6|2,3:2|1:0,0:0:0:0:
164,42,121046,1,2,1:2:0:0:
249,40,121312,6,0,L|208:208,1,172,4|6,3:2|3:2,0:0:0:0:
243,285,122110,1,6,3:2:0:0:
256,192,122243,12,6,123440,1:2:0:0:
256,192,125569,12,4,127698,3:2:0:0:
