osu file format v14

[General]
AudioFilename: xi.mp3
AudioLeadIn: 0
PreviewTime: 57387
Countdown: 0
SampleSet: Soft
StackLeniency: 0.7
Mode: 0
LetterboxInBreaks: 1
WidescreenStoryboard: 1

[Editor]
DistanceSpacing: 3.2
BeatDivisor: 4
GridSize: 4
TimelineZoom: 2.799999

[Metadata]
Title:Ganbaruzo
TitleUnicode:Ganbaruzo↓
Artist:SakiZ
ArtistUnicode:SakiZ
Creator:VGogetto
Version:Freedom Crown
Source:
Tags:xi freedom dive glorious crown monstrata nakagawa kanon snow nino atsuro new game aoba pikastar haruto logic agent
BeatmapID:1387994
BeatmapSetID:647728

[Difficulty]
HPDrainRate:6
CircleSize:3.5
OverallDifficulty:4
ApproachRate:9
SliderMultiplier:1.6
SliderTickRate:1

[Events]
//Background and Video events
0,0,"BG.jpg",0,0
Video,0,"Ganbaruzo↓.avi"
//Break Periods
2,75746,76809
2,77874,78848
2,92775,100489
//Storyboard Layer 0 (Background)
//Storyboard Layer 1 (Fail)
//Storyboard Layer 2 (Pass)
//Storyboard Layer 3 (Foreground)
//Storyboard Sound Samples

[TimingPoints]
4239,266.075388026608,4,1,0,70,1,0
4239,-123.456790123457,4,2,0,70,0,0
21267,-123.456790123457,4,1,0,50,0,0
23396,-123.456790123457,4,1,0,70,0,0
40425,-123.456790123457,4,2,0,70,0,1
54261,-123.456790123457,4,2,0,70,0,0
54527,-123.456790123457,4,2,0,35,0,0
54793,-123.456790123457,4,2,0,5,0,0
55325,-123.456790123457,4,2,0,10,0,0
55458,-123.456790123457,4,2,0,20,0,0
55591,-123.456790123457,4,2,0,30,0,0
55724,-123.456790123457,4,2,0,40,0,0
55857,-123.456790123457,4,2,0,50,0,0
55990,-123.456790123457,4,2,0,60,0,0
56123,-123.456790123457,4,2,0,70,0,0
56256,-123.456790123457,4,2,0,80,0,0
56921,-133.333333333333,4,2,5,85,0,0
57188,-133.333333333333,4,2,5,85,0,0
57254,-133.333333333333,4,2,5,70,0,0
57454,-111.111111111111,4,2,5,80,0,1
73418,-111.111111111111,4,2,5,85,0,1
74482,-111.111111111111,4,2,5,90,0,1
75547,-111.111111111111,4,2,3,75,0,0
77409,-111.111111111111,4,2,3,70,0,0
77498,-111.111111111111,4,2,3,5,0,0
77587,-111.111111111111,4,2,3,70,0,0
77764,-111.111111111111,4,2,3,5,0,0
77853,-111.111111111111,4,2,3,70,0,0
84061,-111.111111111111,4,2,3,80,0,0
88318,-100,4,2,3,80,0,0
90447,-100,4,2,5,80,0,0
101090,-100,4,2,3,80,0,0
102154,-100,4,2,3,60,0,0
102686,-125,4,2,3,60,0,0
102952,-125,4,2,3,75,0,0
103019,-125,4,2,3,60,0,0
103219,-125,4,2,3,50,0,0
103751,-125,4,2,3,55,0,0
104283,-125,4,2,3,60,0,0
104815,-125,4,2,3,65,0,0
105347,-125,4,2,3,70,0,0
105879,-125,4,2,5,65,0,0
106411,-125,4,2,3,60,0,0
106944,-125,4,2,3,70,0,0
107476,-100,4,2,5,80,0,1
111666,-100,4,2,5,80,0,0
111733,-100,4,2,5,90,0,1
111799,-100,4,2,5,80,0,1
119183,-100,4,2,5,80,0,1
120247,-100,4,2,5,85,0,1
122376,-100,4,2,5,90,0,1
123440,-100,4,2,5,80,0,0
125436,-100,4,2,5,60,0,0
125569,-100,4,2,5,80,0,1
125968,-100,4,2,5,90,0,1
126101,-100,4,2,5,80,0,1
126234,-100,4,2,5,90,0,1
126367,-100,4,2,5,80,0,1
127165,-100,4,2,3,65,0,1
127232,-100,4,2,3,80,0,1
127298,-100,4,2,3,70,0,1
127365,-100,4,2,3,85,0,1
127431,-100,4,2,3,90,0,1
127631,-100,4,2,5,70,0,0
127697,-100,4,2,5,60,0,1
127764,-100,4,2,5,60,0,0

[HitObjects]
320,40,4239,6,2,P|368:40|428:64,2,97.5,6|2|2,0:0|0:0|0:0,0:0:0:0:
364,136,4771,2,2,L|404:208,1,64.8000015820313
440,292,5037,1,2,0:0:0:0:
366,325,5170,1,2,0:0:0:0:
300,280,5303,6,2,P|256:280|204:312,2,97.5
328,196,5835,2,2,L|300:136,1,64.8000015820313
224,76,6101,1,2,0:0:0:0:
152,52,6234,1,2,0:0:0:0:
84,88,6367,6,2,P|48:128|36:184,2,97.5
144,164,6899,2,2,P|128:208|104:232,1,64.8000015820313
72,300,7165,2,2,L|160:300,1,65
216,300,7431,6,2,P|272:296|312:264,1,97.5
312,236,7697,2,0,L|384:200,1,65,2|0,0:0|0:0,0:0:0:0:
444,176,7964,1,2,0:0:0:0:
472,104,8097,1,2,0:0:0:0:
424,44,8230,2,2,L|352:24,1,65
284,32,8496,6,2,P|228:36|192:68,2,97.5
332,96,9028,1,2,0:0:0:0:
272,148,9161,1,2,0:0:0:0:
196,148,9294,2,2,L|120:148,1,65
76,204,9560,6,2,B|88:272|88:272|56:336,1,130
136,340,9959,2,0,L|176:264,2,65
212,356,10358,2,2,L|252:280,1,65
312,264,10624,6,2,L|312:188,2,65,2|2|0,0:0|0:0|0:0,0:0:0:0:
388,244,11023,1,2,0:0:0:0:
464,220,11156,2,2,L|464:300,2,65,2|2|0,0:0|0:0|0:0,0:0:0:0:
424,152,11556,1,2,0:0:0:0:
380,88,11689,6,2,P|332:60|316:16,2,97.5
456,84,12221,2,2,L|484:48,2,32.5
424,152,12487,1,2,0:0:0:0:
348,168,12620,1,0,0:0:0:0:
320,184,12686,1,0,0:0:0:0:
292,200,12753,2,2,B|236:244|236:244|220:316,1,130,6|2,0:0|0:0,0:0:0:0:
76,356,13285,2,2,L|104:220,1,130
60,80,13817,6,2,L|60:36,2,43.3333333333333
96,116,14083,2,2,B|148:152|148:152|224:152,1,130
292,164,14482,2,0,L|320:212,2,32.5
332,96,14748,1,0,0:0:0:0:
400,56,14882,6,2,P|452:100|460:180,1,130,6|2,0:0|0:0,0:0:0:0:
464,240,15281,1,0,0:0:0:0:
428,308,15414,2,6,L|352:336,1,65,2|2,0:0|0:0,0:0:0:0:
288,320,15680,2,0,L|204:308,1,65
148,328,15946,2,0,B|80:308|80:308|44:256,1,130
12,188,16345,1,0,0:0:0:0:
76,144,16478,1,2,0:0:0:0:
76,68,16611,2,0,L|76:12,2,32.5
144,104,16877,1,0,0:0:0:0:
208,152,17010,6,2,P|200:204|156:240,2,97.5,6|2|2,0:0|0:0|0:0,0:0:0:0:
264,100,17542,2,2,L|400:36,1,130
456,20,17941,1,2,0:0:0:0:
452,96,18074,2,2,L|444:248,1,130,6|2,0:0|0:0,0:0:0:0:
320,316,18607,2,2,P|360:340|432:332,2,97.5,6|2|2,0:0|0:0|0:0,0:0:0:0:
176,288,19139,6,2,P|128:296|88:336,2,97.5,6|2|2,0:0|0:0|0:0,0:0:0:0:
252,272,19671,1,6,0:0:0:0:
372,172,19937,1,6,0:0:0:0:
272,52,20203,6,2,L|196:72,1,65,6|2,0:0|0:0,0:0:0:0:
96,184,20469,2,2,L|160:168,1,65,6|2,0:0|0:0,0:0:0:0:
304,152,20735,2,2,L|240:148,1,65,6|2,0:0|0:0,0:0:0:0:
64,92,21001,2,2,L|128:96,1,65,6|2,0:0|0:0,0:0:0:0:
272,52,21267,6,0,L|412:60,1,130
416,136,21666,2,0,L|468:140,2,32.5
392,208,21933,1,0,0:0:0:0:
368,284,22066,2,0,L|340:360,1,65
268,328,22332,5,0,0:0:0:0:
192,308,22465,2,0,L|192:356,2,32.5
116,284,22731,1,0,0:0:0:0:
40,260,22864,2,0,L|40:224,3,32.5
40,188,23130,2,0,L|40:152,3,32.5
40,116,23396,6,0,P|64:56|148:44,1,130,4|8,0:0|0:0,0:0:0:0:
200,36,23795,1,0,0:0:0:0:
276,56,23928,2,0,L|352:56,1,65
404,136,24194,2,0,L|328:136,1,65,8|0,0:0|0:0,0:0:0:0:
276,208,24460,6,0,P|344:224|408:276,1,130,0|8,0:0|0:0,0:0:0:0:
416,332,24859,1,0,0:0:0:0:
340,344,24992,1,0,0:0:0:0:
264,332,25125,1,8,0:0:0:0:
188,340,25258,2,0,L|108:340,1,65,8|0,0:0|0:0,0:0:0:0:
44,348,25525,6,0,P|64:288|128:260,1,130,0|8,0:0|0:0,0:0:0:0:
200,264,25924,1,0,0:0:0:0:
276,252,26057,2,0,L|348:244,1,65
396,160,26323,2,0,L|312:172,1,65,8|0,0:0|0:0,0:0:0:0:
264,96,26589,6,0,B|316:56|316:56|396:47,1,129.600003164063,0|8,0:0|0:0,0:0:0:0:
456,32,26988,1,0,0:0:0:0:
436,108,27121,2,0,L|456:192,1,65,0|8,0:0|0:0,0:0:0:0:
448,248,27387,2,0,L|420:332,1,65,8|0,0:0|0:0,0:0:0:0:
348,300,27653,6,0,L|320:384,2,65,0|0|8,0:0|0:0|0:0,0:0:0:0:
280,260,28052,1,0,0:0:0:0:
312,188,28185,6,0,L|332:116,2,65,0|0|8,0:0|0:0|0:0,0:0:0:0:
240,156,28584,1,0,0:0:0:0:
184,208,28717,6,0,P|176:280|116:316,1,130,0|8,0:0|0:0,0:0:0:0:
64,280,29117,2,0,L|124:228,1,65
92,160,29383,2,0,L|32:212,1,65,0|8,0:0|0:0,0:0:0:0:
24,120,29649,1,0,0:0:0:0:
12,44,29782,6,0,B|68:44|89:88|89:88|136:64,1,130,4|8,0:0|0:0,0:0:0:0:
192,40,30181,1,0,0:0:0:0:
248,92,30314,2,0,P|284:148|356:136,1,130,4|8,0:0|0:0,0:0:0:0:
368,72,30713,1,0,0:0:0:0:
444,60,30846,6,0,L|468:136,1,65,12|0,0:0|0:0,0:0:0:0:
456,200,31112,2,0,B|436:264|436:264|448:348,1,130,8|0,0:0|0:0,0:0:0:0:
368,312,31511,1,8,0:0:0:0:
344,236,31644,1,0,0:0:0:0:
316,164,31777,1,0,0:0:0:0:
288,92,31910,6,0,B|224:112|224:112|144:84,1,130,4|8,0:0|0:0,0:0:0:0:
92,60,32309,1,0,0:0:0:0:
100,136,32442,1,0,0:0:0:0:
68,208,32576,1,0,0:0:0:0:
44,284,32709,2,0,L|72:360,1,65,8|0,0:0|0:0,0:0:0:0:
144,356,32975,6,0,P|208:348|232:284,1,130,0|8,0:0|0:0,0:0:0:0:
284,232,33374,1,0,0:0:0:0:
328,168,33507,2,0,L|328:100,2,65,0|8|8,0:0|0:0|0:0,0:0:0:0:
372,232,33906,1,0,0:0:0:0:
428,288,34039,6,0,L|428:376,2,65,4|0|8,0:0|0:0|0:0,0:0:0:0:
448,212,34438,1,0,0:0:0:0:
428,136,34571,6,0,L|428:44,2,65,0|0|8,0:0|0:0|0:0,0:0:0:0:
448,212,34970,1,0,0:0:0:0:
372,232,35103,6,0,L|284:264,2,65,0|0|8,0:0|0:0|0:0,0:0:0:0:
348,156,35502,1,0,0:0:0:0:
296,100,35635,6,0,L|296:24,2,65,0|8|8,0:0|0:0|0:0,0:0:0:0:
236,148,36035,1,0,0:0:0:0:
184,92,36168,6,0,L|100:76,1,65,4|0,0:0|0:0,0:0:0:0:
52,156,36434,2,0,L|124:172,1,65,8|0,0:0|0:0,0:0:0:0:
176,220,36700,2,0,L|220:232,2,32.5
136,288,36966,2,0,L|216:308,1,65,8|0,0:0|0:0,0:0:0:0:
276,324,37232,6,0,B|364:344|364:344|416:312,1,130,0|8,0:0|0:0,0:0:0:0:
464,284,37631,1,0,0:0:0:0:
460,208,37764,2,0,L|500:180,2,32.5
392,248,38030,2,0,L|316:248,1,65,8|0,0:0|0:0,0:0:0:0:
248,252,38296,5,4,0:0:0:0:
176,280,38429,1,0,0:0:0:0:
104,248,38562,1,8,0:0:0:0:
76,176,38695,1,0,0:0:0:0:
52,100,38828,6,0,L|100:28,1,65
160,76,39094,1,8,0:0:0:0:
192,148,39227,1,0,0:0:0:0:
228,216,39360,6,0,L|272:288,1,65
332,300,39627,2,0,L|384:284,3,32.5
400,280,39893,2,0,L|444:268,3,32.5
452,236,40159,2,0,L|456:176,3,32.5
456,164,40425,6,0,P|472:116|460:52,2,97.5,14|0|0,0:0|0:0|0:0,0:0:0:0:
384,196,40957,1,0,0:0:0:0:
384,196,41023,2,0,L|276:176,1,97.5,0|8,0:0|0:0,0:0:0:0:
212,164,41356,1,0,0:0:0:0:
136,148,41489,6,0,P|100:176|32:204,2,97.2000023730469
188,88,42021,1,0,0:0:0:0:
188,88,42088,2,0,L|292:104,1,97.5,0|8,0:0|0:0,0:0:0:0:
360,116,42420,1,0,0:0:0:0:
436,104,42553,6,0,P|460:56|436:0,2,97.2000023730469,4|0|0,0:0|0:0|0:0,0:0:0:0:
412,176,43086,1,0,0:0:0:0:
412,176,43152,2,0,L|420:288,1,97.5,0|8,0:0|0:0,0:0:0:0:
352,316,43485,1,0,0:0:0:0:
280,292,43618,6,0,B|236:324|236:324|180:332,1,97.5
160,352,43884,2,0,L|180:280,1,65,8|0,0:0|0:0,0:0:0:0:
148,216,44150,5,0,0:0:0:0:
144,140,44283,1,0,0:0:0:0:
192,76,44416,1,8,0:0:0:0:
268,56,44549,1,0,0:0:0:0:
340,84,44682,6,0,P|392:64|436:24,2,97.2000023730469,4|0|0,0:0|0:0|0:0,0:0:0:0:
316,160,45214,2,0,L|392:160,1,65
440,240,45480,2,0,L|348:240,1,65,8|0,0:0|0:0,0:0:0:0:
152,264,45746,6,0,B|212:248|212:248|292:264,1,130
320,328,46145,1,0,0:0:0:0:
396,328,46278,2,0,L|476:328,2,65,0|0|8,0:0|0:0|0:0,0:0:0:0:
320,328,46678,1,0,0:0:0:0:
244,328,46811,6,0,L|160:328,1,65,4|0,0:0|0:0,0:0:0:0:
68,256,47077,2,0,L|144:256,1,65,8|0,0:0|0:0,0:0:0:0:
256,232,47343,6,0,L|288:168,1,65,4|0,0:0|0:0,0:0:0:0:
252,40,47609,2,0,L|208:112,1,65,8|0,0:0|0:0,0:0:0:0:
124,152,47875,6,8,P|76:140|44:92,2,97.5,12|8|8,0:0|0:0|0:0,0:0:0:0:
176,208,48407,2,0,L|176:256,2,32.5
228,148,48673,1,8,0:0:0:0:
300,172,48806,1,0,0:0:0:0:
328,144,48873,1,0,0:0:0:0:
356,116,48939,6,0,L|416:56,1,65,4|0,0:0|0:0,0:0:0:0:
464,120,49205,2,0,L|408:184,1,65,8|0,0:0|0:0,0:0:0:0:
364,220,49471,6,0,L|368:316,1,65
308,336,49737,1,8,0:0:0:0:
240,300,49870,1,0,0:0:0:0:
168,268,50003,6,0,P|107:279|72:348,1,130,0|8,0:0|0:0,0:0:0:0:
152,344,50403,1,0,0:0:0:0:
228,344,50536,2,0,L|320:344,1,65
396,272,50802,2,0,L|300:272,1,65,8|0,0:0|0:0,0:0:0:0:
232,176,51068,6,0,L|144:152,2,65,0|0|8,0:0|0:0|0:0,0:0:0:0:
308,196,51467,1,0,0:0:0:0:
364,88,51600,6,0,L|452:64,2,65,0|0|8,0:0|0:0|0:0,0:0:0:0:
288,112,51999,1,0,0:0:0:0:
216,80,52132,6,0,P|152:76|80:124,1,130,0|8,0:0|0:0,0:0:0:0:
52,172,52531,1,0,0:0:0:0:
96,236,52664,2,0,L|176:236,1,65
276,320,52930,2,0,L|201:320,1,65,8|0,0:0|0:0,0:0:0:0:
256,232,53196,6,0,P|312:224|352:184,2,97.2000023730469,4|0|0,0:0|0:0|0:0,0:0:0:0:
212,168,53729,1,0,0:0:0:0:
212,168,53795,2,0,L|108:168,1,97.5,0|8,0:0|0:0,0:0:0:0:
92,92,54128,1,0,0:0:0:0:
92,92,54194,1,0,0:0:0:0:
92,92,54261,6,0,B|160:88|160:88|236:44,1,130,4|8,0:0|0:0,0:0:0:0:
288,76,54660,1,0,0:0:0:0:
364,64,54793,2,0,L|488:36,2,97.5,4|8|0,0:0|0:0|0:0,0:0:0:0:
304,156,55325,6,8,L|192:184,2,97.5,12|8|8,0:0|0:0|0:0,0:0:0:0:
380,144,55857,2,0,P|448:160|476:220,1,130,4|8,0:0|0:0,0:0:0:0:
456,284,56256,5,0,0:0:0:0:
384,312,56389,5,4,0:0:0:0:
312,288,56522,2,0,L|312:236,2,32.5
240,316,56788,1,0,0:0:0:0:
164,304,56921,6,0,P|158:275|155:245,1,60.0000022888184,2|0,0:3|3:0,0:0:0:0:
132,172,57188,2,0,P|138:143|141:113,1,60.0000022888184,12|0,0:0|0:0,0:0:0:0:
57,125,57454,6,0,L|223:108,1,143.999995605469,4|0,3:2|3:0,0:0:0:0:
301,71,57852,1,0,0:3:0:0:
387,135,57985,2,0,P|388:192|385:217,1,71.9999978027344,0|0,3:0|0:3,0:0:0:0:
344,311,58251,2,0,P|287:312|262:309,1,71.9999978027344,0|2,3:0|0:1,0:0:0:0:
198,224,58518,6,0,L|80:218,1,107.999996704102,2|2,0:1|0:1,0:0:0:0:
164,315,58784,2,0,L|282:309,1,107.999996704102,2|2,3:1|0:1,0:0:0:0:
167,128,59050,2,0,P|173:197|209:231,1,107.999996704102,2|2,3:1|0:1,0:0:0:0:
344,311,59316,2,0,P|287:280|233:295,1,107.999996704102,2|2,3:1|0:0,0:0:0:0:
141,360,59582,6,0,B|213:377|213:377|281:360,1,143.999995605469,2|2,3:1|3:1,0:0:0:0:
387,384,59980,1,0,0:3:0:0:
477,323,60114,2,0,L|478:276,3,35.9999989013672,0|0|2|0,3:0|0:3|0:0|0:0,0:0:0:0:
458,202,60380,2,0,P|461:136|466:106,1,71.9999978027344,2|0,3:2|0:0,0:0:0:0:
499,28,60646,6,0,L|383:15,1,107.999996704102,2|2,3:1|0:1,0:0:0:0:
345,93,60912,2,0,P|346:128|343:163,2,47.9999985351563,2|0|0,3:1|0:0|0:0,0:0:0:0:
283,27,61178,2,0,L|195:17,1,71.9999978027344,2|0,3:1|3:0,0:0:0:0:
109,55,61444,1,2,3:1:0:0:
109,55,61577,1,0,3:0:0:0:
6,22,61710,6,0,L|8:186,1,143.999995605469,4|2,3:2|3:1,0:0:0:0:
7,165,62043,1,0,0:3:0:0:
7,165,62109,1,2,0:0:0:0:
88,236,62242,2,0,P|149:240|177:240,1,71.9999978027344,2|0,3:1|0:3,0:0:0:0:
203,141,62508,2,0,P|167:142|131:145,1,71.9999978027344,2|2,3:1|0:0,0:0:0:0:
272,217,62774,6,0,P|305:152|266:60,1,143.999995605469,2|0,3:1|3:0,0:0:0:0:
203,141,63173,1,0,0:3:0:0:
272,217,63306,2,0,P|328:245|365:244,1,71.9999978027344,2|0,3:1|0:3,0:0:0:0:
429,189,63573,1,2,3:1:0:0:
433,296,63706,1,0,3:0:0:0:
429,189,63839,6,0,B|402:117|402:117|327:63,1,143.999995605469,0|2,0:0|3:1,0:0:0:0:
245,41,64238,1,0,3:0:0:0:
149,90,64371,2,0,P|144:147|145:185,1,71.9999978027344,0|2,3:0|0:1,0:0:0:0:
184,261,64637,1,2,3:1:0:0:
219,260,64703,1,0,3:0:0:0:
255,259,64770,1,0,3:0:0:0:
291,258,64836,1,2,3:1:0:0:
327,257,64903,6,0,P|417:208|433:173,1,143.999995605469,4|4,3:2|3:2,0:0:0:0:
391,74,65302,1,0,0:3:0:0:
286,48,65435,2,0,P|245:93|236:109,1,71.9999978027344,4|0,3:2|0:3,0:0:0:0:
260,152,65635,2,0,P|239:181|213:206,1,71.9999978027344,2|0,0:1|0:0,0:0:0:0:
163,232,65834,1,2,1:0:0:0:
69,295,65967,6,0,P|50:227|74:161,1,143.999995605469,4|0,3:2|3:0,0:0:0:0:
0,82,66366,1,0,0:3:0:0:
86,19,66499,2,0,L|164:12,1,71.9999978027344,0|2,3:0|0:0,0:0:0:0:
257,53,66765,2,0,L|335:46,1,71.9999978027344,0|2,3:0|0:1,0:0:0:0:
421,101,67032,6,0,P|448:165|438:227,1,107.999996704102,2|2,3:1|0:1,0:0:0:0:
302,171,67298,2,0,P|366:144|428:154,1,107.999996704102,2|2,3:1|0:1,0:0:0:0:
372,290,67564,2,0,P|345:226|355:164,1,107.999996704102,2|2,3:1|0:1,0:0:0:0:
491,220,67830,2,0,P|427:247|365:237,1,107.999996704102,2|0,3:1|0:0,0:0:0:0:
489,76,68096,6,0,L|491:220,1,143.999995605469,2|0,3:1|3:0,0:0:0:0:
389,245,68495,1,0,0:3:0:0:
295,190,68628,2,0,L|294:143,3,35.9999989013672,0|0|2|0,3:0|0:3|0:1|0:0,0:0:0:0:
351,85,68894,2,0,P|348:19|343:-11,1,71.9999978027344,2|0,3:1|1:0,0:0:0:0:
239,10,69160,6,0,L|126:69,1,107.999996704102,4|2,3:2|0:1,0:0:0:0:
57,76,69426,2,0,L|16:45,2,47.9999985351563,2|0|0,3:1|0:0|0:0,0:0:0:0:
55,166,69693,2,0,L|94:274,1,107.999996704102,0|2,3:0|0:1,0:0:0:0:
111,318,69958,1,2,3:1:0:0:
205,266,70091,1,2,3:2:0:0:
291,332,70224,6,0,P|352:330|382:322,1,71.9999978027344,4|2,3:2|0:0,0:0:0:0:
462,218,70490,2,0,P|426:217|391:223,1,71.9999978027344,2|2,3:1|0:1,0:0:0:0:
462,380,70757,2,0,P|463:344|457:308,1,71.9999978027344,2|0,3:1|0:0,0:0:0:0:
291,170,71023,2,0,P|289:205|295:241,1,71.9999978027344,2|0,3:1|0:0,0:0:0:0:
339,81,71289,6,0,L|189:66,1,143.999995605469,4|0,3:2|0:0,0:0:0:0:
291,170,71688,1,2,3:1:0:0:
195,66,71821,2,0,L|109:74,1,71.9999978027344,4|0,3:2|0:0,0:0:0:0:
219,162,72087,2,0,L|290:169,1,71.9999978027344,2|0,3:1|0:0,0:0:0:0:
380,229,72353,5,4,3:2:0:0:
380,229,72486,1,2,3:2:0:0:
460,156,72619,2,0,P|453:100|443:69,1,71.9999978027344,2|4,3:1|3:0,0:0:0:0:
355,30,72885,1,6,3:2:0:0:
355,30,73018,1,4,3:0:0:0:
247,29,73151,1,2,3:1:0:0:
173,107,73284,1,4,3:0:0:0:
173,107,73351,1,2,3:1:0:0:
173,107,73417,6,0,P|159:165|165:193,1,71.9999978027344,6|2,3:2|1:1,0:0:0:0:
250,235,73683,2,0,P|264:293|258:321,1,71.9999978027344,6|4,3:1|1:3,0:0:0:0:
231,349,73883,1,4,1:3:0:0:
231,349,73949,2,0,L|138:359,1,71.9999978027344,4|4,3:2|1:3,0:0:0:0:
55,323,74216,2,0,L|47:251,1,71.9999978027344,4|4,3:2|1:3,0:0:0:0:
38,198,74415,1,4,1:3:0:0:
38,198,74482,6,0,L|39:156,3,35.9999989013672,4|0|2|0,3:2|1:0|1:2|1:0,0:0:0:0:
110,112,74748,2,0,L|111:70,3,35.9999989013672,4|2|2|0,3:0|1:2|1:2|1:0,0:0:0:0:
181,162,75014,2,0,L|182:198,3,35.9999989013672,4|0|2|0,3:0|1:0|1:2|1:0,0:0:0:0:
240,97,75280,1,2,1:2:0:0:
272,82,75346,1,0,1:2:0:0:
308,74,75413,1,2,1:2:0:0:
343,73,75479,1,2,1:2:0:0:
379,79,75546,5,6,1:2:0:0:
143,130,77409,6,0,P|105:179|101:215,1,95.9999970703126,4|0,3:2|3:0,0:0:0:0:
133,291,77674,1,4,3:2:0:0:
133,291,79448,6,0,P|208:304|283:282,1,143.999995605469,4|4,3:2|3:2,0:0:0:0:
344,239,79803,6,0,L|360:86,1,143.999995605469,4|8,3:2|1:2,0:0:0:0:
188,54,80247,1,2,3:2:0:0:
150,83,80335,2,0,L|140:198,1,95.9999970703126,2|0,0:0|3:0,0:0:0:0:
63,216,80602,2,0,L|53:101,1,95.9999970703126,4|0,3:2|3:0,0:0:0:0:
44,34,80867,5,4,0:0:0:0:
225,40,81045,1,0,3:0:0:0:
272,43,81133,1,8,1:2:0:0:
365,169,81312,1,0,3:0:0:0:
318,172,81400,1,2,0:0:0:0:
230,281,81577,1,2,3:2:0:0:
277,284,81666,2,0,P|361:286|401:295,1,95.9999970703126,8|0,1:2|0:0,0:0:0:0:
451,323,81932,6,0,L|461:203,1,95.9999970703126,4|2,3:2|0:0,0:0:0:0:
469,141,82198,1,0,3:0:0:0:
316,61,82375,2,0,P|237:53|143:75,1,143.999995605469,4|2,3:2|3:3,0:0:0:0:
96,103,82730,2,0,P|82:182|81:207,1,95.9999970703126,4|0,3:2|3:0,0:0:0:0:
130,268,82996,6,0,L|122:302,4,23.9999992675781,4|0|0|0|0,1:2|1:0|1:0|1:0|1:0,0:0:0:0:
209,301,83262,2,0,L|201:335,4,23.9999992675781,4|0|0|0|0,1:2|1:0|0:0|1:0|0:0,0:0:0:0:
288,334,83528,2,0,L|280:368,4,23.9999992675781,4|0|0|0|0,1:2|1:0|1:0|1:0|1:0,0:0:0:0:
367,301,83794,2,0,L|375:335,4,23.9999992675781,4|0|0|0|8,1:2|0:0|0:0|0:0|0:3,0:0:0:0:
331,221,84061,6,0,L|350:166,2,47.9999985351563,4|0|2,3:2|0:3|0:0,0:0:0:0:
261,129,84327,2,0,L|246:175,2,47.9999985351563,0|0|2,3:3|0:0|0:0,0:0:0:0:
161,129,84593,2,0,L|176:83,2,47.9999985351563,0|0|2,3:0|0:0|0:0,0:0:0:0:
89,37,84859,1,0,3:0:0:0:
111,223,85036,1,2,0:0:0:0:
156,243,85125,6,0,L|141:289,2,47.9999985351563,0|0|2,3:0|0:3|0:0,0:0:0:0:
226,336,85391,2,0,L|241:290,2,47.9999985351563,0|0|2,3:3|0:0|0:0,0:0:0:0:
321,320,85657,2,0,L|336:365,2,47.9999985351563,0|0|2,3:0|0:3|0:0,0:0:0:0:
306,235,85924,1,2,3:2:0:0:
159,50,86100,1,8,0:3:0:0:
113,62,86189,6,0,L|74:103,2,47.9999985351563,4|0|2,3:2|0:3|0:0,0:0:0:0:
171,185,86455,2,0,L|154:130,2,47.9999985351563,0|4|8,3:3|0:3|0:3,0:0:0:0:
35,173,86721,1,8,3:3:0:0:
44,220,86810,1,8,3:3:0:0:
53,267,86898,1,8,3:3:0:0:
62,314,86987,2,0,L|179:320,1,95.9999970703126,4|8,3:2|0:3,0:0:0:0:
278,294,87253,5,8,3:3:0:0:
287,247,87342,1,8,3:3:0:0:
296,200,87430,1,4,3:2:0:0:
305,153,87519,2,0,L|363:154,2,47.9999985351563,8|8|4,3:3|0:3|0:2,0:0:0:0:
249,75,87786,2,0,L|250:17,2,47.9999985351563,12|12|12,3:3|3:3|3:3,0:0:0:0:
305,153,88051,1,4,3:2:0:0:
75,129,88229,1,8,0:3:0:0:
26,127,88318,6,0,P|18:199|20:204,2,53.3333333333333,4|8|8,3:2|0:3|0:3,0:0:0:0:
171,131,88584,2,0,P|112:88|107:87,2,53.3333333333333,8|8|0,3:3|0:3|0:3,0:0:0:0:
95,254,88850,2,0,P|161:224|164:220,2,53.3333333333333,12|12|12,3:3|3:3|3:3,0:0:0:0:
97,170,89116,1,4,3:2:0:0:
261,50,89293,1,2,0:0:0:0:
304,57,89382,6,0,L|366:50,2,53.3333333333333,8|8|8,1:3|1:3|1:3,0:0:0:0:
326,161,89648,1,12,3:3:0:0:
335,214,89737,1,12,3:3:0:0:
344,266,89826,1,12,3:3:0:0:
354,319,89914,2,0,L|292:326,2,53.3333333333333,8|12|12,1:3|3:3|3:3,0:0:0:0:
446,345,90180,1,4,3:2:0:0:
256,192,90446,12,6,92575,3:2:0:0:
256,192,101089,12,2,102153,0:0:0:0:
122,81,102686,6,0,P|112:126|109:147,1,64,2|2,0:0|0:0,0:0:0:0:
203,197,102952,2,0,P|213:152|216:131,1,64,10|2,0:0|0:3,0:0:0:0:
308,48,103218,6,0,P|305:79|296:92,3,32,4|0|0|2,1:2|1:0|1:0|1:2,0:0:0:0:
378,118,103484,2,0,P|359:143|345:150,3,32,0|0|0|2,1:0|1:0|1:0|1:2,0:0:0:0:
403,213,103750,2,0,P|374:225|358:224,3,32,0|0|2|0,1:0|1:0|1:0|1:0,0:0:0:0:
377,307,104016,2,0,P|346:304|333:295,3,32,2|0|2|0,1:0|1:0|1:0|1:0,0:0:0:0:
253,338,104282,6,0,L|267:288,3,32,2|0|0|2,1:0|1:0|1:0|1:0,0:0:0:0:
192,254,104548,2,0,L|184:285,3,32,2|0|0|2,1:0|1:0|1:0|1:0,0:0:0:0:
115,232,104815,2,0,L|129:182,3,32,2|0|0|2,1:0|1:0|1:0|1:0,0:0:0:0:
54,148,105081,2,0,L|46:179,3,32,2|2|2|2,1:0|1:2|1:2|1:2,0:0:0:0:
33,258,105346,5,2,1:0:0:0:
256,192,105413,12,4,106943,3:2:0:0:
303,55,107342,5,8,3:0:0:0:
303,55,107408,1,8,3:0:0:0:
303,55,107476,6,0,L|125:31,1,160,4|0,3:2|3:0,0:0:0:0:
35,59,107874,1,2,0:0:0:0:
4,166,108007,2,0,P|8:215|22:248,1,80,2|2,3:1|0:0,0:0:0:0:
93,326,108273,2,0,P|130:339|170:341,1,80,2|2,3:1|0:0,0:0:0:0:
234,249,108539,6,0,P|270:269|284:275,2,40,2|0|2,3:1|0:3|0:0,0:0:0:0:
206,199,108739,1,2,0:1:0:0:
206,199,108805,2,0,P|205:139|207:106,1,80,0|2,3:0|0:1,0:0:0:0:
315,89,109071,2,0,P|316:128|320:168,1,80,2|2,3:1|0:0,0:0:0:0:
358,272,109337,1,2,3:1:0:0:
463,234,109471,1,4,3:0:0:0:
424,130,109604,6,0,P|429:60|469:22,1,120,4|0,3:2|0:0,0:0:0:0:
315,89,109870,2,0,P|256:88|210:51,1,120,2|0,3:1|0:0,0:0:0:0:
318,187,110136,2,0,L|446:117,1,120,4|0,3:2|0:0,0:0:0:0:
463,234,110402,1,2,3:1:0:0:
427,254,110468,1,0,3:0:0:0:
392,273,110535,1,4,3:0:0:0:
357,292,110601,1,0,3:0:0:0:
322,311,110668,6,0,P|211:301|148:265,1,160,4|2,3:2|3:2,0:0:0:0:
93,186,111067,1,2,0:1:0:0:
93,186,111133,1,2,0:1:0:0:
93,186,111200,2,0,B|70:124|70:124|80:64,2,120,4|2|0,3:2|0:1|1:0,0:0:0:0:
193,119,111732,6,0,P|252:108|295:103,1,80,6|2,1:2|0:0,0:0:0:0:
382,152,111998,1,0,3:0:0:0:
382,152,112131,1,2,0:0:0:0:
348,267,112264,2,0,P|289:278|246:283,1,80,0|2,3:0|0:0,0:0:0:0:
159,234,112530,1,2,0:1:0:0:
193,119,112663,1,2,0:1:0:0:
289,48,112797,6,0,L|420:24,1,120,2|2,3:1|0:1,0:0:0:0:
291,172,113063,2,0,P|226:157|184:91,1,120,0|2,3:0|0:1,0:0:0:0:
407,26,113329,2,0,L|383:157,1,120,0|2,3:0|0:1,0:0:0:0:
453,218,113595,1,0,3:0:0:0:
450,257,113661,1,2,0:0:0:0:
433,293,113728,1,2,0:0:0:0:
404,320,113794,1,2,0:1:0:0:
367,335,113861,6,0,P|291:338|277:338,1,80,2|2,3:1|0:0,0:0:0:0:
168,351,114127,2,0,P|128:350|88:348,1,80,0|2,3:0|0:0,0:0:0:0:
43,236,114393,1,0,3:0:0:0:
43,236,114526,1,2,0:1:0:0:
146,176,114659,1,2,3:1:0:0:
43,116,114792,1,2,0:1:0:0:
146,176,114925,6,0,L|302:174,1,120,2|2,3:1|0:1,0:0:0:0:
326,178,115191,2,0,P|320:224|324:245,2,40,0|2|2,3:0|0:1|0:0,0:0:0:0:
424,293,115457,2,0,P|422:273|417:253,2,40,2|0|2,3:1|0:0|0:0,0:0:0:0:
324,359,115723,1,2,3:2:0:0:
204,359,115856,1,2,3:1:0:0:
104,293,115990,6,0,L|102:141,1,120,4|2,3:2|0:1,0:0:0:0:
104,112,116255,2,0,P|67:140|61:140,2,40,0|2|2,3:0|0:1|0:0,0:0:0:0:
218,73,116522,2,0,P|212:26|215:21,2,40,2|0|0,3:1|0:0|0:0,0:0:0:0:
194,191,116788,1,2,3:1:0:0:
214,289,116921,1,0,3:0:0:0:
322,193,117054,6,0,L|303:364,1,160,4|0,3:2|3:0,0:0:0:0:
412,256,117453,1,0,3:0:0:0:
330,113,117586,2,0,L|321:192,1,80,4|2,3:2|0:0,0:0:0:0:
423,292,117852,1,2,3:1:0:0:
321,192,117985,1,2,3:1:0:0:
229,286,118118,6,0,P|160:296|128:287,1,80,4|0,3:2|3:0,0:0:0:0:
114,167,118384,2,0,P|183:157|215:166,1,80,0|4,3:0|3:0,0:0:0:0:
321,192,118650,1,4,3:2:0:0:
229,286,118783,1,2,3:1:0:0:
323,378,118916,1,2,3:1:0:0:
423,292,119049,1,2,3:1:0:0:
423,292,119116,1,0,3:0:0:0:
423,292,119182,6,0,P|446:245|453:209,1,80,4|2,3:2|3:2,0:0:0:0:
466,91,119448,1,4,3:0:0:0:
363,34,119581,1,4,3:0:0:0:
363,34,119648,1,4,3:0:0:0:
363,34,119714,2,0,P|289:38|260:45,1,80,4|2,3:2|3:2,0:0:0:0:
172,85,119980,1,4,3:2:0:0:
138,201,120114,1,2,1:2:0:0:
138,201,120180,1,2,1:2:0:0:
138,201,120247,6,0,P|135:250|142:269,3,40,6|2|2|2,3:2|1:0|1:0|1:0,0:0:0:0:
218,233,120513,2,0,P|250:269|268:278,3,40,4|2|2|2,1:2|1:2|1:2|1:2,0:0:0:0:
297,199,120779,2,0,P|346:202|365:194,3,40,2|2|0|4,1:0|1:0|0:0|1:2,0:0:0:0:
328,119,121045,1,2,1:2:0:0:
318,80,121111,1,2,1:2:0:0:
296,47,121178,1,2,1:2:0:0:
265,22,121244,1,2,1:2:0:0:
227,8,121311,6,0,L|133:17,2,80,4|0|4,3:2|0:0|3:2,0:0:0:0:
379,10,121710,1,2,1:2:0:0:
379,10,121776,1,2,1:2:0:0:
379,10,121843,2,0,L|473:18,2,80,6|2|6,3:2|3:2|3:2,0:0:0:0:
269,115,122242,1,2,1:2:0:0:
269,115,122309,1,2,1:2:0:0:
269,115,122376,6,0,P|252:158|253:169,3,40,6|2|2|2,3:2|3:2|3:1|3:2,0:0:0:0:
335,174,122642,2,0,P|346:190|352:210,3,40,2|2|2|2,3:1|3:2|3:1|3:1,0:0:0:0:
268,233,122908,2,0,P|256:249|251:268,3,40,2|2|2|2,3:2|3:1|3:1|3:1,0:0:0:0:
335,291,123174,1,2,3:2:0:0:
374,288,123241,1,2,3:1:0:0:
414,285,123307,1,2,3:1:0:0:
454,282,123374,1,2,3:1:0:0:
494,279,123440,5,6,1:2:0:0:
256,192,123507,12,0,125303,0:0:0:0:
170,78,125568,5,4,1:2:0:0:
136,98,125634,1,0,1:0:0:0:
112,131,125701,1,2,1:2:0:0:
103,169,125767,1,2,1:2:0:0:
109,209,125835,2,0,P|112:255|112:266,3,40,2|2|2|2,1:2|1:2|1:2|1:2,0:0:0:0:
194,315,126101,2,0,P|192:334|191:354,3,40,0|2|2|2,1:0|1:2|1:2|1:2,0:0:0:0:
293,277,126367,2,0,P|294:297|296:317,3,40,2|2|2|2,1:2|1:2|1:2|1:2,0:0:0:0:
342,348,126633,5,0,1:0:0:0:
342,348,126700,2,0,P|408:298|416:284,1,80,2|2,1:2|1:2,0:0:0:0:
440,258,126898,1,0,1:0:0:0:
440,258,126965,2,0,P|390:192|376:184,1,80,2|2,1:2|1:2,0:0:0:0:
342,171,127165,6,0,P|345:129|344:126,3,40,2|2|2|2,0:0|0:0|0:0|0:0,0:0:0:0:
254,92,127431,2,0,P|252:111|257:131,3,40,2|2|4|4,0:0|0:0|1:3|1:3,0:0:0:0:
332,41,127697,5,4,3:2:0:0:
