osu file format v14

[General]
AudioFilename: xi.mp3
AudioLeadIn: 0
PreviewTime: 57387
Countdown: 0
SampleSet: Normal
StackLeniency: 0.7
Mode: 0
LetterboxInBreaks: 1
WidescreenStoryboard: 1

[Editor]
DistanceSpacing: 3.2
BeatDivisor: 4
GridSize: 4
TimelineZoom: 2.799999

[Metadata]
Title:Ganbaruzo
TitleUnicode:Ganbaruzo↓
Artist:SakiZ
ArtistUnicode:SakiZ
Creator:VGogetto
Version:AOBA DIMENSIONS
Source:
Tags:xi freedom dive glorious crown monstrata nakagawa kanon snow nino atsuro new game aoba pikastar haruto logic agent
BeatmapID:1372535
BeatmapSetID:647728

[Difficulty]
HPDrainRate:6
CircleSize:4
OverallDifficulty:4
ApproachRate:9.5
SliderMultiplier:1.9
SliderTickRate:1

[Events]
//Background and Video events
0,0,"BG.jpg",0,0
Video,0,"Ganbaruzo↓.avi"
//Break Periods
2,75746,76883
2,77875,78923
2,92775,96440
//Storyboard Layer 0 (Background)
//Storyboard Layer 1 (Fail)
//Storyboard Layer 2 (Pass)
//Storyboard Layer 3 (Foreground)
//Storyboard Sound Samples

[TimingPoints]
4239,266.075388026608,4,1,0,70,1,0
4239,-83.3333333333333,4,2,0,70,0,0
12553,-83.3333333333333,4,1,0,40,0,0
12753,-83.3333333333333,4,2,0,70,0,0
17941,-83.3333333333333,4,1,0,40,0,0
18074,-83.3333333333333,4,2,0,70,0,0
21267,-100,4,1,0,50,0,0
23396,-100,4,1,0,70,0,0
40425,-83.3333333333333,4,1,0,70,0,1
53196,-71.4285714285714,4,1,0,70,0,1
54261,-71.4285714285714,4,1,0,70,0,0
54527,-71.4285714285714,4,1,0,40,0,0
54793,-71.4285714285714,4,1,0,10,0,0
55325,-71.4285714285714,4,1,0,10,0,0
55458,-71.4285714285714,4,1,0,15,0,0
55591,-71.4285714285714,4,1,0,20,0,0
55724,-71.4285714285714,4,1,0,30,0,0
55857,-71.4285714285714,4,1,0,40,0,0
55990,-71.4285714285714,4,1,0,50,0,0
56123,-71.4285714285714,4,1,0,60,0,0
56256,-71.4285714285714,4,1,0,70,0,0
56389,-71.4285714285714,4,1,0,80,0,0
56921,-100,4,2,5,85,0,0
57188,-100,4,2,5,85,0,0
57254,-100,4,2,5,70,0,0
57454,-101.010101010101,4,2,5,80,0,1
73418,-100,4,2,5,85,0,1
74482,-100,4,2,5,90,0,1
75547,-100,4,2,3,75,0,0
77409,-100,4,2,3,70,0,0
77498,-100,4,2,3,5,0,0
77587,-100,4,2,3,70,0,0
77764,-100,4,2,3,5,0,0
77853,-101.010101010101,4,2,3,70,0,0
84061,-86.9565217391304,4,2,3,80,0,0
90447,-86.9565217391304,4,2,5,80,0,0
101090,-100,4,2,3,80,0,0
102154,-100,4,2,3,60,0,0
102952,-100,4,2,3,75,0,0
103019,-100,4,2,3,60,0,0
103219,-100,4,2,3,50,0,0
103751,-100,4,2,3,55,0,0
104283,-100,4,2,3,60,0,0
104815,-100,4,2,3,65,0,0
105347,-100,4,2,3,70,0,0
105879,-100,4,2,5,65,0,0
106411,-100,4,2,3,60,0,0
106944,-86.9565217391304,4,2,3,70,0,0
107476,-100,4,2,5,80,0,1
111666,-100,4,2,5,80,0,0
111733,-83.3333333333333,4,2,5,90,0,1
111799,-83.3333333333333,4,2,5,80,0,1
119183,-83.3333333333333,4,2,5,80,0,1
120247,-83.3333333333333,4,2,5,85,0,1
122376,-83.3333333333333,4,2,5,90,0,1
123440,-400,4,2,5,80,0,0
125436,-83.3333333333333,4,2,5,60,0,0
125569,-83.3333333333333,4,2,5,80,0,1
125968,-83.3333333333333,4,2,5,90,0,1
126101,-83.3333333333333,4,2,5,80,0,1
126234,-83.3333333333333,4,2,5,90,0,1
126367,-83.3333333333333,4,2,5,80,0,1
127165,-83.3333333333333,4,2,3,65,0,1
127232,-83.3333333333333,4,2,3,80,0,1
127298,-83.3333333333333,4,2,3,70,0,1
127365,-83.3333333333333,4,2,3,85,0,1
127431,-83.3333333333333,4,2,3,90,0,1
127631,-83.3333333333333,4,2,5,70,0,0
127697,-83.3333333333333,4,2,5,60,0,1
127764,-83.3333333333333,4,2,5,60,0,0

[HitObjects]
432,344,4239,6,0,B|472:320|472:320|472:176,1,171.000004076958
472,195,4505,1,0,0:0:0:0:
376,128,4638,1,0,0:0:0:0:
344,240,4771,1,0,0:0:0:0:
344,240,4837,2,0,B|304:296|240:280,1,114.000002717972
200,248,5037,2,0,B|224:320|200:376,1,114.000002717972
40,264,5303,5,0,0:0:0:0:
0,160,5436,1,0,0:0:0:0:
0,160,5502,1,0,0:0:0:0:
0,160,5569,1,0,0:0:0:0:
80,80,5702,1,0,0:0:0:0:
184,136,5835,1,0,0:0:0:0:
184,136,5901,1,0,0:0:0:0:
168,248,6035,1,0,0:0:0:0:
168,248,6101,1,0,0:0:0:0:
272,208,6234,1,0,0:0:0:0:
264,320,6367,6,0,B|392:336,1,114.000002717972,0|0,0:0|0:0,0:0:0:0:
432,312,6567,1,0,0:0:0:0:
432,312,6633,2,0,B|416:256|416:256|448:192,1,114.000002717972,0|0,0:0|0:0,0:0:0:0:
344,40,6899,1,0,0:0:0:0:
368,56,6966,2,0,B|384:136|384:136|336:224,1,171.000004076958,0|0,0:0|0:0,0:0:0:0:
280,120,7298,1,0,0:0:0:0:
176,168,7431,6,0,B|48:168,1,114.000002717972,0|0,0:0|0:0,0:0:0:0:
16,200,7631,1,0,0:0:0:0:
24,256,7697,1,0,0:0:0:0:
72,288,7764,1,0,0:0:0:0:
128,288,7831,1,0,0:0:0:0:
184,272,7897,1,0,0:0:0:0:
240,288,7964,1,0,0:0:0:0:
280,328,8030,1,0,0:0:0:0:
336,344,8097,1,0,0:0:0:0:
376,312,8163,1,0,0:0:0:0:
392,256,8230,1,0,0:0:0:0:
368,208,8296,1,0,0:0:0:0:
312,192,8363,1,0,0:0:0:0:
264,216,8429,1,0,0:0:0:0:
216,192,8496,6,0,B|176:136|224:48|304:64,1,171.000004076958
336,112,8762,2,0,B|448:88,1,114.000002717972,0|0,0:0|0:0,0:0:0:0:
504,192,9028,5,0,0:0:0:0:
488,248,9094,1,0,0:0:0:0:
472,304,9161,1,0,0:0:0:0:
392,224,9294,5,0,0:0:0:0:
376,280,9360,1,0,0:0:0:0:
360,336,9427,1,0,0:0:0:0:
152,336,9560,5,0,0:0:0:0:
136,280,9627,1,0,0:0:0:0:
120,224,9693,1,0,0:0:0:0:
40,304,9826,5,0,0:0:0:0:
24,248,9893,1,0,0:0:0:0:
8,192,9959,1,0,0:0:0:0:
176,104,10092,6,0,B|96:80,2,57.0000013589859,0|0|0,0:0|0:0|0:0,0:0:0:0:
336,104,10358,2,0,B|416:80,2,57.0000013589859,0|0|0,0:0|0:0|0:0,0:0:0:0:
256,184,10624,6,0,B|256:304,1,114.000002717972,0|0,0:0|0:0,0:0:0:0:
360,336,10890,2,0,B|416:296|384:224,1,114.000002717972,0|0,0:0|0:0,0:0:0:0:
123,235,11156,2,0,B|96:296|152:336,1,114.000002717972,0|0,0:0|0:0,0:0:0:0:
256,296,11423,1,0,0:0:0:0:
256,184,11556,5,0,0:0:0:0:
256,184,11622,1,0,0:0:0:0:
256,184,11689,1,0,0:0:0:0:
236,143,11755,1,0,0:0:0:0:
237,97,11822,1,0,0:0:0:0:
268,64,11888,1,0,0:0:0:0:
313,57,11955,1,0,0:0:0:0:
357,66,12021,1,0,0:0:0:0:
388,99,12088,1,0,0:0:0:0:
396,143,12154,1,0,0:0:0:0:
383,187,12221,1,0,0:0:0:0:
354,222,12287,1,0,0:0:0:0:
333,262,12354,1,0,0:0:0:0:
333,307,12420,1,0,0:0:0:0:
359,344,12487,1,0,0:0:0:0:
314,337,12553,1,0,0:0:0:0:
268,334,12620,1,8,0:0:0:0:
223,340,12686,1,8,0:0:0:0:
178,349,12753,6,2,B|109:357|70:283,1,114.000002717972,6|0,0:0|0:0,0:0:0:0:
48,192,13019,1,0,0:0:0:0:
256,184,13152,2,0,B|240:248|152:240,1,114.000002717972
152,128,13418,1,0,0:0:0:0:
248,72,13551,2,0,B|320:64|360:128,1,114.000002717972
464,288,13817,6,0,B|488:248|456:200,1,76.0000018119812
344,256,13995,2,0,B|320:296|352:344,1,76.0000018119812
232,360,14216,1,0,0:0:0:0:
152,280,14349,2,0,B|88:272|32:320|32:360,1,114.000002717972
8,280,14549,1,0,0:0:0:0:
32,232,14615,2,0,B|48:168|24:112,1,114.000002717972
0,72,14815,1,0,0:0:0:0:
48,40,14882,6,2,B|172:24,1,114.000002717972,6|2,0:0|0:0,0:0:0:0:
256,80,15148,1,0,0:0:0:0:
192,216,15281,2,0,B|136:168|176:88,1,114.000002717972
352,48,15547,2,0,B|408:96|368:176,1,114.000002717972
312,248,15813,1,0,0:0:0:0:
224,320,15946,5,0,0:0:0:0:
183,339,16012,1,0,0:0:0:0:
137,340,16079,1,0,0:0:0:0:
100,313,16145,1,0,0:0:0:0:
109,268,16212,1,0,0:0:0:0:
150,250,16278,1,0,0:0:0:0:
179,214,16345,1,0,0:0:0:0:
174,168,16411,1,0,0:0:0:0:
140,136,16478,1,0,0:0:0:0:
94,135,16544,1,0,0:0:0:0:
56,161,16611,1,0,0:0:0:0:
13,146,16678,1,0,0:0:0:0:
1,101,16744,1,0,0:0:0:0:
11,56,16811,1,0,0:0:0:0:
53,39,16877,1,0,0:0:0:0:
96,50,16944,1,0,0:0:0:0:
141,42,17010,6,2,B|198:52|264:32,1,114.000002717972,6|2,0:0|0:0,0:0:0:0:
264,88,17210,1,0,0:0:0:0:
320,88,17276,2,0,B|306:157|322:205,1,114.000002717972
392,288,17542,1,0,0:0:0:0:
448,272,17609,1,0,0:0:0:0:
496,296,17675,2,0,B|509:226|493:178,2,114.000002717972,0|0|2,0:0|0:0|0:0,0:0:0:0:
320,352,18074,5,4,0:0:0:0:
184,328,18207,1,0,0:0:0:0:
120,208,18340,1,0,0:0:0:0:
184,88,18474,1,0,0:0:0:0:
320,72,18607,6,0,B|408:88|384:192,1,114.000002717972,4|0,0:0|0:0,0:0:0:0:
368,200,18806,1,0,0:0:0:0:
312,216,18873,1,0,0:0:0:0:
368,320,19006,1,0,0:0:0:0:
248,360,19139,5,6,0:0:0:0:
205,344,19205,1,0,0:0:0:0:
159,340,19272,1,0,0:0:0:0:
114,349,19338,1,0,0:0:0:0:
69,360,19405,1,0,0:0:0:0:
25,347,19471,1,0,0:0:0:0:
9,303,19538,1,0,0:0:0:0:
21,259,19604,1,0,0:0:0:0:
59,233,19671,1,4,0:0:0:0:
103,241,19737,1,0,0:0:0:0:
148,237,19804,1,0,0:0:0:0:
181,206,19870,1,0,0:0:0:0:
200,164,19937,1,4,0:0:0:0:
194,119,20003,1,0,0:0:0:0:
174,77,20070,1,2,0:0:0:0:
140,46,20137,1,0,0:0:0:0:
185,46,20203,5,4,0:0:0:0:
229,50,20270,1,0,0:0:0:0:
267,75,20336,1,0,0:0:0:0:
289,114,20403,1,0,0:0:0:0:
330,133,20469,1,4,0:0:0:0:
363,103,20536,1,0,0:0:0:0:
363,57,20602,1,0,0:0:0:0:
395,25,20669,1,0,0:0:0:0:
440,34,20735,1,4,0:0:0:0:
468,69,20802,1,0,0:0:0:0:
472,114,20868,1,0,0:0:0:0:
438,144,20935,1,0,0:0:0:0:
405,176,21001,1,4,0:0:0:0:
392,219,21068,1,0,0:0:0:0:
413,259,21134,1,0,0:0:0:0:
420,296,21201,1,0,0:0:0:0:
414,338,21267,6,0,B|555:338,2,95,4|0|0,0:0|0:0|0:0,0:0:0:0:
104,272,21666,1,0,0:0:0:0:
104,272,21733,1,0,0:0:0:0:
104,272,21799,2,0,B|-4:274,2,95,4|0|0,0:0|0:0|0:0,0:0:0:0:
464,160,22199,5,0,0:0:0:0:
464,160,22265,1,0,0:0:0:0:
464,160,22332,2,0,B|528:168,3,47.5,4|0|0|0,0:0|0:0|0:0|0:0,0:0:0:0:
448,72,22598,2,0,B|512:64,3,47.5,4|0|0|0,0:0|0:0|0:0|0:0,0:0:0:0:
376,32,22864,2,0,B|408:-8,3,47.5,4|0|0|0,0:0|0:0|0:0|0:0,0:0:0:0:
296,48,23130,1,0,0:0:0:0:
252,63,23196,1,0,0:0:0:0:
205,70,23263,1,0,0:0:0:0:
165,47,23329,1,0,0:0:0:0:
135,10,23396,6,0,B|141:86|130:137,1,95,4|0,0:0|0:0,0:0:0:0:
48,336,23662,2,0,B|42:260|53:209,1,95,8|0,0:0|0:0,0:0:0:0:
304,248,23928,1,0,0:0:0:0:
304,248,23995,1,0,0:0:0:0:
304,248,24061,2,0,B|256:240|208:248,1,95,0|8,0:0|0:0,0:0:0:0:
256,328,24327,1,0,0:0:0:0:
336,160,24460,6,0,B|384:168|440:160,1,95
248,40,24726,2,0,B|296:32|352:40,1,95,8|0,0:0|0:0,0:0:0:0:
152,160,24992,2,0,B|200:168|256:160,1,95
64,40,25258,2,0,B|112:32|168:40,1,95,8|0,0:0|0:0,0:0:0:0:
64,160,25525,6,0,B|0:248|80:352,1,190,0|8,0:0|0:0,0:0:0:0:
152,296,25924,1,0,0:0:0:0:
240,328,26057,1,0,0:0:0:0:
240,328,26123,1,0,0:0:0:0:
240,328,26190,2,0,B|336:320,2,95,0|8|0,0:0|0:0|0:0,0:0:0:0:
432,272,26589,6,0,B|440:224|416:176,1,95
472,104,26855,2,0,B|384:32|296:120,1,190,8|0,0:0|0:0,0:0:0:0:
208,136,27254,1,0,0:0:0:0:
208,136,27321,1,0,0:0:0:0:
208,136,27387,2,0,B|184:80|200:24,1,95,8|0,0:0|0:0,0:0:0:0:
152,224,27653,6,0,B|40:216,1,95
224,320,27919,2,0,B|336:312,1,95,8|0,0:0|0:0,0:0:0:0:
504,208,28185,2,0,B|528:128|440:80|384:136,1,190,0|8,0:0|0:0,0:0:0:0:
304,176,28584,5,0,0:0:0:0:
304,176,28651,1,0,0:0:0:0:
304,176,28717,2,0,B|288:120|312:80,1,95
392,232,28984,2,0,B|408:288|384:328,1,95,8|0,0:0|0:0,0:0:0:0:
192,208,29250,2,0,B|128:112|192:24,1,190,0|8,0:0|0:0,0:0:0:0:
188,31,29649,1,0,0:0:0:0:
256,296,29782,6,0,B|200:344|112:320|88:240,1,190,0|8,0:0|0:0,0:0:0:0:
104,168,30181,1,0,0:0:0:0:
192,208,30314,2,0,B|248:160|336:184|360:264,1,190,0|8,0:0|0:0,0:0:0:0:
472,64,30713,5,0,0:0:0:0:
424,72,30780,1,0,0:0:0:0:
377,71,30846,1,4,0:0:0:0:
331,58,30913,1,0,0:0:0:0:
290,35,30979,1,0,0:0:0:0:
252,64,31046,1,0,0:0:0:0:
208,80,31112,1,12,0:0:0:0:
161,75,31179,1,0,0:0:0:0:
133,38,31245,1,0,0:0:0:0:
88,23,31312,1,0,0:0:0:0:
42,32,31378,1,4,0:0:0:0:
15,72,31445,1,0,0:0:0:0:
23,119,31511,1,0,0:0:0:0:
54,156,31578,1,0,0:0:0:0:
101,163,31644,1,12,0:0:0:0:
149,163,31711,1,0,0:0:0:0:
191,186,31777,1,0,0:0:0:0:
214,229,31844,1,0,0:0:0:0:
219,276,31910,6,0,B|188:322|132:305,1,95,4|0,0:0|0:0,0:0:0:0:
328,256,32176,2,0,B|352:304|304:352,1,95,8|0,0:0|0:0,0:0:0:0:
400,160,32442,1,0,0:0:0:0:
400,160,32509,1,0,0:0:0:0:
400,160,32576,2,0,B|448:184|464:248,2,95,0|8|0,0:0|0:0|0:0,0:0:0:0:
272,40,32975,6,0,B|160:64|192:16|64:48,1,190,0|8,0:0|0:0,0:0:0:0:
32,120,33374,1,0,0:0:0:0:
44,167,33440,1,0,0:0:0:0:
80,199,33507,1,0,0:0:0:0:
127,211,33573,1,0,0:0:0:0:
174,203,33640,1,0,0:0:0:0:
264,235,33773,2,0,B|283:283|261:332,1,95,8|0,0:0|0:0,0:0:0:0:
400,160,34039,6,0,B|496:144,1,95
360,32,34305,2,0,B|264:-24|176:56,1,190,8|0,0:0|0:0,0:0:0:0:
128,128,34704,1,0,0:0:0:0:
128,128,34771,1,0,0:0:0:0:
128,128,34837,2,0,B|144:184|120:240,1,95,8|0,0:0|0:0,0:0:0:0:
216,360,35103,6,0,B|344:360|320:216,1,190,0|8,0:0|0:0,0:0:0:0:
496,72,35502,1,0,0:0:0:0:
496,72,35569,1,0,0:0:0:0:
496,72,35635,2,0,B|376:96,1,95
208,72,35901,2,0,B|328:48,1,95,8|0,0:0|0:0,0:0:0:0:
48,88,36168,6,0,B|32:216|96:152|72:296,1,190,0|8,0:0|0:0,0:0:0:0:
152,328,36567,1,0,0:0:0:0:
216,256,36700,1,0,0:0:0:0:
208,208,36766,1,0,0:0:0:0:
240,168,36833,2,0,B|248:104|224:56,2,95,0|8|0,0:0|0:0|0:0,0:0:0:0:
368,200,37232,6,0,B|416:200|488:160,1,95
432,16,37498,2,0,B|384:16|312:56,1,95,8|0,0:0|0:0,0:0:0:0:
208,88,37764,2,0,B|136:176|224:272,1,190,0|8,0:0|0:0,0:0:0:0:
302,293,38163,1,0,0:0:0:0:
168,336,38296,5,4,0:0:0:0:
104,304,38429,1,0,0:0:0:0:
56,248,38562,1,8,0:0:0:0:
32,176,38695,1,0,0:0:0:0:
88,32,38828,5,4,0:0:0:0:
160,96,38961,1,0,0:0:0:0:
248,120,39094,1,8,0:0:0:0:
344,104,39227,1,0,0:0:0:0:
456,32,39360,5,4,0:0:0:0:
485,71,39427,1,0,0:0:0:0:
487,119,39493,1,0,0:0:0:0:
461,159,39560,1,0,0:0:0:0:
416,171,39627,1,12,0:0:0:0:
372,188,39693,1,0,0:0:0:0:
344,224,39760,1,0,0:0:0:0:
336,274,39826,1,0,0:0:0:0:
353,319,39893,1,4,0:0:0:0:
319,352,39959,1,0,0:0:0:0:
272,350,40026,1,0,0:0:0:0:
239,316,40092,1,0,0:0:0:0:
244,270,40159,1,12,0:0:0:0:
250,223,40225,1,0,0:0:0:0:
224,184,40292,1,0,0:0:0:0:
316,116,40425,6,0,B|328:176|320:242,1,113.999996520996,6|0,0:0|0:0,0:0:0:0:
303,281,40624,1,2,0:0:0:0:
248,262,40691,1,8,0:0:0:0:
191,261,40757,1,0,0:0:0:0:
139,286,40824,1,2,0:0:0:0:
103,330,40890,1,0,0:0:0:0:
45,335,40957,1,2,0:0:0:0:
9,290,41023,1,2,0:0:0:0:
17,233,41090,1,0,0:0:0:0:
64,202,41156,1,0,0:0:0:0:
121,200,41223,1,10,0:0:0:0:
172,176,41289,1,0,0:0:0:0:
190,121,41356,1,2,0:0:0:0:
176,66,41423,1,0,0:0:0:0:
126,37,41489,6,0,B|64:32|5:60,1,114.000002717972,2|0,0:0|0:0,0:0:0:0:
40,104,41689,1,2,0:0:0:0:
77,147,41755,1,8,0:0:0:0:
64,202,41822,1,0,0:0:0:0:
17,233,41888,1,2,0:0:0:0:
9,290,41955,1,0,0:0:0:0:
45,335,42021,1,2,0:0:0:0:
103,330,42088,1,2,0:0:0:0:
139,286,42154,1,0,0:0:0:0:
191,261,42221,1,0,0:0:0:0:
248,261,42287,2,0,B|309:251|377:271,1,114.000002717972,10|2,0:0|0:0,0:0:0:0:
488,112,42553,6,0,B|427:122|359:102,1,114.000002717972,2|0,0:0|0:0,0:0:0:0:
328,72,42753,1,2,0:0:0:0:
272,56,42819,1,8,0:0:0:0:
216,72,42886,1,0,0:0:0:0:
200,128,42952,1,2,0:0:0:0:
224,184,43019,1,0,0:0:0:0:
280,192,43086,1,2,0:0:0:0:
328,176,43152,1,2,0:0:0:0:
384,192,43219,1,0,0:0:0:0:
400,248,43285,1,0,0:0:0:0:
392,304,43352,1,10,0:0:0:0:
344,328,43418,1,0,0:0:0:0:
288,312,43485,1,2,0:0:0:0:
232,296,43551,1,0,0:0:0:0:
176,312,43618,6,0,B|48:336,1,114.000002717972,6|0,0:0|0:0,0:0:0:0:
24,296,43817,1,2,0:0:0:0:
40,240,43884,2,0,B|56:184|32:120,1,114.000002717972,12|2,0:0|0:0,0:0:0:0:
120,48,44150,5,4,0:0:0:0:
288,32,44283,1,2,0:0:0:0:
432,128,44416,1,12,0:0:0:0:
456,296,44549,1,2,0:0:0:0:
232,376,44682,6,0,B|168:384|120:336,1,114.000002717972,2|0,0:0|0:0,0:0:0:0:
96,296,44882,1,2,0:0:0:0:
88,240,44948,2,0,B|80:128,1,114.000002717972,8|2,0:0|0:0,0:0:0:0:
160,40,45214,5,2,0:0:0:0:
215,28,45281,1,0,0:0:0:0:
272,30,45347,1,0,0:0:0:0:
317,64,45414,1,0,0:0:0:0:
342,115,45480,1,10,0:0:0:0:
338,171,45547,1,0,0:0:0:0:
302,215,45613,1,0,0:0:0:0:
246,225,45680,1,0,0:0:0:0:
193,201,45746,5,2,0:0:0:0:
137,210,45813,1,0,0:0:0:0:
88,241,45879,1,0,0:0:0:0:
76,296,45946,1,0,0:0:0:0:
90,351,46012,1,10,0:0:0:0:
142,372,46079,1,0,0:0:0:0:
198,363,46145,1,0,0:0:0:0:
222,311,46212,1,0,0:0:0:0:
278,301,46278,1,2,0:0:0:0:
333,313,46345,1,0,0:0:0:0:
365,360,46411,1,0,0:0:0:0:
419,375,46478,1,0,0:0:0:0:
473,357,46544,1,10,0:0:0:0:
488,302,46611,1,0,0:0:0:0:
465,249,46678,1,0,0:0:0:0:
409,236,46744,1,0,0:0:0:0:
351,231,46811,5,2,0:0:0:0:
304,198,46877,1,0,0:0:0:0:
289,142,46944,1,0,0:0:0:0:
287,85,47010,1,0,0:0:0:0:
315,35,47077,1,10,0:0:0:0:
259,46,47143,1,0,0:0:0:0:
201,44,47210,1,0,0:0:0:0:
145,33,47276,1,0,0:0:0:0:
98,67,47343,1,2,0:0:0:0:
86,122,47409,1,0,0:0:0:0:
94,178,47476,1,0,0:0:0:0:
131,220,47542,1,0,0:0:0:0:
187,230,47609,1,10,0:0:0:0:
240,248,47675,1,0,0:0:0:0:
257,302,47742,1,0,0:0:0:0:
253,358,47808,1,0,0:0:0:0:
198,374,47875,5,2,0:0:0:0:
144,354,47941,1,0,0:0:0:0:
114,304,48008,1,0,0:0:0:0:
133,250,48074,1,0,0:0:0:0:
186,230,48141,1,12,0:0:0:0:
239,248,48207,1,0,0:0:0:0:
295,239,48274,1,0,0:0:0:0:
337,201,48340,1,0,0:0:0:0:
355,146,48407,1,6,0:0:0:0:
349,89,48474,1,0,0:0:0:0:
390,49,48540,1,0,0:0:0:0:
446,55,48607,1,0,0:0:0:0:
481,100,48673,1,12,0:0:0:0:
478,156,48740,1,0,0:0:0:0:
436,195,48806,1,0,0:0:0:0:
407,243,48873,1,0,0:0:0:0:
395,299,48939,6,0,B|449:285|517:307,1,114.000002717972,6|0,0:0|0:0,0:0:0:0:
304,352,49205,2,0,B|250:366|182:344,1,114.000002717972,10|0,0:0|0:0,0:0:0:0:
120,96,49471,2,2,B|16:184|104:320,1,228.000005435944,2|10,0:0|0:0,0:0:0:0:
192,240,49870,1,0,0:0:0:0:
304,264,50003,6,2,B|296:184,1,76.0000018119812
400,128,50181,2,2,B|408:208,1,76.0000018119812,2|10,0:0|0:0,0:0:0:0:
280,88,50403,1,0,0:0:0:0:
192,160,50536,2,0,B|128:192|64:152,1,114.000002717972,2|0,0:0|0:0,0:0:0:0:
56,112,50735,1,2,0:0:0:0:
16,152,50802,2,0,B|48:208|16:272,1,114.000002717972,8|2,0:0|0:0,0:0:0:0:
80,360,51068,5,2,0:0:0:0:
128,328,51134,1,0,0:0:0:0:
184,312,51201,1,0,0:0:0:0:
240,312,51267,1,0,0:0:0:0:
288,344,51334,1,10,0:0:0:0:
344,368,51400,1,0,0:0:0:0:
400,352,51467,1,0,0:0:0:0:
424,304,51533,1,0,0:0:0:0:
416,248,51600,1,2,0:0:0:0:
368,216,51666,1,0,0:0:0:0:
312,216,51733,1,0,0:0:0:0:
256,232,51799,1,0,0:0:0:0:
200,208,51866,1,10,0:0:0:0:
176,152,51933,1,0,0:0:0:0:
192,96,51999,1,0,0:0:0:0:
240,72,52066,1,0,0:0:0:0:
296,80,52132,6,0,B|352:72,3,57.0000013589859,2|0|0|0,0:0|0:0|0:0|0:0,0:0:0:0:
432,136,52398,2,0,B|376:144,3,57.0000013589859,10|0|0|0,0:0|0:0|0:0|0:0,0:0:0:0:
488,160,52664,5,2,0:0:0:0:
496,216,52731,1,0,0:0:0:0:
480,272,52797,1,0,0:0:0:0:
424,280,52864,1,0,0:0:0:0:
368,264,52930,1,10,0:0:0:0:
337,215,52997,1,0,0:0:0:0:
286,188,53063,1,0,0:0:0:0:
229,198,53130,1,0,0:0:0:0:
206,249,53196,6,0,B|84:309,1,132.999996829033,2|0,0:0|0:0,0:0:0:0:
24,272,53396,1,2,0:0:0:0:
24,272,53462,2,0,B|0:208|24:136,1,132.999996829033,8|2,0:0|0:0,0:0:0:0:
128,48,53729,1,0,0:0:0:0:
128,48,53795,1,2,0:0:0:0:
256,112,53928,1,2,0:0:0:0:
256,112,53995,1,8,0:0:0:0:
384,48,54128,1,2,0:0:0:0:
496,144,54261,6,0,B|520:208|496:280,1,132.999996829033,2|0,0:0|0:0,0:0:0:0:
272,352,54527,2,0,B|248:288|272:216,1,132.999996829033,10|0,0:0|0:0,0:0:0:0:
384,48,54793,2,2,B|432:152|384:264,1,199.499995243549
392,242,55059,1,8,0:0:0:0:
280,144,55192,1,2,0:0:0:0:
168,48,55325,5,0,0:0:0:0:
128,52,55391,1,0,0:0:0:0:
92,70,55458,1,0,0:0:0:0:
71,104,55525,1,0,0:0:0:0:
65,143,55591,1,8,0:0:0:0:
70,182,55658,1,0,0:0:0:0:
89,217,55724,1,0,0:0:0:0:
119,242,55791,1,0,0:0:0:0:
157,253,55857,1,0,0:0:0:0:
195,245,55924,1,0,0:0:0:0:
232,231,55990,1,0,0:0:0:0:
271,236,56057,1,0,0:0:0:0:
303,260,56123,1,8,0:0:0:0:
314,297,56190,1,0,0:0:0:0:
340,326,56256,1,0,0:0:0:0:
378,335,56323,1,0,0:0:0:0:
417,339,56389,5,4,0:0:0:0:
454,327,56456,1,0,0:0:0:0:
478,294,56522,1,0,0:0:0:0:
493,257,56589,1,0,0:0:0:0:
491,216,56655,1,12,0:0:0:0:
480,177,56722,1,0,0:0:0:0:
451,148,56788,1,0,0:0:0:0:
324,160,56921,5,2,0:0:0:0:
177,249,57054,1,0,3:0:0:0:
304,328,57187,1,12,0:0:0:0:
304,328,57320,1,0,0:0:0:0:
224,152,57453,6,0,L|216:45,1,95,4|2,3:2|0:0,0:0:0:0:
202,28,57652,1,2,0:0:0:0:
171,14,57719,1,0,3:0:0:0:
138,14,57785,1,0,0:0:0:0:
107,24,57852,1,0,0:3:0:0:
82,44,57918,1,2,0:0:0:0:
68,74,57985,1,0,3:0:0:0:
63,106,58051,1,0,0:0:0:0:
72,138,58118,1,0,0:3:0:0:
89,164,58184,1,0,0:0:0:0:
99,195,58251,1,0,3:0:0:0:
102,228,58318,1,0,0:0:0:0:
93,259,58384,1,2,0:1:0:0:
73,285,58451,1,0,0:0:0:0:
53,310,58517,6,0,P|94:363|169:373,1,142.5,2|2,0:1|0:1,0:0:0:0:
254,214,58784,2,0,P|187:222|141:282,1,142.5,2|2,3:1|0:1,0:0:0:0:
234,305,59049,2,0,P|274:358|349:368,1,142.5,2|2,3:1|0:1,0:0:0:0:
434,208,59315,2,0,P|368:217|322:276,1,142.5,2|2,3:1|0:0,0:0:0:0:
480,364,59582,5,2,3:1:0:0:
465,335,59649,1,2,0:0:0:0:
451,305,59715,1,0,0:3:0:0:
441,273,59782,1,2,0:0:0:0:
436,240,59848,1,2,3:1:0:0:
434,208,59915,1,0,0:0:0:0:
435,175,59981,1,0,0:3:0:0:
439,142,60048,1,0,0:0:0:0:
447,111,60114,1,0,3:0:0:0:
448,77,60181,1,0,0:3:0:0:
432,47,60247,1,2,0:0:0:0:
402,32,60314,1,0,0:0:0:0:
369,29,60380,1,2,3:2:0:0:
338,41,60447,1,0,0:0:0:0:
316,65,60513,1,2,0:1:0:0:
287,83,60579,1,0,0:0:0:0:
254,86,60646,6,0,P|196:83|149:53,1,95,2|0,3:1|0:3,0:0:0:0:
40,28,60912,1,2,3:1:0:0:
38,61,60978,1,2,0:1:0:0:
35,93,61045,1,0,0:3:0:0:
34,126,61111,1,0,0:0:0:0:
32,159,61178,6,0,L|30:230,1,47.5,2|2,3:1|0:0,0:0:0:0:
166,112,61311,2,0,L|163:42,1,47.5,0|2,3:0|0:0,0:0:0:0:
24,166,61444,2,0,L|21:237,1,47.5,2|2,3:1|0:0,0:0:0:0:
174,105,61577,2,0,L|171:34,1,47.5,0|2,3:0|0:0,0:0:0:0:
17,174,61710,6,0,L|12:291,1,95,4|0,3:2|0:3,0:0:0:0:
27,368,61976,1,2,3:1:0:0:
60,335,62042,1,0,0:3:0:0:
102,314,62109,1,2,0:0:0:0:
148,307,62175,1,2,0:1:0:0:
195,314,62242,1,2,3:1:0:0:
238,332,62309,1,2,0:1:0:0:
280,351,62375,1,0,0:3:0:0:
326,350,62442,1,2,0:1:0:0:
370,336,62508,1,2,3:1:0:0:
400,298,62575,1,0,0:0:0:0:
408,252,62641,1,2,0:0:0:0:
400,205,62708,1,2,0:1:0:0:
368,170,62774,6,0,P|314:141|269:140,1,95,2|0,3:1|0:3,0:0:0:0:
252,152,62974,1,2,0:1:0:0:
252,152,63040,2,0,P|202:174|148:177,1,95,0|0,3:0|0:3,0:0:0:0:
31,101,63306,2,0,P|46:152|48:206,1,95,2|0,3:1|0:3,0:0:0:0:
33,221,63506,1,2,0:1:0:0:
33,221,63573,2,0,L|22:292,1,47.5,2|0,3:1|0:0,0:0:0:0:
130,365,63706,2,0,L|122:318,1,47.5,0|0,3:0|0:0,0:0:0:0:
162,178,63839,5,0,3:0:0:0:
194,174,63905,1,0,0:0:0:0:
226,179,63972,1,0,0:0:0:0:
254,199,64038,1,0,0:0:0:0:
275,223,64105,1,2,3:1:0:0:
293,250,64171,1,0,0:0:0:0:
304,279,64238,1,0,3:0:0:0:
306,312,64304,1,2,0:1:0:0:
302,345,64371,5,0,3:0:0:0:
327,324,64437,1,0,0:0:0:0:
359,310,64504,1,2,0:1:0:0:
392,310,64570,1,0,0:0:0:0:
422,324,64637,5,2,3:1:0:0:
471,296,64703,1,0,3:0:0:0:
500,245,64770,1,0,3:0:0:0:
496,189,64836,1,2,3:1:0:0:
474,136,64903,6,0,P|437:88|421:37,1,95,4|0,3:2|0:3,0:0:0:0:
380,22,65102,1,2,0:1:0:0:
380,22,65169,2,0,P|321:18|275:34,1,95,4|0,3:2|0:3,0:0:0:0:
244,137,65435,1,4,3:2:0:0:
242,148,65501,1,0,0:0:0:0:
241,160,65568,1,0,0:3:0:0:
240,172,65634,1,2,0:1:0:0:
239,184,65701,1,2,0:0:0:0:
238,196,65767,1,0,0:0:0:0:
237,207,65834,1,2,1:0:0:0:
236,219,65900,1,0,0:0:0:0:
235,231,65967,6,0,L|227:343,1,95,4|2,3:2|0:0,0:0:0:0:
246,353,66167,1,0,0:3:0:0:
274,369,66233,1,0,3:0:0:0:
306,376,66301,1,0,0:0:0:0:
339,373,66366,1,0,0:3:0:0:
369,361,66434,1,0,0:0:0:0:
395,340,66499,1,0,3:0:0:0:
412,314,66567,1,0,0:0:0:0:
422,283,66632,1,2,0:0:0:0:
416,250,66700,1,0,0:0:0:0:
394,224,66765,1,0,3:0:0:0:
376,195,66832,1,0,0:0:0:0:
367,162,66898,1,2,0:1:0:0:
368,129,66965,1,0,0:0:0:0:
378,98,67031,6,0,P|410:47|506:28,1,142.5,2|2,3:1|0:1,0:0:0:0:
411,191,67298,2,0,P|350:189|287:116,1,142.5,2|2,3:1|0:1,0:0:0:0:
474,117,67564,2,0,P|503:169|471:261,1,142.5,2|2,3:1|0:1,0:0:0:0:
378,98,67830,2,0,P|410:47|506:28,1,142.5,2|0,3:1|0:0,0:0:0:0:
411,191,68096,5,2,3:1:0:0:
378,195,68162,1,0,0:0:0:0:
346,189,68229,1,0,0:3:0:0:
319,172,68295,1,2,0:1:0:0:
297,148,68362,1,0,3:0:0:0:
286,117,68428,1,0,0:0:0:0:
285,84,68495,1,0,0:3:0:0:
269,55,68561,1,0,0:0:0:0:
245,32,68628,1,0,3:0:0:0:
217,17,68694,1,0,0:3:0:0:
185,9,68761,1,2,0:1:0:0:
153,11,68827,1,0,0:0:0:0:
120,18,68894,1,2,3:1:0:0:
90,32,68961,1,0,0:0:0:0:
66,55,69027,1,0,1:0:0:0:
54,86,69094,1,0,0:0:0:0:
47,118,69160,6,0,L|45:235,1,95,4|2,3:2|0:0,0:0:0:0:
57,241,69360,1,2,0:1:0:0:
57,241,69426,2,0,L|55:358,1,95,2|2,3:1|0:0,0:0:0:0:
66,361,69626,1,0,0:0:0:0:
88,376,69692,1,0,3:0:0:0:
115,381,69759,1,0,0:0:0:0:
144,380,69825,1,0,0:3:0:0:
170,372,69892,1,2,0:1:0:0:
191,354,69958,2,0,L|198:302,1,47.5,2|0,3:1|0:0,0:0:0:0:
259,204,70091,2,0,L|266:255,1,47.5,2|0,3:2|0:0,0:0:0:0:
324,366,70224,5,4,3:2:0:0:
371,368,70292,1,0,0:0:0:0:
413,349,70357,1,2,0:0:0:0:
444,315,70425,1,2,0:1:0:0:
457,270,70490,1,2,3:1:0:0:
446,223,70557,1,2,0:1:0:0:
423,182,70624,1,2,0:1:0:0:
383,155,70690,1,2,0:1:0:0:
336,152,70757,1,2,3:1:0:0:
293,171,70823,1,2,0:0:0:0:
259,204,70890,1,0,0:3:0:0:
215,219,70956,1,2,0:1:0:0:
166,220,71023,1,2,3:1:0:0:
120,211,71089,1,0,0:0:0:0:
77,192,71156,1,0,3:3:0:0:
53,152,71222,1,2,0:1:0:0:
49,104,71289,6,0,P|61:51|88:15,1,95,4|0,3:2|0:0,0:0:0:0:
117,17,71488,1,2,0:1:0:0:
117,17,71555,2,0,P|166:44|212:46,1,95,0|0,3:0|0:0,0:0:0:0:
327,34,71821,2,0,P|302:86|296:131,1,95,4|0,3:2|0:0,0:0:0:0:
311,150,72020,1,2,0:1:0:0:
311,150,72087,2,0,P|336:201|341:247,1,95,2|0,3:1|0:0,0:0:0:0:
273,347,72353,5,4,3:2:0:0:
243,222,72486,1,2,3:2:0:0:
379,337,72619,2,0,L|491:346,1,95,2|4,3:1|3:0,0:0:0:0:
341,237,72885,1,6,3:2:0:0:
273,347,73018,1,4,3:0:0:0:
243,222,73151,1,2,3:1:0:0:
175,332,73284,1,4,3:0:0:0:
175,332,73351,1,2,3:1:0:0:
175,332,73417,6,0,L|63:344,1,95,6|2,3:2|1:1,0:0:0:0:
146,209,73683,1,6,3:1:0:0:
273,347,73816,1,4,1:3:0:0:
273,347,73883,1,4,1:3:0:0:
273,347,73949,2,0,L|384:358,1,95,4|4,3:2|1:3,0:0:0:0:
243,222,74216,1,4,3:2:0:0:
175,332,74349,1,4,1:3:0:0:
175,332,74416,1,4,1:3:0:0:
175,332,74482,5,4,3:2:0:0:
198,284,74548,1,0,1:0:0:0:
196,230,74615,1,2,1:2:0:0:
170,185,74681,1,0,1:0:0:0:
124,159,74748,1,4,3:0:0:0:
70,159,74814,1,2,1:2:0:0:
23,186,74881,1,2,1:2:0:0:
8,238,74947,1,0,1:0:0:0:
31,286,75014,1,4,3:0:0:0:
81,306,75080,1,0,1:0:0:0:
131,285,75147,1,2,1:2:0:0:
147,233,75213,1,0,1:0:0:0:
170,185,75280,1,2,1:2:0:0:
213,153,75346,1,0,1:2:0:0:
265,143,75413,1,2,1:2:0:0:
318,153,75479,1,2,1:2:0:0:
359,177,75546,5,6,1:2:0:0:
370,153,77408,5,4,3:2:0:0:
370,153,77608,5,0,0:0:0:0:
397,243,77675,1,4,3:2:0:0:
370,153,79448,5,0,0:0:0:0:
370,153,79714,1,0,0:0:0:0:
297,214,79803,6,0,L|218:204,2,63.3333333333333,4|0|2,3:2|0:0|0:0,0:0:0:0:
385,250,80069,2,0,L|465:240,2,63.3333333333333,8|0|2,1:2|0:0|3:2,0:0:0:0:
313,308,80335,2,0,L|234:298,2,63.3333333333333,2|0|0,0:0|0:0|3:0,0:0:0:0:
399,346,80601,1,4,3:2:0:0:
370,153,80779,1,0,3:0:0:0:
370,153,80867,6,0,L|374:84,2,63.3333333333333,4|0|0,0:0|0:0|3:0,0:0:0:0:
307,245,81133,2,0,L|313:316,2,63.3333333333333,8|0|0,1:2|0:0|3:0,0:0:0:0:
256,141,81400,1,2,0:0:0:0:
199,112,81488,1,2,0:0:0:0:
137,108,81577,1,2,3:2:0:0:
76,127,81666,2,0,P|35:179|26:254,1,126.666666666667,8|0,1:2|0:0,0:0:0:0:
83,346,81932,6,0,L|-2:352,2,63.3333333333333,4|0|2,3:2|0:0|0:0,0:0:0:0:
148,267,82198,2,0,L|284:278,1,126.666666666667,0|4,3:0|3:2,0:0:0:0:
406,324,82464,1,2,0:3:0:0:
375,269,82553,1,2,0:3:0:0:
382,206,82641,1,2,3:3:0:0:
422,155,82730,2,0,P|450:92|438:32,1,126.666666666667,4|0,3:2|3:0,0:0:0:0:
259,29,82996,6,0,L|226:26,4,31.6666666666667,4|0|0|0|0,1:2|0:0|0:0|0:0|1:0,0:0:0:0:
337,83,83262,2,0,L|370:80,4,31.6666666666667,4|0|0|0|0,1:2|0:0|0:0|0:0|1:0,0:0:0:0:
251,125,83528,2,0,L|218:122,4,31.6666666666667,4|0|0|0|0,1:2|0:0|0:0|0:0|1:0,0:0:0:0:
332,181,83794,2,0,L|365:178,4,31.6666666666667,4|0|0|0|0,1:2|0:0|0:0|0:0|0:0,0:0:0:0:
333,258,84061,6,0,B|377:297|377:297|480:271,1,145.666669445038,4|2,3:2|0:0,0:0:0:0:
226,212,84327,2,0,B|214:270|214:270|287:348,1,145.666669445038,0|2,3:3|0:0,0:0:0:0:
209,96,84593,2,0,B|152:113|152:113|122:217,1,145.666669445038,0|2,3:0|0:0,0:0:0:0:
318,141,84859,2,0,B|330:83|330:83|256:4,1,145.666669445038,0|2,3:0|0:0,0:0:0:0:
226,212,85125,6,0,B|270:252|270:252|374:227,1,145.666669445038,0|2,3:0|0:0,0:0:0:0:
473,311,85391,2,0,B|429:351|429:351|325:326,1,145.666669445038,0|2,3:3|0:0,0:0:0:0:
227,196,85657,2,0,B|271:236|271:236|375:210,1,145.666669445038,0|2,3:0|0:0,0:0:0:0:
480,201,85923,1,2,3:2:0:0:
480,201,86189,6,0,L|450:33,1,145.666669445038,4|2,3:2|0:0,0:0:0:0:
371,210,86455,2,0,L|341:380,1,145.666669445038,0|8,3:3|0:3,0:0:0:0:
177,329,86721,1,8,3:3:0:0:
105,311,86810,1,8,3:3:0:0:
75,245,86898,1,8,3:3:0:0:
84,172,86987,2,0,P|122:114|199:89,1,145.666669445038,4|8,3:2|0:3,0:0:0:0:
195,340,87253,5,8,3:3:0:0:
123,322,87342,1,8,3:3:0:0:
93,256,87430,1,4,3:2:0:0:
102,183,87519,2,0,P|140:125|217:100,1,145.666669445038,8|4,3:3|0:2,0:0:0:0:
356,219,87785,2,0,L|373:325,2,54.6250010418892,12|0|0,3:3|0:0|0:0,0:0:0:0:
385,113,88051,1,4,3:2:0:0:
385,113,88318,5,4,3:2:0:0:
314,105,88406,1,8,0:3:0:0:
242,97,88495,1,8,0:3:0:0:
196,42,88584,5,8,3:3:0:0:
124,50,88672,1,8,0:3:0:0:
52,57,88761,1,0,0:3:0:0:
20,122,88850,5,12,3:3:0:0:
85,150,88938,1,12,3:3:0:0:
117,214,89027,1,12,3:3:0:0:
115,286,89116,2,0,P|185:328|275:321,1,145.666669445038,4|2,3:2|0:0,0:0:0:0:
372,354,89382,5,8,1:3:0:0:
379,282,89470,1,8,1:3:0:0:
386,210,89559,1,8,1:3:0:0:
323,171,89648,5,12,3:3:0:0:
266,216,89736,1,12,3:3:0:0:
192,216,89825,1,12,3:3:0:0:
140,163,89914,5,8,1:3:0:0:
138,89,90003,1,12,3:3:0:0:
187,36,90091,1,12,3:3:0:0:
259,28,90180,2,0,P|329:38|391:87,1,145.666669445038,4|0,3:2|0:3,0:0:0:0:
482,280,90446,5,4,3:2:0:0:
481,253,90512,1,2,0:0:0:0:
464,231,90579,1,0,3:0:0:0:
440,220,90645,1,2,0:0:0:0:
413,223,90712,1,2,3:2:0:0:
392,239,90780,1,2,0:0:0:0:
382,264,90845,1,0,3:0:0:0:
384,290,90913,1,2,3:2:0:0:
400,311,90978,1,4,3:2:0:0:
427,318,91045,1,0,0:0:0:0:
452,308,91111,1,0,3:0:0:0:
465,284,91178,1,2,0:0:0:0:
463,257,91244,1,4,3:2:0:0:
442,240,91311,1,0,3:0:0:0:
417,228,91377,1,4,3:0:0:0:
392,225,91444,1,4,3:0:0:0:
365,229,91510,5,4,1:2:0:0:
312,233,91577,1,0,1:0:0:0:
261,217,91643,1,2,1:3:0:0:
214,189,91710,1,2,1:2:0:0:
206,136,91776,1,4,1:2:0:0:
223,84,91843,1,0,1:0:0:0:
275,66,91910,1,2,1:0:0:0:
326,84,91976,1,2,1:0:0:0:
342,136,92043,1,4,3:2:0:0:
320,185,92109,1,2,1:3:0:0:
269,200,92176,1,2,1:2:0:0:
214,189,92242,1,2,1:2:0:0:
168,164,92309,1,2,1:3:0:0:
115,158,92375,1,2,1:0:0:0:
67,180,92442,1,2,1:0:0:0:
41,227,92508,1,2,1:0:0:0:
47,281,92575,5,6,3:2:0:0:
74,161,96965,6,0,L|84:51,2,109.250002083778,0|0|0,0:0|0:0|0:0,0:0:0:0:
99,267,97364,1,0,0:0:0:0:
178,192,97497,1,0,0:0:0:0:
203,298,97630,1,0,0:0:0:0:
282,223,97763,1,0,0:0:0:0:
282,223,98029,6,0,L|401:217,2,109.250002083778,0|0|0,0:0|0:0|0:0,0:0:0:0:
178,192,98428,2,0,P|148:144|149:79,1,109.250002083778,0|0,0:0|0:0,0:0:0:0:
168,42,98628,2,0,P|141:91|84:123,1,109.250002083778,0|0,0:0|0:0,0:0:0:0:
44,129,98827,1,0,0:0:0:0:
44,129,99094,6,0,L|33:14,2,109.250002083778,0|0|0,0:0|0:0|0:0,0:0:0:0:
21,235,99493,2,0,P|84:242|134:283,1,109.250002083778,0|0,0:0|0:0,0:0:0:0:
235,176,99759,2,0,P|172:169|122:128,1,109.250002083778,0|0,0:0|0:0,0:0:0:0:
208,63,100025,6,0,L|329:54,1,109.250002083778,0|0,0:0|0:0,0:0:0:0:
371,53,100224,2,0,P|328:104|317:158,1,109.250002083778,0|0,0:0|0:0,0:0:0:0:
337,195,100424,1,0,0:0:0:0:
464,284,100557,2,0,L|344:293,1,109.250002083778,0|0,0:0|0:0,0:0:0:0:
331,342,100757,2,0,L|211:333,1,109.250002083778,0|0,0:0|0:0,0:0:0:0:
173,310,100956,1,0,0:0:0:0:
256,192,101089,12,2,102153,0:0:0:0:
146,302,102686,5,2,0:0:0:0:
155,215,102819,1,2,0:0:0:0:
69,207,102952,1,10,0:0:0:0:
60,294,103085,1,2,0:3:0:0:
146,302,103218,5,4,1:2:0:0:
158,307,103284,1,0,1:0:0:0:
171,311,103351,1,0,1:0:0:0:
184,315,103417,1,2,1:2:0:0:
198,317,103484,1,0,1:0:0:0:
211,318,103550,1,0,1:0:0:0:
225,317,103617,1,0,1:0:0:0:
238,314,103683,1,2,1:2:0:0:
251,310,103750,1,0,1:0:0:0:
264,305,103816,1,0,1:0:0:0:
277,301,103883,1,2,1:0:0:0:
290,297,103949,1,0,1:0:0:0:
304,296,104016,1,2,1:0:0:0:
317,296,104082,1,0,1:0:0:0:
331,298,104149,1,2,1:0:0:0:
344,301,104215,1,0,1:0:0:0:
357,306,104282,5,2,1:0:0:0:
370,305,104348,1,0,1:0:0:0:
379,295,104416,1,0,1:0:0:0:
388,284,104481,1,2,1:0:0:0:
395,273,104549,1,2,1:0:0:0:
403,261,104614,1,0,1:0:0:0:
409,249,104682,1,0,1:0:0:0:
415,237,104748,1,2,1:0:0:0:
420,224,104815,1,2,1:0:0:0:
425,211,104882,1,0,1:0:0:0:
429,198,104948,1,0,1:0:0:0:
432,185,105015,1,2,1:0:0:0:
434,171,105081,1,2,1:0:0:0:
436,158,105148,1,2,1:2:0:0:
437,144,105214,1,2,1:2:0:0:
437,131,105281,1,2,1:2:0:0:
435,104,105346,5,2,1:0:0:0:
428,77,105413,1,0,1:0:0:0:
406,60,105479,1,0,1:0:0:0:
379,51,105546,1,2,1:1:0:0:
351,52,105612,1,2,1:0:0:0:
326,64,105679,1,0,1:0:0:0:
310,86,105745,1,2,1:2:0:0:
313,113,105812,1,0,1:0:0:0:
330,133,105878,1,0,0:0:0:0:
357,138,105945,1,0,0:0:0:0:
382,126,106012,1,2,0:0:0:0:
390,100,106078,1,2,0:0:0:0:
384,72,106145,1,2,0:0:0:0:
363,53,106211,1,0,0:0:0:0:
336,45,106278,1,2,0:1:0:0:
309,40,106344,1,2,0:0:0:0:
281,42,106411,5,4,0:0:0:0:
253,68,106477,1,0,0:0:0:0:
218,84,106544,1,2,0:0:0:0:
180,84,106610,1,2,0:0:0:0:
145,67,106677,1,2,0:0:0:0:
107,62,106743,1,2,0:0:0:0:
70,75,106810,1,2,0:0:0:0:
39,98,106876,1,0,0:0:0:0:
29,135,106943,5,4,3:2:0:0:
133,175,107076,2,0,L|193:170,1,54.6250010418892,4|0,3:0|0:0,0:0:0:0:
59,253,107209,2,0,L|-1:248,1,54.6250010418892,0|0,3:0|0:0,0:0:0:0:
163,279,107342,2,0,L|210:276,2,27.3125005209446,8|0|8,3:0|0:0|3:0,0:0:0:0:
229,346,107476,6,0,P|302:317|345:318,1,95,4|2,3:2|0:0,0:0:0:0:
423,365,107741,1,0,3:0:0:0:
402,338,107808,1,0,0:3:0:0:
397,305,107874,1,2,0:0:0:0:
400,271,107941,1,2,0:1:0:0:
416,240,108007,1,2,3:1:0:0:
437,214,108074,1,2,0:1:0:0:
464,195,108140,1,2,0:0:0:0:
486,170,108207,1,2,0:1:0:0:
494,137,108273,1,2,3:1:0:0:
488,104,108340,1,0,0:0:0:0:
471,75,108406,1,2,0:0:0:0:
441,58,108473,1,2,0:1:0:0:
408,52,108539,6,0,P|338:60|292:50,1,95,2|2,3:1|0:0,0:0:0:0:
283,42,108739,1,2,0:1:0:0:
283,42,108805,2,0,P|213:34|167:44,1,95,0|2,3:0|0:1,0:0:0:0:
66,20,109071,2,0,L|75:130,1,95,2|2,3:1|0:0,0:0:0:0:
100,135,109271,1,2,0:0:0:0:
100,135,109338,2,0,L|93:214,1,47.5,2|0,3:1|0:0,0:0:0:0:
4,219,109471,2,0,L|10:298,1,47.5,4|0,3:0|0:0,0:0:0:0:
90,364,109604,5,4,3:2:0:0:
93,331,109670,1,0,0:0:0:0:
105,300,109737,1,2,0:1:0:0:
124,273,109803,1,0,0:0:0:0:
150,252,109870,1,2,3:1:0:0:
180,238,109936,1,0,0:0:0:0:
213,232,110003,1,4,3:0:0:0:
246,235,110069,1,0,0:0:0:0:
277,248,110136,1,4,3:2:0:0:
294,275,110202,1,0,0:0:0:0:
291,308,110269,1,0,0:0:0:0:
276,337,110335,1,0,0:0:0:0:
242,341,110402,5,2,3:1:0:0:
189,318,110468,1,0,3:0:0:0:
172,262,110535,1,4,3:0:0:0:
197,211,110601,1,0,3:0:0:0:
245,180,110668,5,4,3:2:0:0:
256,183,110734,1,2,0:0:0:0:
267,186,110801,1,0,0:0:0:0:
279,189,110867,1,2,0:1:0:0:
291,190,110934,1,2,3:2:0:0:
303,190,111000,1,2,0:0:0:0:
314,189,111067,1,2,0:1:0:0:
326,188,111133,1,2,0:1:0:0:
338,185,111200,1,4,3:2:0:0:
349,182,111266,1,0,0:0:0:0:
360,178,111333,1,2,0:0:0:0:
371,172,111399,1,2,0:1:0:0:
381,166,111466,1,2,0:0:0:0:
391,160,111532,1,0,0:0:0:0:
400,152,111599,1,0,1:0:0:0:
409,144,111665,1,8,0:3:0:0:
417,135,111733,6,0,P|437:67|427:15,1,113.999996520996,6|2,1:2|0:0,0:0:0:0:
308,34,111998,1,0,3:0:0:0:
293,71,112066,1,0,0:0:0:0:
268,101,112132,1,2,0:0:0:0:
234,122,112199,1,2,0:0:0:0:
194,123,112265,1,0,3:0:0:0:
161,98,112331,1,0,0:0:0:0:
157,58,112397,1,2,0:0:0:0:
186,30,112464,1,0,0:0:0:0:
225,31,112530,1,2,0:1:0:0:
247,64,112597,1,0,0:0:0:0:
247,105,112663,1,2,0:1:0:0:
236,143,112730,1,0,0:0:0:0:
236,182,112797,6,0,B|207:275|207:275|244:352,1,170.999994781494,2|2,3:1|0:1,0:0:0:0:
324,271,113063,2,0,B|353:178|353:178|316:101,1,170.999994781494,0|2,3:0|0:1,0:0:0:0:
223,191,113329,2,0,B|194:284|194:284|231:361,1,170.999994781494,0|2,3:0|0:1,0:0:0:0:
339,263,113595,2,0,B|368:170|368:170|331:93,1,170.999994781494,0|2,3:0|0:1,0:0:0:0:
209,65,113861,5,2,3:1:0:0:
189,99,113927,1,0,0:0:0:0:
156,122,113994,1,2,0:0:0:0:
119,138,114060,1,2,0:1:0:0:
78,140,114127,1,0,3:0:0:0:
43,121,114193,1,0,0:0:0:0:
34,81,114260,1,2,0:0:0:0:
59,51,114326,1,0,0:0:0:0:
98,47,114393,1,0,3:0:0:0:
124,76,114459,1,2,0:0:0:0:
136,114,114526,1,2,0:1:0:0:
121,151,114592,1,0,0:0:0:0:
99,185,114659,1,2,3:1:0:0:
94,224,114725,1,0,0:0:0:0:
93,264,114792,1,2,0:1:0:0:
126,286,114859,1,0,0:0:0:0:
165,283,114925,5,2,3:1:0:0:
185,248,114992,1,0,0:0:0:0:
176,209,115058,1,2,0:0:0:0:
138,193,115125,1,2,0:1:0:0:
100,204,115191,1,0,3:0:0:0:
80,237,115258,1,2,0:1:0:0:
75,276,115324,1,2,0:0:0:0:
87,314,115391,1,0,0:0:0:0:
120,335,115457,1,2,3:1:0:0:
159,340,115524,1,0,0:0:0:0:
198,335,115590,1,2,0:0:0:0:
229,325,115657,1,2,0:1:0:0:
268,322,115724,6,0,L|327:328,1,56.9999982604981,2|0,3:2|0:0,0:0:0:0:
417,220,115857,2,0,L|360:225,1,56.9999982604981,2|0,3:1|0:0,0:0:0:0:
228,198,115989,6,0,P|278:168|306:108,1,113.999996520996,4|2,3:2|0:0,0:0:0:0:
474,68,116255,1,0,3:0:0:0:
444,116,116323,1,2,0:1:0:0:
436,172,116389,1,2,0:0:0:0:
450,227,116456,1,2,0:1:0:0:
484,273,116521,1,2,3:1:0:0:
481,330,116588,1,2,0:1:0:0:
430,356,116655,1,2,0:0:0:0:
373,348,116721,1,2,0:1:0:0:
342,300,116788,1,2,3:1:0:0:
296,266,116854,1,0,0:0:0:0:
248,260,116921,1,0,3:0:0:0:
200,290,116987,1,0,0:0:0:0:
177,342,117054,6,0,P|116:355|49:347,1,113.999996520996,4|2,3:2|0:0,0:0:0:0:
19,317,117253,1,2,0:1:0:0:
19,317,117320,2,0,L|33:177,1,113.999996520996,0|0,3:0|3:0,0:0:0:0:
115,27,117586,2,0,L|129:167,1,113.999996520996,4|2,3:2|0:0,0:0:0:0:
171,173,117785,1,2,0:1:0:0:
171,173,117852,2,0,L|157:313,1,113.999996520996,2|2,3:1|3:1,0:0:0:0:
230,373,118118,5,4,3:2:0:0:
244,215,118251,1,0,3:0:0:0:
315,302,118384,2,0,L|326:188,1,113.999996520996,0|4,3:0|3:0,0:0:0:0:
159,286,118650,1,4,3:2:0:0:
230,373,118783,1,2,3:1:0:0:
327,308,118916,2,0,L|338:194,1,113.999996520996,2|2,3:1|3:1,0:0:0:0:
344,84,119183,6,0,L|413:72,1,56.9999982604981,4|0,3:2|0:0,0:0:0:0:
238,172,119316,2,0,L|169:160,1,56.9999982604981,2|0,3:2|0:0,0:0:0:0:
337,194,119448,1,4,3:0:0:0:
245,62,119581,1,4,3:0:0:0:
245,62,119648,1,4,3:0:0:0:
245,62,119714,1,4,3:2:0:0:
436,216,119847,1,2,3:2:0:0:
344,84,119980,1,4,3:2:0:0:
330,304,120114,1,2,1:2:0:0:
130,102,120246,5,6,3:2:0:0:
186,90,120313,1,2,1:0:0:0:
239,107,120380,1,2,1:0:0:0:
282,144,120446,1,2,1:0:0:0:
304,196,120513,1,4,1:2:0:0:
303,254,120579,1,2,1:2:0:0:
306,311,120646,1,2,1:2:0:0:
344,351,120712,1,2,1:2:0:0:
401,350,120779,1,2,1:0:0:0:
432,303,120845,1,2,1:0:0:0:
421,246,120912,1,2,1:0:0:0:
367,226,120978,1,4,1:2:0:0:
316,254,121045,1,2,1:2:0:0:
306,311,121111,1,2,1:2:0:0:
262,347,121178,1,2,1:2:0:0:
205,354,121244,1,2,1:2:0:0:
162,316,121311,5,4,3:2:0:0:
147,292,121377,1,0,0:0:0:0:
140,263,121444,1,0,3:0:0:0:
149,236,121510,1,2,0:0:0:0:
168,213,121577,1,4,3:2:0:0:
191,199,121643,1,2,0:0:0:0:
219,191,121710,1,2,1:2:0:0:
245,178,121776,1,2,1:2:0:0:
265,156,121843,5,6,3:2:0:0:
284,119,121910,1,2,0:0:0:0:
286,79,121976,1,2,3:2:0:0:
266,45,122043,1,2,0:2:0:0:
230,25,122109,1,6,3:2:0:0:
190,25,122176,1,2,0:2:0:0:
157,48,122242,1,2,1:2:0:0:
143,83,122309,1,2,1:2:0:0:
148,122,122375,5,6,3:2:0:0:
190,160,122442,1,2,3:2:0:0:
245,178,122508,1,2,3:1:0:0:
297,202,122575,1,2,3:2:0:0:
335,244,122641,1,2,3:1:0:0:
337,300,122708,1,2,3:2:0:0:
308,349,122774,1,2,3:1:0:0:
250,356,122841,1,2,3:1:0:0:
192,320,122907,5,2,3:2:0:0:
185,251,122974,1,2,3:1:0:0:
228,198,123040,1,2,3:1:0:0:
297,202,123107,1,2,3:1:0:0:
363,186,123173,1,2,3:2:0:0:
400,128,123240,1,2,3:1:0:0:
393,60,123306,1,2,3:1:0:0:
345,10,123373,1,2,3:1:0:0:
288,5,123440,6,0,B|217:68|121:23|121:23|202:93|165:189,1,356.25,6|8,1:2|0:3,0:0:0:0:
0,213,125569,5,4,1:2:0:0:
32,192,125635,1,0,1:0:0:0:
71,194,125702,1,2,1:2:0:0:
102,218,125768,1,2,1:2:0:0:
113,256,125835,1,2,1:2:0:0:
123,294,125901,1,2,1:2:0:0:
153,318,125968,1,2,1:2:0:0:
192,320,126034,1,2,1:2:0:0:
229,306,126101,1,0,1:0:0:0:
246,269,126168,1,2,1:2:0:0:
240,229,126234,1,2,1:2:0:0:
213,198,126301,1,2,1:2:0:0:
173,192,126367,1,2,1:2:0:0:
145,164,126434,1,2,1:2:0:0:
139,124,126500,1,2,1:2:0:0:
149,85,126567,1,2,1:2:0:0:
176,56,126633,6,0,L|236:49,1,56.9999982604981,0|2,1:0|1:2,0:0:0:0:
88,158,126766,2,0,L|144:163,1,56.9999982604981,0|2,1:0|1:2,0:0:0:0:
0,53,126899,2,0,L|68:46,1,56.9999982604981,0|2,1:0|1:2,0:0:0:0:
128,257,127032,1,0,1:0:0:0:
183,241,127098,1,2,1:2:0:0:
239,248,127165,1,2,0:0:0:0:
289,275,127231,1,2,0:0:0:0:
324,320,127298,1,2,0:0:0:0:
381,328,127365,5,2,0:0:0:0:
430,313,127432,1,2,0:0:0:0:
454,275,127498,1,2,0:0:0:0:
457,234,127565,1,4,1:3:0:0:
439,204,127631,1,4,1:3:0:0:
416,186,127698,5,4,3:2:0:0:
