osu file format v12

[General]
AudioFilename: Kono-te ga kiseki o eran deru.mp3
AudioLeadIn: 2000
PreviewTime: 60611
Countdown: 0
SampleSet: Soft
StackLeniency: 0.7
Mode: 0
LetterboxInBreaks: 0
WidescreenStoryboard: 0

[Editor]
DistanceSpacing: 1.3
BeatDivisor: 4
GridSize: 4

[Metadata]
Title:Kono Te ga Kiseki wo Eranderu (TV Size)
TitleUnicode:この手が奇跡を選んでる (TV Size)
Artist:Saki: Zenkoku-hen Cast
ArtistUnicode:Saki: Zenkoku-hen Cast
Creator:Main Black
Version:Insane
Source:Saki: Zenkoku-hen
Tags:咲-saki-
BeatmapID:369747
BeatmapSetID:149641

[Difficulty]
HPDrainRate:6
CircleSize:4
OverallDifficulty:6
ApproachRate:9
SliderMultiplier:1.6
SliderTickRate:2

[Events]
//Background and Video events
0,0,"sakied.jpg",0,0
Video,0,"saki.avi"
//Break Periods
//Storyboard Layer 0 (Background)
//Storyboard Layer 1 (Fail)
//Storyboard Layer 2 (Pass)
//Storyboard Layer 3 (Foreground)
//Storyboard Sound Samples
//Background Colour Transformations
3,100,163,162,255

[TimingPoints]
827,347.584289190129,4,2,2,50,1,0
11775,-100,4,2,1,5,0,0
11949,-76.9230769230769,4,2,1,50,0,0
13340,-100,4,2,2,50,0,0
18901,-100,4,2,1,50,0,0
20552,-100,4,2,1,5,0,0
20639,-100,4,2,4,50,0,0
20813,-100,4,2,1,50,0,0
30024,-100,4,1,0,50,0,0
60611,-100,4,2,1,50,0,1
70343,-100,4,2,2,50,0,1
71647,-100,4,2,2,50,0,0
71734,-100,4,2,1,50,0,1
77816,-100,4,2,2,50,0,1
78512,-100,4,2,1,50,0,1
79207,-100,4,2,2,50,0,1
80076,-100,4,2,1,50,0,1
87027,-100,4,2,1,50,0,0

[Colours]
Combo1 : 255,21,21
Combo2 : 255,249,128
Combo3 : 150,220,254
Combo4 : 160,104,255
Combo5 : 254,183,63

[HitObjects]
118,91,827,1,2,0:0:0:0:
100,132,914,1,0,0:0:0:0:
160,236,1087,1,2,0:0:0:0:
168,280,1174,1,0,0:0:0:0:
313,340,1348,1,0,0:0:0:0:
333,337,1434,1,2,0:0:0:0:
353,335,1521,5,2,0:0:0:0:
372,332,1608,1,2,0:0:0:0:
392,329,1695,1,0,0:0:0:0:
412,296,1782,1,2,0:0:0:0:
429,255,1868,1,2,0:0:0:0:
436,212,1955,1,2,0:0:0:0:
432,168,2043,1,2,0:0:0:0:
417,127,2129,1,0,0:0:0:0:
392,90,2217,6,0,P|319:116|240:84,1,160,2|8,0:0|0:0,0:0:0:0:
168,8,2738,1,0,0:0:0:0:
216,180,3086,6,0,L|196:257,1,80,0|8,0:0|0:0,0:0:0:0:
216,352,3433,1,0,0:0:0:0:
332,296,3607,2,0,P|392:300|450:280,1,120
476,252,3955,1,8,0:0:0:0:
384,124,4129,1,0,0:0:0:0:
276,216,4302,2,0,B|256:252|256:252|204:264|152:252|144:196,1,160,0|8,0:0|0:0,0:0:0:0:
204,20,4998,6,0,P|191:58|192:100,1,80
72,144,5345,2,0,P|90:179|124:208,1,80,8|0,0:0|0:0,0:0:0:0:
164,220,5606,1,0,0:0:0:0:
164,220,5693,1,0,0:0:0:0:
220,140,5866,1,0,0:0:0:0:
68,264,6040,1,8,0:0:0:0:
156,312,6214,1,0,0:0:0:0:
256,260,6388,6,0,P|294:251|334:252,1,80
424,292,6735,1,8,0:0:0:0:
308,348,6909,1,0,0:0:0:0:
313,187,7083,1,0,0:0:0:0:
472,232,7257,2,0,P|496:304|484:326,1,80,0|8,0:0|0:0,0:0:0:0:
232,288,7778,6,0,P|194:279|153:279,1,80,2|0,0:0|0:0,0:0:0:0:
210,148,8126,2,0,P|182:120|147:100,1,80,8|0,0:0|0:0,0:0:0:0:
300,56,8473,1,2,0:0:0:0:
305,79,8560,1,0,0:0:0:0:
310,102,8647,1,0,0:0:0:0:
400,248,8821,1,8,0:0:0:0:
405,225,8908,1,0,0:0:0:0:
410,202,8995,1,0,0:0:0:0:
492,72,9169,6,0,L|400:72,1,80,2|0,0:0|0:0,0:0:0:0:
232,208,9516,2,0,L|324:208,1,80,8|0,0:0|0:0,0:0:0:0:
500,170,9864,1,2,0:0:0:0:
462,322,10037,1,0,0:0:0:0:
306,287,10211,1,8,0:0:0:0:
341,129,10385,1,0,0:0:0:0:
256,192,10559,12,0,11775,0:0:0:0:
160,48,11949,6,0,B|188:104|188:104|138:191,1,155.999992858887,8|0,0:0|0:0,0:0:0:0:
72,280,12297,2,0,B|100:256|100:256|168:268,1,103.999995239258,8|0,0:0|0:0,0:0:0:0:
355,348,12644,2,0,P|310:371|259:365,1,103.999995239258,0|0,0:0|0:0,0:0:0:0:
72,280,12992,1,8,0:0:0:0:
464,100,13340,6,0,P|451:141|424:188,1,80,12|0,0:0|0:0,0:0:0:0:
344,188,13600,1,0,0:0:0:0:
356,172,13687,2,0,P|319:174|276:168,1,80,2|0,0:0|0:0,0:0:0:0:
96,112,14035,5,8,0:0:0:0:
88,100,14122,2,0,P|86:139|76:180,1,80,0|0,0:0|0:0,0:0:0:0:
20,248,14382,2,0,P|21:287|32:327,1,80,2|0,0:0|0:0,0:0:0:0:
280,288,14730,6,0,P|319:289|359:300,1,80,8|0,0:0|0:0,0:0:0:0:
452,340,14991,2,0,P|438:296|435:269,1,40,0|2,0:0|0:0,0:0:0:0:
452,148,15251,6,0,L|412:172,1,40,0|0,0:0|0:0,0:0:0:0:
340,192,15425,2,0,L|240:184,1,80,8|0,0:0|0:0,0:0:0:0:
176,68,15773,2,0,L|96:61,1,80,2|0,0:0|0:0,0:0:0:0:
280,24,16120,5,8,0:0:0:0:
292,65,16206,1,0,0:0:0:0:
284,108,16293,1,0,0:0:0:0:
257,142,16380,1,0,0:0:0:0:
180,180,16468,6,0,L|173:219,1,40,2|0,0:0|0:0,0:0:0:0:
100,204,16642,2,0,L|94:244,1,40,0|0,0:0|0:0,0:0:0:0:
20,228,16815,2,0,L|4:332,1,80,8|0,0:0|0:0,0:0:0:0:
232,124,17163,2,0,P|194:109|154:111,1,80,2|0,0:0|0:0,0:0:0:0:
296,339,17511,6,0,P|317:306|328:267,1,80,8|0,0:0|0:0,0:0:0:0:
340,180,17771,2,0,L|308:132,1,40,0|2,0:0|0:0,0:0:0:0:
188,48,18032,6,0,P|180:92|160:144,1,80,0|8,0:0|0:0,0:0:0:0:
140,160,18293,2,0,L|48:176,1,80
24,200,18553,1,2,0:0:0:0:
392,216,18901,5,0,0:0:0:0:
468,156,19075,1,0,0:0:0:0:
484,248,19248,2,0,P|468:284|448:336,1,80,8|0,0:0|0:0,0:0:0:0:
460,364,19509,1,0,0:0:0:0:
460,364,19596,1,0,0:0:0:0:
352,336,19770,5,0,0:0:0:0:
212,368,19943,1,8,0:0:0:0:
352,336,20117,1,0,0:0:0:0:
168,288,20291,2,0,P|120:256|66:278,2,120,0|0|0,0:0|0:0|0:0,0:0:0:0:
264,296,20986,1,0,0:0:0:0:
320,120,21160,1,0,0:0:0:0:
224,144,21334,6,0,P|184:136|144:140,1,80,8|0,0:0|0:0,0:0:0:0:
36,232,21682,2,0,P|71:278|65:336,1,120,0|0,0:0|0:0,0:0:0:0:
156,308,22029,2,0,P|193:320|233:325,1,80,8|0,0:0|0:0,0:0:0:0:
328,300,22377,1,2,0:0:0:0:
460,184,22551,1,2,0:0:0:0:
360,80,22724,5,8,0:0:0:0:
360,80,22898,1,2,0:0:0:0:
256,162,23072,2,0,P|285:204|235:216,1,120,0|0,0:0|0:0,0:0:0:0:
187,208,23419,2,0,P|151:223|111:223,1,80,8|0,0:0|0:0,0:0:0:0:
12,192,23767,1,2,0:0:0:0:
188,296,23941,1,2,0:0:0:0:
64,324,24115,2,0,L|26:311,2,40,10|0|0,0:0|0:0|0:0,0:0:0:0:
300,288,24462,5,0,0:0:0:0:
248,136,24636,1,0,0:0:0:0:
184,220,24809,2,0,P|178:260|160:304,1,80,8|0,0:0|0:0,0:0:0:0:
236,356,25070,1,0,0:0:0:0:
236,356,25157,2,0,P|272:368|324:372,1,80,0|0,0:0|0:0,0:0:0:0:
412,332,25505,1,8,0:0:0:0:
428,128,25679,6,0,P|415:184|448:232,1,120,0|0,0:0|0:0,0:0:0:0:
488,248,26026,1,0,0:0:0:0:
344,316,26200,1,8,0:0:0:0:
260,256,26374,2,0,P|221:241|179:255,1,80
185,250,26635,1,0,0:0:0:0:
185,250,26722,1,0,0:0:0:0:
220,115,26895,6,0,P|234:78|242:39,1,80,8|0,0:0|0:0,0:0:0:0:
352,176,27243,2,0,P|371:231|347:284,1,120
308,364,27590,2,0,P|344:356|387:363,1,80,8|0,0:0|0:0,0:0:0:0:
484,296,27938,1,2,0:0:0:0:
386,362,28112,1,2,0:0:0:0:
280,224,28285,5,10,0:0:0:0:
152,348,28459,1,2,0:0:0:0:
32,268,28633,2,0,P|12:213|36:160,1,120
100,100,28980,2,0,L|180:100,1,80,8|0,0:0|0:0,0:0:0:0:
256,40,29328,1,2,0:0:0:0:
384,200,29502,1,2,0:0:0:0:
476,148,29676,2,0,L|512:164,2,40,10|0|0,0:0|0:0|0:0,0:0:0:0:
256,120,30024,6,0,L|256:40,1,80,2|0,0:0|0:0,0:0:0:0:
144,176,30371,2,0,L|144:88,1,80
368,96,30719,2,0,L|368:176,1,80,2|0,0:0|0:0,0:0:0:0:
256,368,31066,6,0,L|256:208,1,160,0|2,0:0|0:0,0:0:0:0:
256,40,31588,1,0,0:0:0:0:
276,144,31762,2,0,L|196:144,1,80,2|0,0:0|0:0,0:0:0:0:
176,156,32022,1,0,0:0:0:0:
156,168,32109,2,0,L|76:168,1,80,2|0,0:0|0:0,0:0:0:0:
20,232,32370,2,0,L|39:266,1,40,0|10,0:0|0:0,0:0:0:0:
144,372,32630,5,0,0:0:0:0:
168,248,32804,1,2,0:0:0:0:
244,332,32978,1,0,0:0:0:0:
268,208,33152,1,10,0:0:0:0:
344,292,33326,1,0,0:0:0:0:
368,168,33500,1,2,0:0:0:0:
444,252,33674,1,0,0:0:0:0:
468,128,33848,1,10,0:0:0:0:
388,28,34021,1,0,0:0:0:0:
271,140,34195,6,0,P|195:154|132:108,1,160,2|8,0:0|0:0,0:0:0:0:
224,232,34716,1,0,0:0:0:0:
224,232,34803,1,0,0:0:0:0:
224,232,34890,2,0,P|213:274|195:312,1,80,2|0,0:0|0:0,0:0:0:0:
112,336,35150,2,0,L|72:324,1,40,0|10,0:0|0:0,0:0:0:0:
4,196,35411,1,0,0:0:0:0:
60,128,35585,6,0,L|140:108,1,80,2|0,0:0|0:0,0:0:0:0:
224,232,35933,2,0,L|144:252,1,80,8|0,0:0|0:0,0:0:0:0:
272,156,36280,2,0,P|310:200|309:259,1,120,2|0,0:0|0:0,0:0:0:0:
286,295,36628,1,8,0:0:0:0:
144,372,36801,5,0,0:0:0:0:
144,372,36888,1,0,0:0:0:0:
144,372,36975,2,0,L|224:372,1,80,2|0,0:0|0:0,0:0:0:0:
312,368,37323,1,8,0:0:0:0:
388,208,37497,1,0,0:0:0:0:
388,208,37584,1,0,0:0:0:0:
388,208,37670,2,0,L|292:208,1,80,2|0,0:0|0:0,0:0:0:0:
232,236,37931,2,0,L|192:236,1,40,0|10,0:0|0:0,0:0:0:0:
60,176,38191,1,0,0:0:0:0:
168,56,38366,6,0,L|168:156,1,80,2|0,0:0|0:0,0:0:0:0:
139,164,38713,2,0,L|139:264,1,80,8|0,0:0|0:0,0:0:0:0:
167,272,39061,2,0,L|167:372,1,80,2|0,0:0|0:0,0:0:0:0:
167,352,39321,1,0,0:0:0:0:
167,352,39408,1,10,0:0:0:0:
220,204,39582,1,0,0:0:0:0:
280,352,39756,5,2,0:0:0:0:
448,280,39930,2,0,P|460:232|464:192,1,80,0|8,0:0|0:0,0:0:0:0:
300,36,40277,2,0,P|288:84|284:124,1,80,2|2,0:0|0:0,0:0:0:0:
328,196,40538,2,0,L|320:236,1,40,2|0,0:0|0:0,0:0:0:0:
240,324,40712,2,0,L|232:284,1,40,2|2,0:0|0:0,0:0:0:0:
216,116,41146,5,10,0:0:0:0:
165,233,41320,1,0,0:0:0:0:
283,283,41494,1,2,0:0:0:0:
334,165,41668,1,0,0:0:0:0:
168,121,41841,5,10,0:0:0:0:
168,281,42015,1,0,0:0:0:0:
328,281,42189,1,2,0:0:0:0:
328,281,42276,1,0,0:0:0:0:
328,281,42363,1,0,0:0:0:0:
328,120,42537,1,10,0:0:0:0:
124,128,42710,5,0,0:0:0:0:
169,328,42885,1,2,0:0:0:0:
370,283,43058,1,0,0:0:0:0:
323,78,43232,1,10,0:0:0:0:
370,283,43406,5,0,0:0:0:0:
169,328,43579,1,2,0:0:0:0:
124,128,43753,1,0,0:0:0:0:
204,184,43927,6,0,L|304:184,1,80,10|0,0:0|0:0,0:0:0:0:
360,232,44188,1,0,0:0:0:0:
360,232,44275,2,0,L|448:232,1,80
508,88,44622,2,0,L|420:88,1,80,10|0,0:0|0:0,0:0:0:0:
296,148,44970,1,0,0:0:0:0:
212,88,45143,1,0,0:0:0:0:
268,256,45317,6,0,P|260:212|276:172,1,80,10|2,0:0|0:0,0:0:0:0:
296,148,45578,1,0,0:0:0:0:
333,134,45664,1,2,0:0:0:0:
372,140,45751,1,2,0:0:0:0:
403,164,45838,1,0,0:0:0:0:
418,201,45925,1,0,0:0:0:0:
413,240,46012,6,0,L|392:280,2,40,10|0|2,0:0|0:0|0:0,0:0:0:0:
418,201,46273,1,0,0:0:0:0:
403,164,46360,1,2,0:0:0:0:
372,140,46447,1,2,0:0:0:0:
333,134,46534,1,2,0:0:0:0:
296,148,46620,1,0,0:0:0:0:
272,180,46708,1,10,0:0:0:0:
136,100,47055,5,0,0:0:0:0:
48,160,47229,1,0,0:0:0:0:
144,200,47403,1,10,0:0:0:0:
48,64,47577,5,0,0:0:0:0:
144,200,47750,1,0,0:0:0:0:
296,148,47924,1,0,0:0:0:0:
360,232,48098,6,0,P|372:292|324:360,1,120,10|0,0:0|0:0,0:0:0:0:
304,320,48446,2,0,P|260:316|212:324,1,80
80,336,48793,2,0,P|116:288|104:228,1,120,10|0,0:0|0:0,0:0:0:0:
20,196,49141,2,0,L|48:272,1,80
164,360,49488,5,10,0:0:0:0:
106,232,49662,1,0,0:0:0:0:
8,332,49836,1,0,0:0:0:0:
20,196,50010,1,0,0:0:0:0:
92,280,50183,2,0,L|204:272,1,80,10|0,0:0|0:0,0:0:0:0:
216,288,50444,1,0,0:0:0:0:
216,288,50531,1,0,0:0:0:0:
348,196,50705,1,0,0:0:0:0:
300,88,50879,6,0,L|396:68,1,80,10|0,0:0|0:0,0:0:0:0:
212,88,51226,2,0,L|116:68,1,80
300,296,51574,2,0,L|396:316,1,80,10|0,0:0|0:0,0:0:0:0:
212,296,51921,2,0,L|116:316,1,80
80,244,52269,5,4,0:0:0:0:
28,89,52443,1,0,0:0:0:0:
186,123,52617,1,4,0:0:0:0:
80,244,52790,1,0,0:0:0:0:
432,244,53312,5,4,0:0:0:0:
484,89,53486,1,0,0:0:0:0:
326,123,53660,1,4,0:0:0:0:
432,244,53833,1,0,0:0:0:0:
168,348,54354,5,4,0:0:0:0:
344,256,54528,1,0,0:0:0:0:
168,256,54702,1,4,0:0:0:0:
344,348,54876,1,0,0:0:0:0:
256,284,55050,6,0,L|256:184,1,80,8|0,0:0|0:0,0:0:0:0:
144,84,55397,2,0,L|168:184,1,80
349,161,55745,2,0,L|368:84,1,80,8|0,0:0|0:0,0:0:0:0:
344,40,56006,1,0,0:0:0:0:
344,40,56092,1,0,0:0:0:0:
256,156,56266,1,0,0:0:0:0:
380,300,56440,6,0,L|356:200,1,80,8|0,0:0|0:0,0:0:0:0:
150,222,56788,2,0,L|132:300,1,80,0|0,0:0|0:0,0:0:0:0:
296,156,57135,2,0,L|216:156,1,80,8|0,0:0|0:0,0:0:0:0:
216,344,57483,2,0,L|296:344,1,80
296,344,57743,1,0,0:0:0:0:
296,344,57830,5,0,0:0:0:0:
416,264,58004,2,0,L|395:214,1,40,0|0,0:0|0:0,0:0:0:0:
364,192,58178,2,0,P|325:189|285:178,1,80,2|0,0:0|0:0,0:0:0:0:
83,253,58525,6,0,L|103:207,1,40,2|0,0:0|0:0,0:0:0:0:
136,200,58699,2,0,L|156:154,1,40,2|0,0:0|0:0,0:0:0:0:
187,143,58873,2,0,L|207:97,1,40,2|0,0:0|0:0,0:0:0:0:
237,85,59047,2,0,L|257:39,1,40,2|0,0:0|0:0,0:0:0:0:
320,88,59221,6,0,P|358:107|396:105,1,80,2|0,0:0|0:0,0:0:0:0:
500,84,59481,2,0,L|488:128,1,40,2|0,0:0|0:0,0:0:0:0:
440,212,59742,1,0,0:0:0:0:
240,300,59916,5,2,0:0:0:0:
240,300,60003,1,0,0:0:0:0:
240,300,60090,1,0,0:0:0:0:
187,143,60263,1,2,0:0:0:0:
388,76,60611,5,0,0:0:0:0:
300,136,60785,1,0,0:0:0:0:
208,88,60959,1,8,0:0:0:0:
388,76,61132,2,0,P|404:112|400:156,1,80,0|0,0:0|0:0,0:0:0:0:
328,228,61480,1,2,0:0:0:0:
292,36,61654,1,10,0:0:0:0:
212,192,61828,6,0,L|148:224,1,40
124,200,62001,1,0,0:0:0:0:
56,108,62175,1,0,0:0:0:0:
168,92,62349,1,8,0:0:0:0:
20,216,62523,2,0,L|20:308,1,80,0|0,0:0|0:0,0:0:0:0:
100,372,62870,1,2,0:0:0:0:
124,200,63044,1,10,0:0:0:0:
256,356,63392,6,0,P|307:331|304:268,1,120,12|0,0:0|0:0,0:0:0:0:
236,244,63739,2,0,B|272:264|272:264|356:228,1,120,12|0,0:0|0:0,0:0:0:0:
456,268,64087,2,0,B|440:240|440:240|448:192,1,80,10|0,0:0|0:0,0:0:0:0:
476,108,64348,1,0,0:0:0:0:
476,108,64434,2,0,P|468:64|436:36,1,80,8|0,0:0|0:0,0:0:0:0:
224,136,64782,6,0,L|320:156,1,80,12|0,0:0|0:0,0:0:0:0:
388,116,65130,1,10,0:0:0:0:
156,56,65303,2,0,P|164:120|132:172,1,120,4|0,0:0|0:0,0:0:0:0:
86,191,65651,2,0,P|53:168|12:164,2,80,2|0|0,0:0|0:0|0:0,0:0:0:0:
172,288,66172,1,0,0:0:0:0:
356,348,66520,5,8,0:0:0:0:
372,252,66694,1,0,0:0:0:0:
356,348,66868,1,0,0:0:0:0:
283,285,67041,1,0,0:0:0:0:
448,348,67215,1,8,0:0:0:0:
440,172,67389,1,0,0:0:0:0:
360,108,67563,6,0,P|302:99|245:126,1,120
221,171,67910,2,0,L|192:88,1,80,8|0,0:0|0:0,0:0:0:0:
125,13,68258,1,2,0:0:0:0:
8,124,68432,1,2,0:0:0:0:
112,112,68605,1,10,0:0:0:0:
448,348,68953,5,0,0:0:0:0:
384,200,69127,1,0,0:0:0:0:
320,292,69301,1,8,0:0:0:0:
384,200,69475,1,0,0:0:0:0:
312,56,69648,1,0,0:0:0:0:
444,112,69822,1,0,0:0:0:0:
312,56,69996,1,8,0:0:0:0:
384,200,70170,1,0,0:0:0:0:
220,288,70343,6,0,L|180:272,3,40,2|0|0|0,0:0|0:0|0:0|0:0,0:0:0:0:
80,284,70691,2,0,L|48:244,3,40,10|0|0|0,0:0|0:0|0:0|0:0,0:0:0:0:
68,206,71039,5,2,0:0:0:0:
107,197,71125,1,2,0:0:0:0:
146,188,71212,1,2,0:0:0:0:
185,178,71299,1,0,0:0:0:0:
224,169,71386,1,10,0:0:0:0:
263,160,71473,1,2,0:0:0:0:
302,150,71560,1,2,0:0:0:0:
341,141,71647,1,0,0:0:0:0:
380,132,71734,6,0,L|468:154,1,80,4|0,0:0|0:0,0:0:0:0:
512,72,72081,1,8,0:0:0:0:
340,224,72255,2,0,L|456:252,1,120
500,232,72603,1,2,0:0:0:0:
428,356,72776,2,0,L|344:336,1,80,10|2,0:0|0:0,0:0:0:0:
220,344,73124,5,0,0:0:0:0:
254,253,73298,1,0,0:0:0:0:
204,170,73472,1,8,0:0:0:0:
108,158,73645,2,0,L|31:191,1,80
35,190,73906,1,0,0:0:0:0:
35,190,73993,1,2,0:0:0:0:
12,284,74166,1,10,0:0:0:0:
204,170,74341,1,2,0:0:0:0:
328,212,74514,6,0,P|386:204|416:152,1,120,4|0,0:0|0:0,0:0:0:0:
456,264,74862,2,0,P|420:310|432:368,1,120,12|0,0:0|0:0,0:0:0:0:
316,328,75210,2,0,B|292:312|292:312|232:336,1,80,10|0,0:0|0:0,0:0:0:0:
152,364,75470,1,0,0:0:0:0:
152,364,75557,2,0,P|112:372|60:364,1,80,8|0,0:0|0:0,0:0:0:0:
24,196,75905,6,0,B|52:232|52:232|96:180|160:200,1,160,0|8,0:0|0:0,0:0:0:0:
248,220,76426,1,2,0:0:0:0:
320,40,76600,1,2,0:0:0:0:
340,184,76774,1,2,0:0:0:0:
216,108,76947,2,0,L|224:68,1,40,10|0,0:0|0:0,0:0:0:0:
440,152,77295,5,2,0:0:0:0:
396,256,77469,1,2,0:0:0:0:
484,328,77643,1,10,0:0:0:0:
304,304,77816,1,2,0:0:0:0:
276,314,77902,1,2,0:0:0:0:
246,319,77989,1,2,0:0:0:0:
216,318,78076,1,0,0:0:0:0:
187,310,78164,2,0,P|149:300|109:302,1,80,2|10,0:0|0:0,0:0:0:0:
68,140,78512,5,2,0:0:0:0:
148,60,78686,1,2,0:0:0:0:
192,164,78859,1,2,0:0:0:0:
256,16,79033,1,10,0:0:0:0:
344,132,79207,1,2,0:0:0:0:
341,161,79293,1,2,0:0:0:0:
338,191,79380,1,2,0:0:0:0:
335,221,79467,1,0,0:0:0:0:
332,251,79554,2,0,L|356:344,2,80,2|10|0,0:0|0:0|0:0,0:0:0:0:
480,188,80076,6,0,P|423:199|370:173,1,120,2|0,0:0|0:0,0:0:0:0:
348,136,80423,1,8,0:0:0:0:
228,220,80597,1,2,0:0:0:0:
104,72,80771,2,0,P|115:129|89:182,1,120,2|0,0:0|0:0,0:0:0:0:
52,204,81118,1,8,0:0:0:0:
136,328,81292,1,2,0:0:0:0:
280,260,81466,6,0,L|370:266,1,80,2|0,0:0|0:0,0:0:0:0:
452,312,81814,1,10,0:0:0:0:
368,112,81987,1,0,0:0:0:0:
368,112,82074,1,0,0:0:0:0:
368,112,82161,2,0,L|376:16,1,80,2|0,0:0|0:0,0:0:0:0:
196,152,82509,2,0,L|188:72,1,80,10|0,0:0|0:0,0:0:0:0:
304,180,82856,6,0,L|472:220,1,160,6|8,0:0|0:0,0:0:0:0:
364,288,83378,1,2,0:0:0:0:
272,148,83552,2,0,L|440:188,1,160,2|8,0:0|0:0,0:0:0:0:
364,288,84073,1,2,0:0:0:0:
204,216,84247,6,0,P|168:283|203:351,1,160,2|8,0:0|0:0,0:0:0:0:
284,284,84768,1,2,0:0:0:0:
212,128,84942,2,0,P|138:150|115:224,1,160,2|8,0:0|0:0,0:0:0:0:
284,284,85463,1,2,0:0:0:0:
468,320,85637,6,0,P|401:282|404:204,1,160,2|8,0:0|0:0,0:0:0:0:
440,108,86158,1,2,0:0:0:0:
355,47,86332,1,2,0:0:0:0:
280,152,86506,1,2,0:0:0:0:
192,96,86680,2,0,L|96:116,1,80,8|0,0:0|0:0,0:0:0:0:
56,196,87027,5,4,0:0:0:0:
131,317,87201,1,0,0:0:0:0:
272,349,87375,1,12,0:0:0:0:
393,272,87549,1,0,0:0:0:0:
392,272,87896,5,0,0:0:0:0:
272,349,88070,2,0,L|252:256,1,80,10|0,0:0|0:0,0:0:0:0:
204,152,88418,5,2,0:0:0:0:
331,138,88592,1,2,0:0:0:0:
457,125,88765,1,2,0:0:0:0:
457,125,88939,1,0,0:0:0:0:
204,152,89460,5,2,0:0:0:0:
331,138,89634,1,2,0:0:0:0:
457,125,89807,1,2,0:0:0:0:
457,125,89981,1,0,0:0:0:0:
457,125,90503,5,2,0:0:0:0:
457,125,90677,1,2,0:0:0:0:
331,138,90850,1,2,0:0:0:0:
204,152,91024,1,0,0:0:0:0:
