osu file format v14

[General]
AudioFilename: imalonelyrollingstar.mp3
AudioLeadIn: 0
PreviewTime: 170247
Countdown: 0
SampleSet: Normal
StackLeniency: 0.7
Mode: 1
LetterboxInBreaks: 0
WidescreenStoryboard: 0

[Editor]
DistanceSpacing: 0.8
BeatDivisor: 4
GridSize: 4
TimelineZoom: 1.3

[Metadata]
Title:LONELY ROLLING STAR
TitleUnicode:LONELY ROLLING STAR
Artist:Saki Kabata
ArtistUnicode:椛田早紀
Creator:OzzyOzrock
Version:Oni
Source:塊魂
Tags:Katamari Damacy Fortissimo Yohihito Yano 矢野義人
BeatmapID:1053295
BeatmapSetID:494689

[Difficulty]
HPDrainRate:5
CircleSize:5
OverallDifficulty:6
ApproachRate:6
SliderMultiplier:1.4
SliderTickRate:1

[Events]
//Background and Video events
0,0,"itooktheoldBGandstretcheditdiagonally.jpg",0,-50
//Break Periods
//Storyboard Layer 0 (Background)
//Storyboard Layer 1 (Fail)
//Storyboard Layer 2 (Pass)
//Storyboard Layer 3 (Foreground)
//Storyboard Sound Samples

[TimingPoints]
924,352.941176470588,4,1,0,90,1,0
85629,-100,4,1,0,90,0,1
108218,-100,4,1,0,90,0,0
170335,-100,4,1,0,90,0,1
215512,-100,4,1,0,90,0,0
227865,-105.263157894737,4,1,0,90,0,0
229276,-111.111111111111,4,1,0,90,0,0
230688,-117.647058823529,4,1,0,90,0,0
232100,-125,4,1,0,90,0,0
233512,-133.333333333333,4,1,0,90,0,0
234923,-142.857142857143,4,1,0,90,0,0
236335,-153.846153846154,4,1,0,90,0,0
237747,-166.666666666667,4,1,0,90,0,0
239159,-181.818181818182,4,1,0,90,0,0
240923,-125,4,1,0,90,0,0
264041,-121.951219512195,4,1,0,90,0,0
264747,-119.047619047619,4,1,0,90,0,0
265453,-116.279069767442,4,1,0,90,0,0
266159,-113.636363636364,4,1,0,90,0,0
267571,-111.111111111111,4,1,0,90,0,0
269159,-200,4,1,0,90,0,0
270571,-100,4,1,0,90,0,1
327041,-100,4,1,0,90,0,0
327747,-133.333333333333,4,1,0,90,0,0

[HitObjects]
348,280,218,5,8,0:0:0:0:
348,280,306,1,8,0:0:0:0:
348,280,394,1,8,0:0:0:0:
348,280,571,1,8,0:0:0:0:
348,280,747,1,8,0:0:0:0:
96,284,923,1,0,0:0:0:0:
100,288,1276,1,0,0:0:0:0:
76,280,1629,1,0,0:0:0:0:
352,272,1806,1,8,0:0:0:0:
320,268,1982,1,8,0:0:0:0:
328,268,2159,1,8,0:0:0:0:
328,268,2688,1,8,0:0:0:0:
328,268,3041,1,8,0:0:0:0:
308,280,3394,1,8,0:0:0:0:
328,304,3571,1,8,0:0:0:0:
96,284,3747,1,0,0:0:0:0:
100,288,4100,1,0,0:0:0:0:
76,280,4453,1,0,0:0:0:0:
352,272,4629,1,8,0:0:0:0:
320,268,4806,1,8,0:0:0:0:
328,268,4982,1,8,0:0:0:0:
328,268,5512,1,8,0:0:0:0:
328,268,5865,1,8,0:0:0:0:
308,280,6218,1,8,0:0:0:0:
328,304,6394,1,8,0:0:0:0:
96,284,6571,1,0,0:0:0:0:
100,288,6923,1,0,0:0:0:0:
76,280,7276,1,0,0:0:0:0:
352,272,7453,1,8,0:0:0:0:
320,268,7629,1,8,0:0:0:0:
328,268,7806,1,8,0:0:0:0:
328,268,8335,1,8,0:0:0:0:
328,268,8688,1,8,0:0:0:0:
308,280,9041,1,8,0:0:0:0:
328,304,9218,1,8,0:0:0:0:
124,280,9394,1,0,0:0:0:0:
128,304,9747,1,0,0:0:0:0:
328,280,10100,1,8,0:0:0:0:
136,304,10629,1,0,0:0:0:0:
136,304,10982,1,0,0:0:0:0:
336,280,11159,1,8,0:0:0:0:
144,316,11512,1,0,0:0:0:0:
144,316,11688,1,0,0:0:0:0:
320,296,11865,1,8,0:0:0:0:
160,64,12218,1,4,0:0:0:0:
360,272,12571,1,8,0:0:0:0:
132,320,12923,1,0,0:0:0:0:
132,320,13100,1,0,0:0:0:0:
384,284,13276,1,8,0:0:0:0:
376,288,13453,1,8,0:0:0:0:
192,304,13806,1,0,0:0:0:0:
360,284,13982,1,8,0:0:0:0:
388,292,14335,1,8,0:0:0:0:
168,312,14512,1,0,0:0:0:0:
348,280,14688,1,8,0:0:0:0:
348,280,14865,1,8,0:0:0:0:
152,312,15041,1,0,0:0:0:0:
360,272,15394,1,8,0:0:0:0:
132,320,15747,1,0,0:0:0:0:
132,320,15923,1,0,0:0:0:0:
384,284,16100,1,8,0:0:0:0:
376,288,16276,1,8,0:0:0:0:
192,304,16629,1,0,0:0:0:0:
360,284,16806,1,8,0:0:0:0:
388,292,17159,1,8,0:0:0:0:
168,312,17335,1,0,0:0:0:0:
348,280,17512,1,8,0:0:0:0:
348,280,17688,1,8,0:0:0:0:
152,312,17865,1,0,0:0:0:0:
360,272,18218,1,8,0:0:0:0:
132,320,18571,1,0,0:0:0:0:
132,320,18747,1,0,0:0:0:0:
384,284,18923,1,8,0:0:0:0:
376,288,19100,1,8,0:0:0:0:
192,304,19453,1,0,0:0:0:0:
360,284,19629,1,8,0:0:0:0:
388,292,19982,1,8,0:0:0:0:
168,312,20159,1,0,0:0:0:0:
348,280,20335,1,8,0:0:0:0:
348,280,20512,1,8,0:0:0:0:
152,312,20688,1,0,0:0:0:0:
320,292,21041,1,8,0:0:0:0:
160,304,21394,1,0,0:0:0:0:
160,304,21571,1,0,0:0:0:0:
160,304,21747,1,0,0:0:0:0:
344,300,21923,1,8,0:0:0:0:
144,312,22100,1,0,0:0:0:0:
336,304,22453,1,8,0:0:0:0:
120,308,22629,1,0,0:0:0:0:
361,297,22806,1,8,0:0:0:0:
352,292,22982,1,8,0:0:0:0:
352,296,23071,1,8,0:0:0:0:
92,296,23159,1,0,0:0:0:0:
112,108,23512,1,4,0:0:0:0:
372,272,23865,1,8,0:0:0:0:
140,312,24218,1,0,0:0:0:0:
140,312,24394,1,0,0:0:0:0:
392,284,24571,1,8,0:0:0:0:
164,304,24747,1,0,0:0:0:0:
152,280,24923,1,0,0:0:0:0:
356,268,25276,1,8,0:0:0:0:
164,304,25453,1,0,0:0:0:0:
164,304,25806,1,0,0:0:0:0:
320,280,25982,1,8,0:0:0:0:
156,304,26335,1,0,0:0:0:0:
388,196,26688,1,8,0:0:0:0:
136,300,27041,1,0,0:0:0:0:
368,256,27394,1,8,0:0:0:0:
400,272,27571,1,8,0:0:0:0:
160,300,27747,1,0,0:0:0:0:
380,256,28100,1,8,0:0:0:0:
160,284,28276,1,0,0:0:0:0:
160,284,28629,1,0,0:0:0:0:
332,272,28806,1,8,0:0:0:0:
148,288,29159,1,0,0:0:0:0:
356,268,29512,1,8,0:0:0:0:
156,296,29865,1,0,0:0:0:0:
156,296,30041,1,0,0:0:0:0:
372,268,30218,1,8,0:0:0:0:
372,268,30394,1,8,0:0:0:0:
152,296,30571,1,0,0:0:0:0:
392,268,30923,1,8,0:0:0:0:
152,276,31100,1,0,0:0:0:0:
152,276,31453,1,0,0:0:0:0:
364,264,31629,1,8,0:0:0:0:
124,280,31982,1,0,0:0:0:0:
372,268,32335,1,8,0:0:0:0:
136,272,32688,1,0,0:0:0:0:
400,276,32865,1,8,0:0:0:0:
400,276,33041,1,8,0:0:0:0:
136,272,33218,1,0,0:0:0:0:
88,288,33394,1,0,0:0:0:0:
368,276,33747,1,8,0:0:0:0:
128,308,33923,1,0,0:0:0:0:
104,284,34100,1,0,0:0:0:0:
352,256,34188,1,8,0:0:0:0:
140,264,34276,1,0,0:0:0:0:
340,272,34365,1,8,0:0:0:0:
144,296,34453,1,0,0:0:0:0:
144,296,34629,1,0,0:0:0:0:
308,292,34718,1,8,0:0:0:0:
112,108,34806,1,0,0:0:0:0:
372,272,35159,1,8,0:0:0:0:
372,272,35512,1,8,0:0:0:0:
392,284,35688,1,8,0:0:0:0:
140,312,35865,1,0,0:0:0:0:
320,292,36041,1,8,0:0:0:0:
152,280,36218,1,0,0:0:0:0:
356,268,36571,1,8,0:0:0:0:
164,304,36747,1,0,0:0:0:0:
164,304,37100,1,0,0:0:0:0:
320,280,37276,1,8,0:0:0:0:
156,304,37629,1,0,0:0:0:0:
388,196,37982,1,8,0:0:0:0:
136,300,38335,1,0,0:0:0:0:
280,252,38512,1,8,0:0:0:0:
368,256,38688,1,8,0:0:0:0:
400,272,38865,1,8,0:0:0:0:
160,300,39041,1,0,0:0:0:0:
380,256,39394,1,8,0:0:0:0:
160,284,39571,1,0,0:0:0:0:
160,284,39923,1,0,0:0:0:0:
332,272,40100,1,8,0:0:0:0:
148,288,40453,1,0,0:0:0:0:
356,268,40806,1,8,0:0:0:0:
156,296,41159,1,0,0:0:0:0:
372,268,41335,1,8,0:0:0:0:
156,296,41512,1,0,0:0:0:0:
372,268,41688,1,8,0:0:0:0:
152,296,41865,1,0,0:0:0:0:
392,268,42218,1,8,0:0:0:0:
152,276,42394,1,0,0:0:0:0:
152,276,42747,1,0,0:0:0:0:
364,264,42923,1,8,0:0:0:0:
124,280,43276,1,0,0:0:0:0:
372,268,43629,1,8,0:0:0:0:
140,284,43806,1,0,0:0:0:0:
136,272,43982,1,0,0:0:0:0:
136,272,44159,1,0,0:0:0:0:
400,276,44335,1,8,0:0:0:0:
400,276,44512,1,8,0:0:0:0:
88,288,44688,1,0,0:0:0:0:
368,276,45041,1,8,0:0:0:0:
128,308,45218,1,0,0:0:0:0:
347,296,45571,1,8,0:0:0:0:
142,296,45747,1,0,0:0:0:0:
56,296,45835,1,0,0:0:0:0:
336,268,45923,1,8,0:0:0:0:
336,268,46012,1,8,0:0:0:0:
112,108,46100,1,0,0:0:0:0:
372,272,46453,1,8,0:0:0:0:
140,312,46806,1,0,0:0:0:0:
367,300,46982,1,8,0:0:0:0:
369,285,47159,1,8,0:0:0:0:
339,273,47335,1,8,0:0:0:0:
152,280,47512,1,0,0:0:0:0:
320,280,47864,1,8,0:0:0:0:
164,304,48041,1,0,0:0:0:0:
141,283,48394,1,0,0:0:0:0:
335,221,48571,1,8,0:0:0:0:
268,272,48747,1,8,0:0:0:0:
156,304,48923,1,0,0:0:0:0:
388,196,49276,1,8,0:0:0:0:
136,300,49629,1,0,0:0:0:0:
280,252,49806,1,8,0:0:0:0:
400,272,49982,1,8,0:0:0:0:
148,320,50159,1,0,0:0:0:0:
160,300,50335,1,0,0:0:0:0:
380,256,50688,1,8,0:0:0:0:
160,284,50865,1,0,0:0:0:0:
160,284,51218,1,0,0:0:0:0:
328,260,51394,1,8,0:0:0:0:
332,272,51571,1,8,0:0:0:0:
148,288,51747,1,0,0:0:0:0:
356,268,52100,1,8,0:0:0:0:
353,298,52453,1,8,0:0:0:0:
372,268,52629,1,8,0:0:0:0:
160,303,52806,1,0,0:0:0:0:
372,268,52982,1,8,0:0:0:0:
152,296,53159,1,0,0:0:0:0:
392,268,53512,1,8,0:0:0:0:
152,276,53688,1,0,0:0:0:0:
152,276,54041,1,0,0:0:0:0:
388,285,54218,1,8,0:0:0:0:
364,264,54394,1,8,0:0:0:0:
124,280,54571,1,0,0:0:0:0:
372,268,54923,1,8,0:0:0:0:
136,272,55276,1,0,0:0:0:0:
136,272,55453,1,0,0:0:0:0:
376,288,55629,1,8,0:0:0:0:
376,288,55806,1,8,0:0:0:0:
88,288,55982,1,0,0:0:0:0:
401,273,56159,1,8,0:0:0:0:
388,288,56335,1,8,0:0:0:0:
388,288,56512,1,8,0:0:0:0:
129,294,56688,1,0,0:0:0:0:
388,264,56776,1,8,0:0:0:0:
130,278,56865,1,0,0:0:0:0:
373,255,56953,1,8,0:0:0:0:
171,268,57041,1,0,0:0:0:0:
112,108,57394,1,0,0:0:0:0:
372,272,57747,1,8,0:0:0:0:
372,272,58100,1,8,0:0:0:0:
140,312,58276,1,0,0:0:0:0:
392,284,58453,1,8,0:0:0:0:
320,292,58629,1,8,0:0:0:0:
152,280,58806,1,0,0:0:0:0:
340,276,58982,1,8,0:0:0:0:
356,268,59159,1,8,0:0:0:0:
336,256,59335,1,8,0:0:0:0:
164,304,59512,1,0,0:0:0:0:
324,308,59688,1,8,0:0:0:0:
320,280,59865,1,8,0:0:0:0:
156,304,60218,1,0,0:0:0:0:
388,196,60571,1,8,0:0:0:0:
136,300,60923,1,0,0:0:0:0:
280,252,61100,1,8,0:0:0:0:
368,256,61276,1,8,0:0:0:0:
400,272,61453,1,8,0:0:0:0:
160,300,61629,1,0,0:0:0:0:
320,248,61806,1,8,0:0:0:0:
380,256,61982,1,8,0:0:0:0:
312,248,62159,1,8,0:0:0:0:
160,284,62335,1,0,0:0:0:0:
396,264,62512,1,8,0:0:0:0:
332,272,62688,1,8,0:0:0:0:
148,288,63041,1,0,0:0:0:0:
356,268,63394,1,8,0:0:0:0:
156,296,63747,1,0,0:0:0:0:
372,268,63923,1,8,0:0:0:0:
156,296,64100,1,0,0:0:0:0:
372,268,64276,1,8,0:0:0:0:
152,296,64453,1,0,0:0:0:0:
388,264,64629,1,8,0:0:0:0:
392,268,64806,1,8,0:0:0:0:
384,272,64982,1,8,0:0:0:0:
64,280,65159,1,0,0:0:0:0:
384,272,65335,1,8,0:0:0:0:
364,264,65512,1,8,0:0:0:0:
124,280,65865,1,0,0:0:0:0:
372,268,66218,1,8,0:0:0:0:
136,272,66571,1,0,0:0:0:0:
136,272,66747,1,0,0:0:0:0:
400,276,66923,1,8,0:0:0:0:
400,276,67100,1,8,0:0:0:0:
88,288,67276,1,0,0:0:0:0:
372,268,67453,1,8,0:0:0:0:
372,268,67629,1,8,0:0:0:0:
112,280,67806,1,0,0:0:0:0:
336,276,67894,1,8,0:0:0:0:
336,276,67982,1,8,0:0:0:0:
128,272,68071,1,0,0:0:0:0:
424,256,68159,1,8,0:0:0:0:
380,104,68335,1,12,0:0:0:0:
380,264,68688,1,8,0:0:0:0:
140,304,68865,1,0,0:0:0:0:
400,268,69041,1,8,0:0:0:0:
128,304,69218,1,0,0:0:0:0:
128,304,69306,1,0,0:0:0:0:
408,268,69394,1,8,0:0:0:0:
148,296,69571,1,0,0:0:0:0:
388,272,69747,1,8,0:0:0:0:
404,272,70100,1,8,0:0:0:0:
152,288,70276,1,0,0:0:0:0:
372,280,70629,1,8,0:0:0:0:
372,280,70806,1,8,0:0:0:0:
132,296,70982,1,0,0:0:0:0:
132,296,71159,1,0,0:0:0:0:
388,312,71512,1,8,0:0:0:0:
136,272,71688,1,0,0:0:0:0:
360,276,71865,1,8,0:0:0:0:
360,276,71953,1,8,0:0:0:0:
176,284,72041,1,0,0:0:0:0:
384,296,72218,1,8,0:0:0:0:
152,288,72394,1,0,0:0:0:0:
360,284,72571,1,8,0:0:0:0:
348,272,72923,1,8,0:0:0:0:
144,304,73100,1,0,0:0:0:0:
144,304,73276,1,0,0:0:0:0:
356,296,73453,1,8,0:0:0:0:
356,296,73806,1,8,0:0:0:0:
144,296,73982,1,0,0:0:0:0:
392,300,74335,1,8,0:0:0:0:
208,304,74512,1,0,0:0:0:0:
208,304,74600,1,0,0:0:0:0:
420,276,74688,1,8,0:0:0:0:
144,304,74865,1,0,0:0:0:0:
360,280,75041,1,8,0:0:0:0:
176,284,75218,1,0,0:0:0:0:
176,284,75306,1,0,0:0:0:0:
348,264,75394,1,8,0:0:0:0:
176,296,75571,1,0,0:0:0:0:
360,260,75747,1,8,0:0:0:0:
220,284,75923,1,0,0:0:0:0:
360,244,76100,1,8,0:0:0:0:
384,248,76276,1,8,0:0:0:0:
372,240,76365,1,8,0:0:0:0:
112,276,76453,1,0,0:0:0:0:
196,284,76629,1,0,0:0:0:0:
368,240,76806,1,8,0:0:0:0:
356,236,77159,1,8,0:0:0:0:
184,268,77335,1,0,0:0:0:0:
336,232,77512,1,8,0:0:0:0:
112,264,77688,1,0,0:0:0:0:
336,256,77865,1,8,0:0:0:0:
344,240,77953,1,8,0:0:0:0:
164,280,78041,1,0,0:0:0:0:
304,256,78218,1,8,0:0:0:0:
124,284,78394,1,0,0:0:0:0:
400,272,78571,1,8,0:0:0:0:
136,260,78747,1,0,0:0:0:0:
136,260,78835,1,0,0:0:0:0:
272,248,78923,1,8,0:0:0:0:
288,244,79100,1,8,0:0:0:0:
172,272,79276,1,0,0:0:0:0:
172,272,79453,1,0,0:0:0:0:
304,256,79629,1,8,0:0:0:0:
168,256,79806,1,0,0:0:0:0:
384,96,79982,1,12,0:0:0:0:
356,256,80688,1,8,0:0:0:0:
68,248,81394,1,0,0:0:0:0:
96,284,81747,1,0,0:0:0:0:
360,252,82100,1,8,0:0:0:0:
136,276,82276,1,0,0:0:0:0:
56,256,82806,1,0,0:0:0:0:
136,276,83159,1,0,0:0:0:0:
344,272,83335,1,8,0:0:0:0:
148,284,83512,1,0,0:0:0:0:
288,256,83688,1,8,0:0:0:0:
288,256,83776,1,8,0:0:0:0:
176,276,83865,1,0,0:0:0:0:
344,272,84218,1,8,0:0:0:0:
336,256,84747,1,8,0:0:0:0:
336,256,84923,1,8,0:0:0:0:
312,268,85100,1,8,0:0:0:0:
128,268,85276,1,0,0:0:0:0:
128,268,85453,1,0,0:0:0:0:
100,124,85629,1,4,0:0:0:0:
332,256,85982,1,8,0:0:0:0:
104,272,86159,1,0,0:0:0:0:
104,272,86335,1,0,0:0:0:0:
104,272,86423,1,0,0:0:0:0:
104,216,86512,1,0,0:0:0:0:
380,244,86688,1,8,0:0:0:0:
96,264,86865,1,0,0:0:0:0:
120,260,87041,1,0,0:0:0:0:
88,273,87218,1,0,0:0:0:0:
88,273,87306,1,0,0:0:0:0:
348,216,87394,1,8,0:0:0:0:
136,248,87571,1,0,0:0:0:0:
136,248,87747,1,0,0:0:0:0:
136,248,87835,1,0,0:0:0:0:
136,252,87923,1,0,0:0:0:0:
332,224,88100,1,8,0:0:0:0:
160,248,88453,1,0,0:0:0:0:
340,212,88806,1,8,0:0:0:0:
168,248,88982,1,0,0:0:0:0:
168,248,89159,1,0,0:0:0:0:
168,248,89247,1,0,0:0:0:0:
168,248,89335,1,0,0:0:0:0:
328,224,89512,1,8,0:0:0:0:
156,240,89688,1,0,0:0:0:0:
301,247,89865,1,8,0:0:0:0:
301,247,89953,1,8,0:0:0:0:
301,247,90041,1,8,0:0:0:0:
340,188,90218,1,8,0:0:0:0:
120,228,90394,1,0,0:0:0:0:
152,248,90747,1,0,0:0:0:0:
304,224,90923,1,8,0:0:0:0:
48,220,91276,1,0,0:0:0:0:
332,256,91629,1,8,0:0:0:0:
104,272,91806,1,0,0:0:0:0:
104,272,91982,1,0,0:0:0:0:
104,272,92071,1,0,0:0:0:0:
104,216,92159,1,0,0:0:0:0:
380,244,92335,1,8,0:0:0:0:
96,264,92512,1,0,0:0:0:0:
120,260,92688,1,0,0:0:0:0:
120,260,92865,1,0,0:0:0:0:
120,260,92953,1,0,0:0:0:0:
348,216,93041,1,8,0:0:0:0:
136,248,93218,1,0,0:0:0:0:
136,248,93394,1,0,0:0:0:0:
136,248,93482,1,0,0:0:0:0:
136,252,93571,1,0,0:0:0:0:
332,224,93747,1,8,0:0:0:0:
160,248,94100,1,0,0:0:0:0:
340,212,94453,1,8,0:0:0:0:
168,248,94629,1,0,0:0:0:0:
168,248,94806,1,0,0:0:0:0:
168,248,94894,1,0,0:0:0:0:
168,248,94982,1,0,0:0:0:0:
328,224,95159,1,8,0:0:0:0:
156,240,95335,1,0,0:0:0:0:
156,244,95512,1,0,0:0:0:0:
156,244,95600,1,0,0:0:0:0:
156,244,95688,1,0,0:0:0:0:
340,188,95865,1,8,0:0:0:0:
120,228,96041,1,0,0:0:0:0:
296,240,96218,1,8,0:0:0:0:
296,240,96306,1,8,0:0:0:0:
152,248,96394,1,0,0:0:0:0:
120,244,96482,1,0,0:0:0:0:
304,224,96571,1,8,0:0:0:0:
336,192,96747,1,8,0:0:0:0:
100,124,96923,1,4,0:0:0:0:
332,256,97276,1,8,0:0:0:0:
104,272,97453,1,0,0:0:0:0:
104,272,97629,1,0,0:0:0:0:
104,272,97718,1,0,0:0:0:0:
104,216,97806,1,0,0:0:0:0:
380,244,97982,1,8,0:0:0:0:
96,264,98159,1,0,0:0:0:0:
120,260,98335,1,0,0:0:0:0:
120,260,98512,1,0,0:0:0:0:
120,260,98600,1,0,0:0:0:0:
348,216,98688,1,8,0:0:0:0:
136,248,98865,1,0,0:0:0:0:
136,248,99041,1,0,0:0:0:0:
136,248,99129,1,0,0:0:0:0:
136,252,99218,1,0,0:0:0:0:
332,224,99394,1,8,0:0:0:0:
160,248,99747,1,0,0:0:0:0:
340,212,100100,1,8,0:0:0:0:
168,248,100276,1,0,0:0:0:0:
168,248,100453,1,0,0:0:0:0:
168,248,100541,1,0,0:0:0:0:
168,248,100629,1,0,0:0:0:0:
328,224,100806,1,8,0:0:0:0:
156,240,100982,1,0,0:0:0:0:
307,243,101159,1,8,0:0:0:0:
307,243,101247,1,8,0:0:0:0:
307,243,101335,1,8,0:0:0:0:
340,188,101512,1,8,0:0:0:0:
120,228,101688,1,0,0:0:0:0:
152,248,102041,1,0,0:0:0:0:
304,224,102218,1,8,0:0:0:0:
48,220,102571,1,0,0:0:0:0:
332,256,102923,1,8,0:0:0:0:
104,272,103100,1,0,0:0:0:0:
104,272,103276,1,0,0:0:0:0:
104,272,103365,1,0,0:0:0:0:
104,216,103453,1,0,0:0:0:0:
380,244,103629,1,8,0:0:0:0:
96,264,103806,1,0,0:0:0:0:
120,260,103982,1,0,0:0:0:0:
120,260,104159,1,0,0:0:0:0:
120,260,104247,1,0,0:0:0:0:
348,216,104335,1,8,0:0:0:0:
124,272,104512,1,0,0:0:0:0:
136,248,104688,1,0,0:0:0:0:
136,248,104776,1,0,0:0:0:0:
136,252,104865,1,0,0:0:0:0:
332,224,105041,1,8,0:0:0:0:
332,224,105218,1,8,0:0:0:0:
160,248,105394,1,0,0:0:0:0:
340,212,105747,1,8,0:0:0:0:
168,248,105923,1,0,0:0:0:0:
168,248,106100,1,0,0:0:0:0:
168,248,106188,1,0,0:0:0:0:
168,248,106276,1,0,0:0:0:0:
328,224,106453,1,8,0:0:0:0:
156,240,106629,1,0,0:0:0:0:
156,244,106806,1,0,0:0:0:0:
156,244,106894,1,0,0:0:0:0:
156,244,106982,1,0,0:0:0:0:
340,188,107159,1,8,0:0:0:0:
120,228,107335,1,0,0:0:0:0:
84,268,107512,1,0,0:0:0:0:
84,268,107600,1,0,0:0:0:0:
84,268,107688,1,0,0:0:0:0:
84,268,107776,1,0,0:0:0:0:
268,256,107865,1,8,0:0:0:0:
268,256,107953,1,8,0:0:0:0:
308,280,108041,1,8,0:0:0:0:
108,148,108218,1,4,0:0:0:0:
100,288,108571,1,0,0:0:0:0:
76,280,108923,1,0,0:0:0:0:
352,272,109100,1,8,0:0:0:0:
320,268,109276,1,8,0:0:0:0:
328,268,109453,1,8,0:0:0:0:
48,264,109806,1,0,0:0:0:0:
328,268,109982,1,8,0:0:0:0:
328,268,110335,1,8,0:0:0:0:
308,280,110688,1,8,0:0:0:0:
328,304,110865,1,8,0:0:0:0:
96,284,111041,1,0,0:0:0:0:
100,288,111394,1,0,0:0:0:0:
76,280,111747,1,0,0:0:0:0:
352,272,111923,1,8,0:0:0:0:
320,268,112100,1,8,0:0:0:0:
328,268,112276,1,8,0:0:0:0:
148,276,112629,1,0,0:0:0:0:
328,268,112806,1,8,0:0:0:0:
328,268,113159,1,8,0:0:0:0:
308,280,113512,1,8,0:0:0:0:
328,304,113688,1,8,0:0:0:0:
96,284,113865,1,0,0:0:0:0:
100,288,114218,1,0,0:0:0:0:
76,280,114571,1,0,0:0:0:0:
352,272,114747,1,8,0:0:0:0:
320,268,114923,1,8,0:0:0:0:
328,268,115100,1,8,0:0:0:0:
96,272,115453,1,0,0:0:0:0:
328,268,115629,1,8,0:0:0:0:
328,268,115982,1,8,0:0:0:0:
308,280,116335,1,8,0:0:0:0:
328,304,116512,1,8,0:0:0:0:
124,280,116688,1,0,0:0:0:0:
128,304,117041,1,0,0:0:0:0:
328,280,117394,1,8,0:0:0:0:
136,304,117923,1,0,0:0:0:0:
136,304,118276,1,0,0:0:0:0:
336,280,118453,1,8,0:0:0:0:
364,284,118629,1,8,0:0:0:0:
144,316,118806,1,0,0:0:0:0:
144,316,118982,1,0,0:0:0:0:
320,296,119159,1,8,0:0:0:0:
324,280,119247,1,8,0:0:0:0:
144,292,119335,1,0,0:0:0:0:
160,96,119512,1,4,0:0:0:0:
384,304,119865,1,8,0:0:0:0:
40,276,120218,1,0,0:0:0:0:
60,264,120394,1,0,0:0:0:0:
388,292,120571,1,8,0:0:0:0:
388,292,120747,1,8,0:0:0:0:
68,276,121100,1,0,0:0:0:0:
352,272,121276,1,8,0:0:0:0:
340,292,121453,1,8,0:0:0:0:
116,284,121629,1,0,0:0:0:0:
388,272,121982,1,8,0:0:0:0:
320,280,122159,1,8,0:0:0:0:
132,276,122335,1,0,0:0:0:0:
384,304,122688,1,8,0:0:0:0:
40,276,123041,1,0,0:0:0:0:
60,264,123218,1,0,0:0:0:0:
388,292,123394,1,8,0:0:0:0:
388,292,123571,1,8,0:0:0:0:
68,276,123923,1,0,0:0:0:0:
352,272,124100,1,8,0:0:0:0:
340,292,124276,1,8,0:0:0:0:
116,284,124453,1,0,0:0:0:0:
388,272,124806,1,8,0:0:0:0:
320,280,124982,1,8,0:0:0:0:
132,276,125159,1,0,0:0:0:0:
384,304,125512,1,8,0:0:0:0:
40,276,125865,1,0,0:0:0:0:
60,264,126041,1,0,0:0:0:0:
388,292,126218,1,8,0:0:0:0:
388,292,126394,1,8,0:0:0:0:
68,276,126747,1,0,0:0:0:0:
352,272,126923,1,8,0:0:0:0:
340,292,127100,1,8,0:0:0:0:
116,284,127276,1,0,0:0:0:0:
388,272,127629,1,8,0:0:0:0:
320,280,127806,1,8,0:0:0:0:
132,276,127982,1,0,0:0:0:0:
336,280,128335,1,8,0:0:0:0:
108,304,128688,1,0,0:0:0:0:
108,304,128865,1,0,0:0:0:0:
108,304,129041,1,0,0:0:0:0:
368,292,129218,1,8,0:0:0:0:
108,304,129394,1,0,0:0:0:0:
336,272,129747,1,8,0:0:0:0:
120,284,129923,1,0,0:0:0:0:
352,248,130100,1,8,0:0:0:0:
344,224,130276,1,8,0:0:0:0:
348,224,130365,1,8,0:0:0:0:
164,244,130453,1,0,0:0:0:0:
360,232,130629,1,8,0:0:0:0:
176,264,130806,1,0,0:0:0:0:
336,264,131512,1,8,0:0:0:0:
336,264,131688,1,8,0:0:0:0:
172,264,131865,1,0,0:0:0:0:
336,264,132041,1,8,0:0:0:0:
188,280,134335,1,0,0:0:0:0:
424,228,134512,1,8,0:0:0:0:
144,252,134688,1,0,0:0:0:0:
388,200,134865,1,8,0:0:0:0:
112,280,137159,1,0,0:0:0:0:
320,260,137512,1,8,0:0:0:0:
404,276,137688,1,8,0:0:0:0:
140,252,139982,1,0,0:0:0:0:
392,216,140335,1,8,0:0:0:0:
128,232,140512,1,0,0:0:0:0:
88,232,140600,1,0,0:0:0:0:
96,236,140688,1,0,0:0:0:0:
424,252,141041,1,8,0:0:0:0:
432,256,141218,1,8,0:0:0:0:
364,264,141306,1,8,0:0:0:0:
172,304,141395,1,0,0:0:0:0:
362,282,141483,1,8,0:0:0:0:
128,308,141571,1,0,0:0:0:0:
362,95,141747,1,12,0:0:0:0:
98,295,142100,1,0,0:0:0:0:
304,268,142453,1,8,0:0:0:0:
372,328,142806,1,8,0:0:0:0:
372,328,142894,1,8,0:0:0:0:
172,304,142982,1,0,0:0:0:0:
344,288,143159,1,8,0:0:0:0:
376,320,143335,1,8,0:0:0:0:
160,308,143512,1,0,0:0:0:0:
380,288,143865,1,8,0:0:0:0:
192,308,144041,1,0,0:0:0:0:
192,308,144394,1,0,0:0:0:0:
324,304,144571,1,8,0:0:0:0:
212,324,144923,1,0,0:0:0:0:
392,272,145276,1,8,0:0:0:0:
184,316,145629,1,0,0:0:0:0:
184,316,145806,1,0,0:0:0:0:
184,316,145894,1,0,0:0:0:0:
332,296,145982,1,8,0:0:0:0:
332,296,146159,1,8,0:0:0:0:
172,320,146335,1,0,0:0:0:0:
376,288,146688,1,8,0:0:0:0:
188,324,146865,1,0,0:0:0:0:
188,324,147218,1,0,0:0:0:0:
344,304,147394,1,8,0:0:0:0:
88,304,147747,1,0,0:0:0:0:
380,276,148100,1,8,0:0:0:0:
160,328,148453,1,0,0:0:0:0:
160,328,148541,1,0,0:0:0:0:
160,328,148629,1,0,0:0:0:0:
320,292,148806,1,8,0:0:0:0:
176,316,148982,1,0,0:0:0:0:
168,312,149159,1,0,0:0:0:0:
392,296,149512,1,8,0:0:0:0:
156,308,149688,1,0,0:0:0:0:
156,308,150041,1,0,0:0:0:0:
328,296,150218,1,8,0:0:0:0:
172,296,150571,1,0,0:0:0:0:
344,296,150923,1,8,0:0:0:0:
164,312,151276,1,0,0:0:0:0:
304,308,151453,1,8,0:0:0:0:
304,308,151541,1,8,0:0:0:0:
304,308,151629,1,8,0:0:0:0:
296,304,151806,1,8,0:0:0:0:
132,304,151982,1,0,0:0:0:0:
300,288,152335,1,8,0:0:0:0:
336,288,152512,1,8,0:0:0:0:
336,288,152600,1,8,0:0:0:0:
116,324,152688,1,0,0:0:0:0:
116,296,152776,1,0,0:0:0:0:
164,312,152865,1,0,0:0:0:0:
364,96,153041,1,12,0:0:0:0:
384,288,153394,1,8,0:0:0:0:
128,304,153571,1,0,0:0:0:0:
392,252,153747,1,8,0:0:0:0:
128,300,153923,1,0,0:0:0:0:
128,304,154012,1,0,0:0:0:0:
412,256,154100,1,8,0:0:0:0:
340,296,154188,1,8,0:0:0:0:
168,296,154276,1,0,0:0:0:0:
352,256,154453,1,8,0:0:0:0:
88,256,154806,1,0,0:0:0:0:
388,248,154982,1,8,0:0:0:0:
196,304,155159,1,0,0:0:0:0:
392,252,155335,1,8,0:0:0:0:
392,252,155423,1,8,0:0:0:0:
392,252,155512,1,8,0:0:0:0:
392,252,155688,1,8,0:0:0:0:
192,284,155865,1,0,0:0:0:0:
128,264,156041,1,0,0:0:0:0:
424,256,156218,1,8,0:0:0:0:
228,304,156394,1,0,0:0:0:0:
376,268,156571,1,8,0:0:0:0:
376,268,156659,1,8,0:0:0:0:
152,304,156747,1,0,0:0:0:0:
152,304,156835,1,0,0:0:0:0:
368,264,156923,1,8,0:0:0:0:
196,292,157100,1,0,0:0:0:0:
392,252,157276,1,8,0:0:0:0:
176,328,157629,1,0,0:0:0:0:
348,256,157806,1,8,0:0:0:0:
240,300,157982,1,0,0:0:0:0:
240,300,158071,1,0,0:0:0:0:
384,240,158159,1,8,0:0:0:0:
384,240,158512,1,8,0:0:0:0:
100,328,158688,1,0,0:0:0:0:
360,280,159041,1,8,0:0:0:0:
196,308,159218,1,0,0:0:0:0:
196,308,159306,1,0,0:0:0:0:
388,264,159394,1,8,0:0:0:0:
160,288,159571,1,0,0:0:0:0:
360,248,159747,1,8,0:0:0:0:
360,248,159835,1,8,0:0:0:0:
212,280,159923,1,0,0:0:0:0:
200,288,160012,1,0,0:0:0:0:
336,224,160100,1,8,0:0:0:0:
168,280,160276,1,0,0:0:0:0:
344,236,160453,1,8,0:0:0:0:
148,304,160629,1,0,0:0:0:0:
184,276,160718,1,0,0:0:0:0:
368,244,160806,1,8,0:0:0:0:
352,240,160982,1,8,0:0:0:0:
352,240,161071,1,8,0:0:0:0:
144,292,161159,1,0,0:0:0:0:
336,232,161335,1,8,0:0:0:0:
156,304,161512,1,0,0:0:0:0:
332,256,161865,1,8,0:0:0:0:
164,288,162041,1,0,0:0:0:0:
320,248,162218,1,8,0:0:0:0:
320,248,162306,1,8,0:0:0:0:
176,280,162394,1,0,0:0:0:0:
292,256,162571,1,8,0:0:0:0:
172,296,162747,1,0,0:0:0:0:
296,264,162923,1,8,0:0:0:0:
296,264,163012,1,8,0:0:0:0:
180,296,163100,1,0,0:0:0:0:
176,288,163276,1,0,0:0:0:0:
272,268,163453,1,8,0:0:0:0:
272,268,163629,1,8,0:0:0:0:
272,268,163806,1,8,0:0:0:0:
148,312,163982,1,0,0:0:0:0:
288,276,164159,1,8,0:0:0:0:
288,276,164335,1,8,0:0:0:0:
108,324,164512,1,0,0:0:0:0:
348,116,164688,1,12,0:0:0:0:
312,260,165394,1,8,0:0:0:0:
120,288,166100,1,0,0:0:0:0:
116,292,166453,1,0,0:0:0:0:
352,272,166806,1,8,0:0:0:0:
128,284,166982,1,0,0:0:0:0:
80,280,167512,1,0,0:0:0:0:
120,280,167865,1,0,0:0:0:0:
316,276,168041,1,8,0:0:0:0:
172,288,168218,1,0,0:0:0:0:
388,320,168394,1,8,0:0:0:0:
388,320,168482,1,8,0:0:0:0:
176,292,168571,1,0,0:0:0:0:
368,304,168923,1,8,0:0:0:0:
344,300,169453,1,8,0:0:0:0:
376,312,169629,1,8,0:0:0:0:
172,288,169806,1,0,0:0:0:0:
380,304,169982,1,8,0:0:0:0:
380,304,170159,1,8,0:0:0:0:
152,116,170335,1,4,0:0:0:0:
328,288,170688,1,8,0:0:0:0:
168,312,170865,1,0,0:0:0:0:
168,312,170953,1,0,0:0:0:0:
356,296,171041,1,8,0:0:0:0:
192,296,171218,1,0,0:0:0:0:
192,296,171306,1,0,0:0:0:0:
364,280,171394,1,8,0:0:0:0:
364,280,171571,1,8,0:0:0:0:
196,288,171747,1,0,0:0:0:0:
388,288,171923,1,8,0:0:0:0:
388,288,172012,1,8,0:0:0:0:
388,288,172100,1,8,0:0:0:0:
388,288,172276,1,8,0:0:0:0:
192,288,172453,1,0,0:0:0:0:
372,284,172629,1,8,0:0:0:0:
372,284,172806,1,8,0:0:0:0:
392,268,172982,1,8,0:0:0:0:
68,296,173159,1,0,0:0:0:0:
376,284,173512,1,8,0:0:0:0:
240,304,173688,1,0,0:0:0:0:
392,288,173865,1,8,0:0:0:0:
376,292,173953,1,8,0:0:0:0:
168,300,174041,1,0,0:0:0:0:
392,264,174218,1,8,0:0:0:0:
172,280,174394,1,0,0:0:0:0:
348,272,174482,1,8,0:0:0:0:
168,284,174571,1,0,0:0:0:0:
368,260,174747,1,8,0:0:0:0:
364,288,174923,1,8,0:0:0:0:
176,300,175100,1,0,0:0:0:0:
176,300,175453,1,0,0:0:0:0:
376,296,175629,1,8,0:0:0:0:
124,252,175982,1,0,0:0:0:0:
176,300,176159,1,0,0:0:0:0:
328,288,176335,1,8,0:0:0:0:
168,312,176512,1,0,0:0:0:0:
168,312,176600,1,0,0:0:0:0:
356,296,176688,1,8,0:0:0:0:
192,296,176865,1,0,0:0:0:0:
192,296,176953,1,0,0:0:0:0:
364,280,177041,1,8,0:0:0:0:
364,280,177218,1,8,0:0:0:0:
196,288,177394,1,0,0:0:0:0:
388,288,177571,1,8,0:0:0:0:
388,288,177659,1,8,0:0:0:0:
388,288,177747,1,8,0:0:0:0:
388,288,177923,1,8,0:0:0:0:
192,288,178100,1,0,0:0:0:0:
372,284,178276,1,8,0:0:0:0:
372,284,178453,1,8,0:0:0:0:
404,296,178629,1,8,0:0:0:0:
68,296,178806,1,0,0:0:0:0:
376,284,179159,1,8,0:0:0:0:
240,304,179335,1,0,0:0:0:0:
392,288,179512,1,8,0:0:0:0:
376,292,179600,1,8,0:0:0:0:
168,300,179688,1,0,0:0:0:0:
392,264,179865,1,8,0:0:0:0:
172,280,180041,1,0,0:0:0:0:
348,272,180129,1,8,0:0:0:0:
168,284,180218,1,0,0:0:0:0:
368,260,180394,1,8,0:0:0:0:
364,288,180571,1,8,0:0:0:0:
324,292,180747,1,8,0:0:0:0:
200,320,180923,1,0,0:0:0:0:
236,308,181012,1,0,0:0:0:0:
200,296,181100,1,0,0:0:0:0:
356,296,181276,1,8,0:0:0:0:
356,296,181365,1,8,0:0:0:0:
356,296,181453,1,8,0:0:0:0:
152,116,181629,1,4,0:0:0:0:
328,288,181982,1,8,0:0:0:0:
168,312,182159,1,0,0:0:0:0:
168,312,182247,1,0,0:0:0:0:
356,296,182335,1,8,0:0:0:0:
192,296,182512,1,0,0:0:0:0:
192,296,182600,1,0,0:0:0:0:
364,280,182688,1,8,0:0:0:0:
364,280,182865,1,8,0:0:0:0:
196,288,183041,1,0,0:0:0:0:
388,288,183218,1,8,0:0:0:0:
388,288,183306,1,8,0:0:0:0:
388,288,183394,1,8,0:0:0:0:
388,288,183571,1,8,0:0:0:0:
192,288,183747,1,0,0:0:0:0:
372,284,183923,1,8,0:0:0:0:
372,284,184100,1,8,0:0:0:0:
392,268,184276,1,8,0:0:0:0:
68,296,184453,1,0,0:0:0:0:
376,284,184806,1,8,0:0:0:0:
240,304,184982,1,0,0:0:0:0:
392,288,185159,1,8,0:0:0:0:
376,292,185247,1,8,0:0:0:0:
168,300,185335,1,0,0:0:0:0:
392,264,185512,1,8,0:0:0:0:
172,280,185688,1,0,0:0:0:0:
348,272,185776,1,8,0:0:0:0:
168,284,185865,1,0,0:0:0:0:
368,260,186041,1,8,0:0:0:0:
364,288,186218,1,8,0:0:0:0:
176,300,186394,1,0,0:0:0:0:
176,300,186747,1,0,0:0:0:0:
376,296,186923,1,8,0:0:0:0:
124,252,187276,1,0,0:0:0:0:
176,300,187453,1,0,0:0:0:0:
328,288,187629,1,8,0:0:0:0:
168,312,187806,1,0,0:0:0:0:
168,312,187894,1,0,0:0:0:0:
356,296,187982,1,8,0:0:0:0:
192,296,188159,1,0,0:0:0:0:
192,296,188247,1,0,0:0:0:0:
364,280,188335,1,8,0:0:0:0:
364,280,188512,1,8,0:0:0:0:
196,288,188688,1,0,0:0:0:0:
388,288,188865,1,8,0:0:0:0:
388,288,188953,1,8,0:0:0:0:
388,288,189041,1,8,0:0:0:0:
388,288,189218,1,8,0:0:0:0:
192,288,189394,1,0,0:0:0:0:
372,284,189571,1,8,0:0:0:0:
372,284,189747,1,8,0:0:0:0:
404,296,189923,1,8,0:0:0:0:
68,296,190100,1,0,0:0:0:0:
376,284,190453,1,8,0:0:0:0:
240,304,190629,1,0,0:0:0:0:
392,288,190806,1,8,0:0:0:0:
376,292,190894,1,8,0:0:0:0:
168,300,190982,1,0,0:0:0:0:
392,264,191159,1,8,0:0:0:0:
172,280,191335,1,0,0:0:0:0:
348,272,191423,1,8,0:0:0:0:
168,284,191512,1,0,0:0:0:0:
368,260,191688,1,8,0:0:0:0:
364,288,191865,1,8,0:0:0:0:
324,292,192041,1,8,0:0:0:0:
200,320,192218,1,0,0:0:0:0:
364,284,192306,1,8,0:0:0:0:
200,296,192394,1,0,0:0:0:0:
200,296,192482,1,0,0:0:0:0:
356,296,192571,1,8,0:0:0:0:
356,296,192659,1,8,0:0:0:0:
356,296,192747,1,8,0:0:0:0:
96,104,192923,1,4,0:0:0:0:
372,316,193276,1,8,0:0:0:0:
212,308,193453,1,0,0:0:0:0:
404,296,193629,1,8,0:0:0:0:
404,296,193718,1,8,0:0:0:0:
112,272,193806,1,0,0:0:0:0:
312,292,193982,1,8,0:0:0:0:
328,256,194071,1,8,0:0:0:0:
136,304,194159,1,0,0:0:0:0:
88,264,194335,1,0,0:0:0:0:
56,296,194512,1,0,0:0:0:0:
64,296,194600,1,0,0:0:0:0:
336,284,194688,1,8,0:0:0:0:
336,284,194865,1,8,0:0:0:0:
120,280,195041,1,0,0:0:0:0:
312,268,195218,1,8,0:0:0:0:
312,268,195394,1,8,0:0:0:0:
320,272,195571,1,8,0:0:0:0:
136,288,195747,1,0,0:0:0:0:
348,272,196100,1,8,0:0:0:0:
152,296,196276,1,0,0:0:0:0:
152,296,196365,1,0,0:0:0:0:
356,272,196453,1,8,0:0:0:0:
352,280,196629,1,8,0:0:0:0:
128,280,196806,1,0,0:0:0:0:
128,280,196894,1,0,0:0:0:0:
128,280,196982,1,0,0:0:0:0:
376,260,197159,1,8,0:0:0:0:
172,296,197335,1,0,0:0:0:0:
132,304,197512,1,0,0:0:0:0:
316,272,197688,1,8,0:0:0:0:
176,336,198041,1,0,0:0:0:0:
364,264,198129,1,8,0:0:0:0:
192,288,198218,1,0,0:0:0:0:
352,288,198394,1,8,0:0:0:0:
152,292,198571,1,0,0:0:0:0:
152,292,198747,1,0,0:0:0:0:
372,316,198923,1,8,0:0:0:0:
212,308,199100,1,0,0:0:0:0:
404,296,199276,1,8,0:0:0:0:
404,296,199365,1,8,0:0:0:0:
112,272,199453,1,0,0:0:0:0:
312,292,199629,1,8,0:0:0:0:
328,256,199718,1,8,0:0:0:0:
136,304,199806,1,0,0:0:0:0:
88,264,199982,1,0,0:0:0:0:
56,296,200159,1,0,0:0:0:0:
64,296,200247,1,0,0:0:0:0:
336,284,200335,1,8,0:0:0:0:
336,284,200512,1,8,0:0:0:0:
120,280,200688,1,0,0:0:0:0:
312,268,200865,1,8,0:0:0:0:
312,268,201041,1,8,0:0:0:0:
320,272,201218,1,8,0:0:0:0:
136,288,201394,1,0,0:0:0:0:
348,272,201747,1,8,0:0:0:0:
152,296,201923,1,0,0:0:0:0:
152,296,202012,1,0,0:0:0:0:
356,272,202100,1,8,0:0:0:0:
352,280,202276,1,8,0:0:0:0:
128,280,202453,1,0,0:0:0:0:
128,280,202541,1,0,0:0:0:0:
128,280,202629,1,0,0:0:0:0:
376,260,202806,1,8,0:0:0:0:
168,268,202982,1,0,0:0:0:0:
356,264,203159,1,8,0:0:0:0:
356,264,203335,1,8,0:0:0:0:
124,296,203512,1,0,0:0:0:0:
124,296,203600,1,0,0:0:0:0:
312,272,203688,1,8,0:0:0:0:
320,268,203865,1,8,0:0:0:0:
320,268,203953,1,8,0:0:0:0:
172,280,204041,1,0,0:0:0:0:
96,92,204218,1,4,0:0:0:0:
372,316,204571,1,8,0:0:0:0:
212,308,204747,1,0,0:0:0:0:
404,296,204923,1,8,0:0:0:0:
404,296,205012,1,8,0:0:0:0:
112,272,205100,1,0,0:0:0:0:
312,292,205276,1,8,0:0:0:0:
328,256,205365,1,8,0:0:0:0:
136,304,205453,1,0,0:0:0:0:
88,264,205629,1,0,0:0:0:0:
56,296,205806,1,0,0:0:0:0:
64,296,205894,1,0,0:0:0:0:
336,284,205982,1,8,0:0:0:0:
336,284,206159,1,8,0:0:0:0:
120,280,206335,1,0,0:0:0:0:
312,268,206512,1,8,0:0:0:0:
312,268,206688,1,8,0:0:0:0:
320,272,206865,1,8,0:0:0:0:
136,288,207041,1,0,0:0:0:0:
348,272,207394,1,8,0:0:0:0:
152,296,207571,1,0,0:0:0:0:
152,296,207659,1,0,0:0:0:0:
356,272,207747,1,8,0:0:0:0:
352,280,207923,1,8,0:0:0:0:
128,280,208100,1,0,0:0:0:0:
128,280,208188,1,0,0:0:0:0:
128,280,208276,1,0,0:0:0:0:
376,260,208453,1,8,0:0:0:0:
380,320,208629,1,8,0:0:0:0:
312,296,208718,1,8,0:0:0:0:
160,272,208806,1,0,0:0:0:0:
364,264,208982,1,8,0:0:0:0:
104,292,209159,1,0,0:0:0:0:
312,196,209335,1,8,0:0:0:0:
332,244,209512,1,8,0:0:0:0:
336,264,209688,1,8,0:0:0:0:
116,284,209865,1,0,0:0:0:0:
344,260,210218,1,8,0:0:0:0:
180,276,210394,1,0,0:0:0:0:
356,252,210482,1,8,0:0:0:0:
212,260,210571,1,0,0:0:0:0:
212,260,210747,1,0,0:0:0:0:
332,244,210923,1,8,0:0:0:0:
332,244,211100,1,8,0:0:0:0:
180,264,211276,1,0,0:0:0:0:
328,240,211453,1,8,0:0:0:0:
328,240,211629,1,8,0:0:0:0:
304,244,211806,1,8,0:0:0:0:
160,264,211982,1,0,0:0:0:0:
304,244,212159,1,8,0:0:0:0:
292,232,212335,1,8,0:0:0:0:
308,236,212423,1,8,0:0:0:0:
148,256,212512,1,0,0:0:0:0:
104,264,212688,1,0,0:0:0:0:
336,240,213041,1,8,0:0:0:0:
336,240,213218,1,8,0:0:0:0:
336,240,213306,1,8,0:0:0:0:
164,272,213394,1,0,0:0:0:0:
160,272,213571,1,0,0:0:0:0:
304,244,213747,1,8,0:0:0:0:
200,264,213923,1,0,0:0:0:0:
316,240,214100,1,8,0:0:0:0:
316,240,214276,1,8,0:0:0:0:
316,240,214453,1,8,0:0:0:0:
372,288,214629,1,8,0:0:0:0:
192,256,214806,1,0,0:0:0:0:
360,292,214894,1,8,0:0:0:0:
172,272,214982,1,0,0:0:0:0:
172,272,215071,1,0,0:0:0:0:
364,304,215159,1,8,0:0:0:0:
364,304,215247,1,8,0:0:0:0:
364,304,215335,1,8,0:0:0:0:
168,84,215512,1,4,0:0:0:0:
320,272,215865,1,8,0:0:0:0:
124,296,216218,1,0,0:0:0:0:
416,308,216571,1,8,0:0:0:0:
128,284,216747,1,0,0:0:0:0:
128,284,217100,1,0,0:0:0:0:
352,312,217276,1,8,0:0:0:0:
128,288,217629,1,0,0:0:0:0:
376,300,217982,1,8,0:0:0:0:
352,268,218159,1,8,0:0:0:0:
96,308,218335,1,0,0:0:0:0:
320,272,218688,1,8,0:0:0:0:
124,296,219041,1,0,0:0:0:0:
416,308,219394,1,8,0:0:0:0:
128,284,219571,1,0,0:0:0:0:
128,284,219923,1,0,0:0:0:0:
352,312,220100,1,8,0:0:0:0:
128,288,220276,1,0,0:0:0:0:
352,276,220453,1,8,0:0:0:0:
376,300,220629,1,8,0:0:0:0:
372,280,220718,1,8,0:0:0:0:
152,304,220806,1,0,0:0:0:0:
120,112,221159,1,4,0:0:0:0:
320,272,221512,1,8,0:0:0:0:
124,296,221865,1,0,0:0:0:0:
416,308,222218,1,8,0:0:0:0:
128,284,222394,1,0,0:0:0:0:
128,284,222747,1,0,0:0:0:0:
352,312,222923,1,8,0:0:0:0:
128,288,223276,1,0,0:0:0:0:
376,300,223629,1,8,0:0:0:0:
352,268,223806,1,8,0:0:0:0:
96,308,223982,1,0,0:0:0:0:
320,272,224335,1,8,0:0:0:0:
124,296,224688,1,0,0:0:0:0:
416,308,225041,1,8,0:0:0:0:
128,284,225218,1,0,0:0:0:0:
344,288,225394,1,8,0:0:0:0:
128,284,225571,1,0,0:0:0:0:
148,280,225659,1,0,0:0:0:0:
352,312,225747,1,8,0:0:0:0:
128,288,225923,1,0,0:0:0:0:
148,280,226012,1,0,0:0:0:0:
352,276,226100,1,8,0:0:0:0:
68,292,226276,1,0,0:0:0:0:
68,292,226365,1,0,0:0:0:0:
340,268,226453,1,8,0:0:0:0:
348,280,226629,1,8,0:0:0:0:
96,308,226806,1,0,0:0:0:0:
88,288,228218,1,0,0:0:0:0:
88,288,229629,1,0,0:0:0:0:
88,288,231041,1,0,0:0:0:0:
88,288,232453,1,0,0:0:0:0:
88,288,233865,1,0,0:0:0:0:
88,288,235276,1,0,0:0:0:0:
88,288,236688,1,0,0:0:0:0:
88,288,238100,1,0,0:0:0:0:
88,288,239512,1,0,0:0:0:0:
256,192,240218,12,0,240747,0:0:0:0:
112,304,240923,5,0,0:0:0:0:
400,268,241276,1,8,0:0:0:0:
400,268,241629,1,8,0:0:0:0:
400,268,241982,1,8,0:0:0:0:
392,276,242335,1,8,0:0:0:0:
392,276,242688,1,8,0:0:0:0:
368,232,243041,1,8,0:0:0:0:
124,300,243394,1,0,0:0:0:0:
124,300,243747,1,0,0:0:0:0:
400,268,244100,1,8,0:0:0:0:
400,268,244453,1,8,0:0:0:0:
400,268,244806,1,8,0:0:0:0:
392,276,245159,1,8,0:0:0:0:
392,276,245512,1,8,0:0:0:0:
368,232,245865,1,8,0:0:0:0:
44,280,246041,1,0,0:0:0:0:
64,308,246394,1,0,0:0:0:0:
64,308,246571,1,0,0:0:0:0:
400,268,246923,1,8,0:0:0:0:
400,268,247276,1,8,0:0:0:0:
400,268,247629,1,8,0:0:0:0:
392,276,247982,1,8,0:0:0:0:
392,276,248335,1,8,0:0:0:0:
368,232,248688,1,8,0:0:0:0:
140,320,249041,1,0,0:0:0:0:
140,320,249394,1,0,0:0:0:0:
400,268,249747,1,8,0:0:0:0:
400,268,250100,1,8,0:0:0:0:
400,268,250453,1,8,0:0:0:0:
392,276,250806,1,8,0:0:0:0:
392,276,251159,1,8,0:0:0:0:
368,232,251512,1,8,0:0:0:0:
88,284,251688,1,0,0:0:0:0:
104,312,252041,1,0,0:0:0:0:
104,312,252218,1,0,0:0:0:0:
400,268,252571,1,8,0:0:0:0:
400,268,252923,1,8,0:0:0:0:
400,268,253276,1,8,0:0:0:0:
392,276,253629,1,8,0:0:0:0:
392,276,253982,1,8,0:0:0:0:
368,232,254335,1,8,0:0:0:0:
100,268,254688,1,0,0:0:0:0:
116,264,255041,1,0,0:0:0:0:
372,260,256100,1,8,0:0:0:0:
380,264,256453,1,8,0:0:0:0:
372,260,257512,1,8,0:0:0:0:
104,268,257865,1,0,0:0:0:0:
384,264,258571,1,8,0:0:0:0:
104,268,259276,1,0,0:0:0:0:
392,260,259982,1,8,0:0:0:0:
104,280,260688,1,0,0:0:0:0:
104,280,261041,1,0,0:0:0:0:
412,284,262806,1,8,0:0:0:0:
412,284,263159,1,8,0:0:0:0:
412,284,263512,1,8,0:0:0:0:
108,268,264218,1,0,0:0:0:0:
396,268,264923,1,8,0:0:0:0:
380,264,265629,1,8,0:0:0:0:
80,232,266335,2,0,L|456:292,1,369.600011279297
256,192,267747,12,0,269159,0:0:0:0:
416,88,270218,5,12,0:0:0:0:
144,120,270571,5,4,0:0:0:0:
152,288,270747,1,0,0:0:0:0:
152,288,270835,1,0,0:0:0:0:
340,252,270923,1,8,0:0:0:0:
164,280,271100,1,0,0:0:0:0:
164,280,271188,1,0,0:0:0:0:
332,252,271276,1,8,0:0:0:0:
184,272,271453,1,0,0:0:0:0:
328,240,271629,1,8,0:0:0:0:
172,304,271806,1,0,0:0:0:0:
352,288,271982,1,8,0:0:0:0:
352,288,272071,1,8,0:0:0:0:
224,292,272159,1,0,0:0:0:0:
204,308,272335,1,0,0:0:0:0:
360,284,272512,1,8,0:0:0:0:
360,284,272600,1,8,0:0:0:0:
240,296,272688,1,0,0:0:0:0:
232,300,272865,1,0,0:0:0:0:
364,276,273041,1,8,0:0:0:0:
208,288,273129,1,0,0:0:0:0:
404,276,273218,1,8,0:0:0:0:
404,276,273306,1,8,0:0:0:0:
136,276,273394,1,0,0:0:0:0:
152,288,273571,1,0,0:0:0:0:
152,288,273659,1,0,0:0:0:0:
340,252,273747,1,8,0:0:0:0:
164,280,273923,1,0,0:0:0:0:
164,280,274012,1,0,0:0:0:0:
332,252,274100,1,8,0:0:0:0:
184,272,274276,1,0,0:0:0:0:
328,240,274453,1,8,0:0:0:0:
172,304,274629,1,0,0:0:0:0:
352,288,274806,1,8,0:0:0:0:
352,288,274894,1,8,0:0:0:0:
224,292,274982,1,0,0:0:0:0:
204,308,275159,1,0,0:0:0:0:
360,284,275335,1,8,0:0:0:0:
360,284,275423,1,8,0:0:0:0:
240,296,275512,1,0,0:0:0:0:
364,276,275688,1,8,0:0:0:0:
208,288,275776,1,0,0:0:0:0:
404,276,275865,1,8,0:0:0:0:
404,276,275953,1,8,0:0:0:0:
376,288,276041,1,8,0:0:0:0:
132,292,276218,1,0,0:0:0:0:
132,292,276394,1,0,0:0:0:0:
132,292,276482,1,0,0:0:0:0:
332,272,276571,1,8,0:0:0:0:
120,280,276747,1,0,0:0:0:0:
336,256,276923,1,8,0:0:0:0:
336,256,277012,1,8,0:0:0:0:
132,264,277100,1,0,0:0:0:0:
136,256,277188,1,0,0:0:0:0:
356,248,277276,1,8,0:0:0:0:
160,272,277453,1,0,0:0:0:0:
296,252,277629,1,8,0:0:0:0:
184,272,277806,1,0,0:0:0:0:
184,272,277894,1,0,0:0:0:0:
184,272,277982,1,0,0:0:0:0:
320,252,278159,1,8,0:0:0:0:
192,272,278335,1,0,0:0:0:0:
192,272,278423,1,0,0:0:0:0:
192,272,278512,1,0,0:0:0:0:
292,244,278688,1,8,0:0:0:0:
292,244,278865,1,8,0:0:0:0:
172,276,279041,1,0,0:0:0:0:
180,252,279218,1,0,0:0:0:0:
180,256,279306,1,0,0:0:0:0:
380,248,279394,1,8,0:0:0:0:
212,272,279571,1,0,0:0:0:0:
340,240,279747,1,8,0:0:0:0:
340,240,279835,1,8,0:0:0:0:
136,264,279923,1,0,0:0:0:0:
136,264,280012,1,0,0:0:0:0:
392,264,280100,1,8,0:0:0:0:
168,284,280276,1,0,0:0:0:0:
384,264,280453,1,8,0:0:0:0:
164,276,280629,1,0,0:0:0:0:
168,280,280718,1,0,0:0:0:0:
360,248,280806,1,8,0:0:0:0:
396,256,280982,1,8,0:0:0:0:
168,280,281159,1,0,0:0:0:0:
368,228,281335,1,8,0:0:0:0:
372,260,281512,1,8,0:0:0:0:
144,120,281865,5,4,0:0:0:0:
152,288,282041,1,0,0:0:0:0:
152,288,282129,1,0,0:0:0:0:
340,252,282218,1,8,0:0:0:0:
164,280,282394,1,0,0:0:0:0:
164,280,282482,1,0,0:0:0:0:
332,252,282571,1,8,0:0:0:0:
184,272,282747,1,0,0:0:0:0:
328,240,282923,1,8,0:0:0:0:
172,304,283100,1,0,0:0:0:0:
352,288,283276,1,8,0:0:0:0:
352,288,283365,1,8,0:0:0:0:
224,292,283453,1,0,0:0:0:0:
204,308,283629,1,0,0:0:0:0:
360,284,283806,1,8,0:0:0:0:
360,284,283894,1,8,0:0:0:0:
240,296,283982,1,0,0:0:0:0:
232,300,284159,1,0,0:0:0:0:
364,276,284335,1,8,0:0:0:0:
208,288,284423,1,0,0:0:0:0:
404,276,284512,1,8,0:0:0:0:
404,276,284600,1,8,0:0:0:0:
136,276,284688,1,0,0:0:0:0:
152,288,284865,1,0,0:0:0:0:
152,288,284953,1,0,0:0:0:0:
340,252,285041,1,8,0:0:0:0:
164,280,285218,1,0,0:0:0:0:
164,280,285306,1,0,0:0:0:0:
332,252,285394,1,8,0:0:0:0:
184,272,285571,1,0,0:0:0:0:
328,240,285747,1,8,0:0:0:0:
172,304,285923,1,0,0:0:0:0:
352,288,286100,1,8,0:0:0:0:
352,288,286188,1,8,0:0:0:0:
224,292,286276,1,0,0:0:0:0:
204,308,286453,1,0,0:0:0:0:
360,284,286629,1,8,0:0:0:0:
360,284,286718,1,8,0:0:0:0:
240,296,286806,1,0,0:0:0:0:
364,276,286982,1,8,0:0:0:0:
208,288,287071,1,0,0:0:0:0:
404,276,287159,1,8,0:0:0:0:
404,276,287247,1,8,0:0:0:0:
376,288,287335,1,8,0:0:0:0:
132,292,287512,1,0,0:0:0:0:
132,292,287688,1,0,0:0:0:0:
132,292,287776,1,0,0:0:0:0:
332,272,287865,1,8,0:0:0:0:
120,280,288041,1,0,0:0:0:0:
336,256,288218,1,8,0:0:0:0:
336,256,288306,1,8,0:0:0:0:
132,264,288394,1,0,0:0:0:0:
136,256,288482,1,0,0:0:0:0:
356,248,288571,1,8,0:0:0:0:
160,272,288747,1,0,0:0:0:0:
296,252,288923,1,8,0:0:0:0:
184,272,289100,1,0,0:0:0:0:
184,272,289188,1,0,0:0:0:0:
184,272,289276,1,0,0:0:0:0:
320,252,289453,1,8,0:0:0:0:
192,272,289629,1,0,0:0:0:0:
192,272,289718,1,0,0:0:0:0:
192,272,289806,1,0,0:0:0:0:
292,244,289982,1,8,0:0:0:0:
292,244,290159,1,8,0:0:0:0:
172,276,290335,1,0,0:0:0:0:
180,252,290512,1,0,0:0:0:0:
180,256,290600,1,0,0:0:0:0:
380,248,290688,1,8,0:0:0:0:
212,272,290865,1,0,0:0:0:0:
340,240,291041,1,8,0:0:0:0:
340,240,291129,1,8,0:0:0:0:
136,264,291218,1,0,0:0:0:0:
136,264,291306,1,0,0:0:0:0:
392,264,291394,1,8,0:0:0:0:
168,284,291571,1,0,0:0:0:0:
384,264,291747,1,8,0:0:0:0:
164,276,291923,1,0,0:0:0:0:
360,248,292012,1,8,0:0:0:0:
168,280,292100,1,0,0:0:0:0:
396,256,292276,1,8,0:0:0:0:
168,280,292453,1,0,0:0:0:0:
368,240,292541,1,8,0:0:0:0:
156,288,292629,1,0,0:0:0:0:
100,256,292718,1,0,0:0:0:0:
372,260,292806,1,8,0:0:0:0:
76,88,293159,1,4,0:0:0:0:
400,272,293335,1,8,0:0:0:0:
400,272,293512,1,8,0:0:0:0:
152,280,293688,1,0,0:0:0:0:
332,280,293865,1,8,0:0:0:0:
332,280,293953,1,8,0:0:0:0:
192,308,294041,1,0,0:0:0:0:
424,280,294218,1,8,0:0:0:0:
424,280,294306,1,8,0:0:0:0:
140,284,294394,1,0,0:0:0:0:
364,280,294571,1,8,0:0:0:0:
140,284,294747,1,0,0:0:0:0:
140,284,294835,1,0,0:0:0:0:
392,280,294923,1,8,0:0:0:0:
352,280,295100,1,8,0:0:0:0:
136,312,295276,1,0,0:0:0:0:
160,312,295365,1,0,0:0:0:0:
380,248,295453,1,8,0:0:0:0:
380,248,295629,1,8,0:0:0:0:
356,276,295718,1,8,0:0:0:0:
168,304,295806,1,0,0:0:0:0:
388,256,295894,1,8,0:0:0:0:
144,300,295982,1,0,0:0:0:0:
400,272,296159,1,8,0:0:0:0:
400,272,296335,1,8,0:0:0:0:
152,280,296512,1,0,0:0:0:0:
332,280,296688,1,8,0:0:0:0:
332,280,296776,1,8,0:0:0:0:
192,308,296865,1,0,0:0:0:0:
424,280,297041,1,8,0:0:0:0:
424,280,297129,1,8,0:0:0:0:
140,284,297218,1,0,0:0:0:0:
364,280,297394,1,8,0:0:0:0:
140,284,297571,1,0,0:0:0:0:
140,284,297659,1,0,0:0:0:0:
144,312,297747,1,0,0:0:0:0:
352,280,297923,1,8,0:0:0:0:
312,280,298012,1,8,0:0:0:0:
76,276,298100,1,0,0:0:0:0:
76,276,298276,1,0,0:0:0:0:
104,300,298365,1,0,0:0:0:0:
336,248,298453,1,8,0:0:0:0:
344,260,298541,1,8,0:0:0:0:
344,260,298629,1,8,0:0:0:0:
124,256,298806,1,0,0:0:0:0:
400,272,298982,1,8,0:0:0:0:
400,272,299071,1,8,0:0:0:0:
152,280,299159,1,0,0:0:0:0:
332,280,299335,1,8,0:0:0:0:
104,292,299512,1,0,0:0:0:0:
104,292,299600,1,0,0:0:0:0:
392,272,299688,1,8,0:0:0:0:
392,272,299776,1,8,0:0:0:0:
160,276,299865,1,0,0:0:0:0:
304,268,300041,1,8,0:0:0:0:
120,284,300218,1,0,0:0:0:0:
120,284,300306,1,0,0:0:0:0:
120,284,300394,1,0,0:0:0:0:
320,272,300571,1,8,0:0:0:0:
104,296,300747,1,0,0:0:0:0:
104,296,300835,1,0,0:0:0:0:
104,304,300923,1,0,0:0:0:0:
360,264,301100,1,8,0:0:0:0:
336,304,301276,1,8,0:0:0:0:
336,304,301365,1,8,0:0:0:0:
304,268,301453,1,8,0:0:0:0:
124,256,301629,1,0,0:0:0:0:
400,272,301806,1,8,0:0:0:0:
400,272,301894,1,8,0:0:0:0:
152,280,301982,1,0,0:0:0:0:
332,280,302159,1,8,0:0:0:0:
104,292,302335,1,0,0:0:0:0:
104,292,302423,1,0,0:0:0:0:
392,272,302512,1,8,0:0:0:0:
392,272,302600,1,8,0:0:0:0:
160,276,302688,1,0,0:0:0:0:
304,268,302865,1,8,0:0:0:0:
344,280,303041,1,8,0:0:0:0:
344,280,303129,1,8,0:0:0:0:
436,312,303218,1,8,0:0:0:0:
116,312,303394,1,0,0:0:0:0:
320,260,303571,1,8,0:0:0:0:
320,260,303659,1,8,0:0:0:0:
168,268,303747,1,0,0:0:0:0:
336,244,303835,1,8,0:0:0:0:
92,268,303923,1,0,0:0:0:0:
92,268,304012,1,0,0:0:0:0:
316,248,304100,1,8,0:0:0:0:
76,88,304453,1,4,0:0:0:0:
400,272,304629,1,8,0:0:0:0:
400,272,304806,1,8,0:0:0:0:
152,280,304982,1,0,0:0:0:0:
332,280,305159,1,8,0:0:0:0:
332,280,305247,1,8,0:0:0:0:
192,308,305335,1,0,0:0:0:0:
424,280,305512,1,8,0:0:0:0:
424,280,305600,1,8,0:0:0:0:
140,284,305688,1,0,0:0:0:0:
364,280,305865,1,8,0:0:0:0:
140,284,306041,1,0,0:0:0:0:
140,284,306129,1,0,0:0:0:0:
392,280,306218,1,8,0:0:0:0:
352,280,306394,1,8,0:0:0:0:
136,312,306571,1,0,0:0:0:0:
160,312,306659,1,0,0:0:0:0:
380,248,306747,1,8,0:0:0:0:
380,248,306923,1,8,0:0:0:0:
356,276,307012,1,8,0:0:0:0:
168,304,307100,1,0,0:0:0:0:
388,256,307188,1,8,0:0:0:0:
144,300,307276,1,0,0:0:0:0:
400,272,307453,1,8,0:0:0:0:
400,272,307629,1,8,0:0:0:0:
152,280,307806,1,0,0:0:0:0:
332,280,307982,1,8,0:0:0:0:
332,280,308071,1,8,0:0:0:0:
192,308,308159,1,0,0:0:0:0:
424,280,308335,1,8,0:0:0:0:
424,280,308423,1,8,0:0:0:0:
140,284,308512,1,0,0:0:0:0:
364,280,308688,1,8,0:0:0:0:
140,284,308865,1,0,0:0:0:0:
140,284,308953,1,0,0:0:0:0:
144,312,309041,1,0,0:0:0:0:
352,280,309218,1,8,0:0:0:0:
312,280,309306,1,8,0:0:0:0:
76,276,309394,1,0,0:0:0:0:
76,276,309571,1,0,0:0:0:0:
104,300,309659,1,0,0:0:0:0:
336,248,309747,1,8,0:0:0:0:
344,260,309835,1,8,0:0:0:0:
344,260,309923,1,8,0:0:0:0:
124,256,310100,1,0,0:0:0:0:
400,272,310276,1,8,0:0:0:0:
400,272,310365,1,8,0:0:0:0:
152,280,310453,1,0,0:0:0:0:
332,280,310629,1,8,0:0:0:0:
104,292,310806,1,0,0:0:0:0:
104,292,310894,1,0,0:0:0:0:
392,272,310982,1,8,0:0:0:0:
392,272,311071,1,8,0:0:0:0:
160,276,311159,1,0,0:0:0:0:
304,268,311335,1,8,0:0:0:0:
120,284,311512,1,0,0:0:0:0:
120,284,311600,1,0,0:0:0:0:
120,284,311688,1,0,0:0:0:0:
320,272,311865,1,8,0:0:0:0:
104,296,312041,1,0,0:0:0:0:
104,296,312129,1,0,0:0:0:0:
104,304,312218,1,0,0:0:0:0:
132,296,312394,1,0,0:0:0:0:
132,296,312482,1,0,0:0:0:0:
336,304,312571,1,8,0:0:0:0:
304,268,312747,1,8,0:0:0:0:
124,256,312923,1,0,0:0:0:0:
400,272,313100,1,8,0:0:0:0:
400,272,313188,1,8,0:0:0:0:
152,280,313276,1,0,0:0:0:0:
332,280,313453,1,8,0:0:0:0:
104,292,313629,1,0,0:0:0:0:
392,272,313806,1,8,0:0:0:0:
392,272,313894,1,8,0:0:0:0:
160,276,313982,1,0,0:0:0:0:
304,268,314159,1,8,0:0:0:0:
128,280,314335,1,0,0:0:0:0:
324,256,314423,1,8,0:0:0:0:
136,304,314512,1,0,0:0:0:0:
136,288,314600,1,0,0:0:0:0:
316,256,314688,1,8,0:0:0:0:
168,268,314865,1,0,0:0:0:0:
92,268,314953,1,0,0:0:0:0:
92,268,315041,1,0,0:0:0:0:
336,244,315129,1,8,0:0:0:0:
48,284,315218,1,0,0:0:0:0:
52,284,315306,1,0,0:0:0:0:
316,256,315394,1,8,0:0:0:0:
324,288,315482,1,8,0:0:0:0:
320,264,315571,1,8,0:0:0:0:
100,124,315747,1,4,0:0:0:0:
400,264,316100,1,8,0:0:0:0:
168,268,316276,1,0,0:0:0:0:
344,264,316453,1,8,0:0:0:0:
352,248,316629,1,8,0:0:0:0:
396,280,316718,1,8,0:0:0:0:
80,284,316806,1,0,0:0:0:0:
80,284,316982,1,0,0:0:0:0:
364,236,317159,1,8,0:0:0:0:
160,248,317335,1,0,0:0:0:0:
144,280,317423,1,0,0:0:0:0:
148,284,317512,1,0,0:0:0:0:
348,268,317688,1,8,0:0:0:0:
132,272,317865,1,0,0:0:0:0:
132,272,318041,1,0,0:0:0:0:
180,272,318129,1,0,0:0:0:0:
368,252,318218,1,8,0:0:0:0:
368,252,318394,1,8,0:0:0:0:
104,296,318571,1,0,0:0:0:0:
400,264,318923,1,8,0:0:0:0:
168,268,319100,1,0,0:0:0:0:
344,264,319276,1,8,0:0:0:0:
352,248,319453,1,8,0:0:0:0:
336,244,319541,1,8,0:0:0:0:
80,284,319629,1,0,0:0:0:0:
80,284,319806,1,0,0:0:0:0:
364,236,319982,1,8,0:0:0:0:
160,248,320159,1,0,0:0:0:0:
148,284,320335,1,0,0:0:0:0:
348,268,320512,1,8,0:0:0:0:
132,272,320688,1,0,0:0:0:0:
132,272,320865,1,0,0:0:0:0:
112,256,320953,1,0,0:0:0:0:
368,252,321041,1,8,0:0:0:0:
368,252,321218,1,8,0:0:0:0:
124,116,321394,1,4,0:0:0:0:
400,264,321747,1,8,0:0:0:0:
168,268,321923,1,0,0:0:0:0:
344,264,322100,1,8,0:0:0:0:
352,248,322276,1,8,0:0:0:0:
348,248,322365,1,8,0:0:0:0:
80,284,322453,1,0,0:0:0:0:
80,284,322629,1,0,0:0:0:0:
364,236,322806,1,8,0:0:0:0:
160,248,322982,1,0,0:0:0:0:
148,284,323159,1,0,0:0:0:0:
348,268,323335,1,8,0:0:0:0:
132,272,323512,1,0,0:0:0:0:
132,272,323688,1,0,0:0:0:0:
368,252,323865,1,8,0:0:0:0:
368,252,324041,1,8,0:0:0:0:
104,296,324218,1,0,0:0:0:0:
400,264,324571,1,8,0:0:0:0:
168,268,324747,1,0,0:0:0:0:
344,264,324923,1,8,0:0:0:0:
44,272,325100,1,0,0:0:0:0:
64,284,325188,1,0,0:0:0:0:
352,248,325276,1,8,0:0:0:0:
88,276,325453,1,0,0:0:0:0:
336,264,325629,1,8,0:0:0:0:
336,264,325718,1,8,0:0:0:0:
80,224,325806,1,0,0:0:0:0:
188,264,325982,1,0,0:0:0:0:
332,256,326159,1,8,0:0:0:0:
332,256,326247,1,8,0:0:0:0:
124,252,326335,1,0,0:0:0:0:
360,264,326512,1,8,0:0:0:0:
128,292,326600,1,0,0:0:0:0:
360,264,326688,1,8,0:0:0:0:
332,256,326776,1,8,0:0:0:0:
132,268,326865,1,0,0:0:0:0:
360,264,326953,1,8,0:0:0:0:
172,292,327041,1,0,0:0:0:0:
112,324,327923,1,0,0:0:0:0:
368,280,328100,1,8,0:0:0:0:
344,264,328276,1,8,0:0:0:0:
348,264,328453,1,8,0:0:0:0:
140,296,328629,1,0,0:0:0:0:
336,280,328982,1,8,0:0:0:0:
140,296,329335,1,0,0:0:0:0:
156,264,329688,1,0,0:0:0:0:
344,264,329865,1,8,0:0:0:0:
348,264,330218,1,8,0:0:0:0:
344,264,330571,1,8,0:0:0:0:
144,272,330747,1,0,0:0:0:0:
140,276,331100,1,0,0:0:0:0:
112,300,332688,1,0,0:0:0:0:
112,324,333571,1,0,0:0:0:0:
368,280,333747,1,8,0:0:0:0:
344,264,333923,1,8,0:0:0:0:
348,264,334100,1,8,0:0:0:0:
140,296,334276,1,0,0:0:0:0:
336,280,334629,1,8,0:0:0:0:
140,296,334982,1,0,0:0:0:0:
156,264,335335,1,0,0:0:0:0:
344,264,335512,1,8,0:0:0:0:
348,264,335865,1,8,0:0:0:0:
344,264,336218,1,8,0:0:0:0:
144,272,336394,1,0,0:0:0:0:
368,284,336747,1,8,0:0:0:0:
156,272,337100,1,0,0:0:0:0:
156,272,337453,1,0,0:0:0:0:
336,264,337806,1,8,0:0:0:0:
256,192,338335,12,0,341159,0:0:0:0:
