osu file format v5

[General]
AudioFilename: Netsuretsu Kangei Wonderland.mp3
AudioLeadIn: 0
PreviewTime: 3172
Countdown: 0
SampleSet: Normal
StackLeniency: 0.7
Mode: 0
LetterboxInBreaks: 1
EditorBookmarks: 14154,24487,34981,40148,45172,47981,53481,64148,69648,77672,78672
EditorDistanceSpacing: 0.800000011920929

[Metadata]
Title:Netsuretsu Kangei Wonderland (TV size)
Artist:Saki Cast
Creator:blissfulyoshi
Version:Normal
Source:Saki
Tags:Saki taco

[Difficulty]
HPDrainRate:3
CircleSize:4
OverallDifficulty:6
SliderMultiplier:2.1
SliderTickRate:2

[Events]
//Background and Video events
Video,192,"-Saki-_ED1.avi"
0,0,"saki v2 omake pic.png"
//Break Periods
//Storyboard Layer 0 (Background)
//Storyboard Layer 1 (Fail)
//Storyboard Layer 2 (Pass)
//Storyboard Layer 3 (Foreground)
//Storyboard Sound Samples
//Background Colour Transformations
3,100,163,162,255

[TimingPoints]
3160,666.666666666667,4,1,0,65,1,0
48311,-100,4,1,0,65,0,1
58993,-100,4,1,0,65,0,0

[Colours]
Combo1 : 240,5,5
Combo2 : 237,191,7
Combo3 : 7,237,19

[HitObjects]
104,80,3160,1,8
184,80,3493,1,0
264,80,3826,1,0
264,160,4160,6,0,C|200:184,1,52.5,8|0
216,264,4660,2,0,B|96:264,3,105
112,224,5826,6,0,B|32:184|32:136,3,105
32,72,7160,2,2,C|144:72,1,105
136,112,7660,2,2,B|152:184|176:240|312:288,1,210
264,144,8826,6,0,C|448:144,1,157.5
424,184,9493,2,0,B|424:296,4,105
384,184,10993,2,2,B|328:192|288:240|240:360|152:344,1,262.5
184,176,12493,6,0,C|288:128,1,105,2|0
360,136,13160,2,0,B|392:72|328:40,1,105
296,40,13660,2,0,B|184:40,1,105,2|0
144,40,14160,5,8
144,344,14826,1,2
208,40,15493,5,8
208,344,16160,1,2
272,40,16826,5,8
272,344,17493,1,2
336,40,18160,5,0
336,192,18493,1,0
336,344,18826,1,0
408,192,19493,5,8
104,192,20160,1,2
408,128,20826,5,8
104,128,21493,1,2
408,64,22160,5,8
256,64,22493,2,0,C|256:192,1,105
256,208,22993,2,0,B|264:312|296:344|448:296,1,262.5
304,112,24493,5,8
304,192,24826,2,0,B|136:192,1,157.5
64,192,25660,1,0
64,112,25993,2,0,B|288:112,1,210,0|4
360,112,26993,5,2
360,192,27326,2,0,B|392:280|352:344|288:328,1,157.5
248,320,28160,1,0
168,312,28493,2,8,B|120:256,1,52.5
80,200,28993,1,0
296,200,29826,6,8,C|320:136|272:112,1,105
208,104,30493,2,8,B|120:88|80:136,1,105,8|0
104,152,30993,2,0,B|104:224,1,52.5,0|8
144,208,31326,2,0,B|216:208,4,52.5,0|0|0|8|0
200,144,32326,6,8,B|160:88,1,52.5
208,88,32660,2,0,B|208:32,4,52.5,0|0|0|8|0
264,144,33660,1,4
264,184,33826,5,2
184,184,34160,1,0
200,264,34493,1,2
280,264,34826,1,0
360,264,35160,5,8
440,264,35493,1,8
440,184,35826,2,4,B|440:104,3,52.5
312,128,36826,5,4
232,128,37160,1,4
152,128,37493,1,4
152,48,37826,5,8
232,48,38160,1,8
312,48,38493,2,4,B|312:128,3,52.5,4|4|4|4
424,48,39493,5,4
416,128,39827,1,4
352,184,40160,1,4
288,336,40826,6,0,B|464:336,1,157.5,0|0
448,296,41493,2,0,B|448:176,3,105
448,144,42660,1,0
360,136,42993,2,2,B|232:136|168:88|128:88|128:88|40:96|40:192|48:280|80:272|368:264,1,682.5
488,264,45826,6,0,B|488:192,1,52.5
448,208,46160,2,0,B|384:208,2,52.5
448,120,46826,1,0
360,120,47160,1,2
88,272,48326,6,2,B|96:176|176:168,1,105,6|0
176,184,48826,2,0,B|176:264,1,52.5,8|0
176,280,49160,2,0,B|248:280,1,52.5,8|0
312,280,49660,6,2,B|304:216|384:192,1,105,6|0
360,152,50160,2,0,B|288:152,1,52.5,8|0
304,112,50493,2,0,B|208:112,1,52.5,8|0
168,112,50993,6,2,B|168:248,1,105,6|0
208,216,51493,2,2,B|336:216,2,105
208,296,52493,2,0,B|72:328,1,105,0|4
56,320,52993,2,0,B|56:184,1,105,0|4
56,128,53660,6,0,B|184:128,1,105,8|0
200,128,54160,2,0,B|208:64|288:24,2,105
200,208,55160,2,0,B|336:208,2,105
72,208,56326,6,0,B|80:96,1,105,8|0
120,104,56826,2,0,B|128:24|232:24,2,105
200,104,57826,2,2,B|200:224,2,105
464,56,58993,6,0,B|408:56|352:56,1,105,8|0
320,56,59493,2,0,B|240:56,1,52.5,8|0
224,56,59826,2,0,B|224:136,1,52.5,8|0
224,192,60326,6,0,B|280:312|320:248,1,105,8|0
328,272,60826,2,0,B|328:200,1,52.5,8|0
328,176,61160,2,0,B|400:176,1,52.5,8|0
464,176,61660,6,0,B|456:96|368:64,1,105
368,88,62160,2,2,B|248:88,2,105
368,168,63160,2,2,B|384:256|304:200,1,105
272,208,63660,2,2,B|160:208,1,105,2|0
80,208,64326,5,2
80,288,64660,1,2
120,288,64826,2,2,B|240:288,2,105
120,248,65660,6,2,B|120:120,1,105
160,136,66160,2,2,B|160:16,2,105
200,136,66993,6,0,B|312:184|304:64,1,157.5
368,128,67826,1,0
432,184,68160,1,0
464,264,68493,1,0
408,328,68826,1,0
328,344,69160,1,0
248,320,69493,1,0
248,232,69826,6,0,B|248:152|160:112,2,105
376,232,70993,2,0,B|376:88,2,105
416,232,71826,2,0,B|416:104,1,105,8|0
416,40,72493,6,8,B|360:32|328:32|304:48,1,105
312,128,73160,2,2,B|232:128,2,52.5
312,208,73826,2,2,B|352:288|256:224,1,105
224,232,74326,2,2,B|224:288|160:336|64:272|72:192,1,210
80,104,75493,6,0,B|232:104,1,105
272,104,76160,2,0,B|392:104,2,105
272,184,77160,2,0,C|272:240|200:240,1,105
184,240,77660,2,0,B|168:336|256:368|368:336|456:336,1,315
256,192,79160,12,4,80326
