osu file format v9

[General]
AudioFilename: SquarePanicSerenade.mp3
AudioLeadIn: 2000
PreviewTime: 56870
Countdown: 0
SampleSet: Soft
StackLeniency: 0.7
Mode: 0
LetterboxInBreaks: 0

[Editor]
DistanceSpacing: 1.1
BeatDivisor: 4
GridSize: 4

[Metadata]
Title:SquarePanicSerenade (TV Size)
Artist:Saki: Achiga-hen Cast
Creator:karenying
Version:Insane
Source:Saki: Achiga-hen - episode of side-A
Tags:no_gu kanpakyin aoi yuuki nao toyama kana hanazawa mako uchiyama yumi

[Difficulty]
HPDrainRate:6
CircleSize:4
OverallDifficulty:7
ApproachRate:8
SliderMultiplier:1.6
SliderTickRate:1

[Events]
//Background and Video events
Video,10603,"SquarePanicSerenade.avi"
0,0,"BG.jpg"
//Break Periods
//Storyboard Layer 0 (Background)
//Storyboard Layer 1 (Fail)
//Storyboard Layer 2 (Pass)
//Storyboard Layer 3 (Foreground)
//Storyboard Sound Samples
//Background Colour Transformations
3,100,163,162,255

[TimingPoints]
558,335.195530726257,4,2,1,60,1,0
6257,-100,4,2,1,30,0,0
6341,-100,4,2,1,60,0,0
8518,-100,4,1,1,40,0,0
8770,-100,4,2,1,40,0,0
8937,-100,4,1,1,40,0,0
9105,-100,4,2,1,40,0,0
9273,-100,4,1,1,50,0,0
9440,-100,4,2,1,40,0,0
9608,-100,4,1,1,50,0,0
9775,-100,4,2,1,40,0,0
9943,-100,4,1,1,50,0,0
10613,-100,4,2,1,60,0,0
10950,-100,4,1,1,40,0,0
11285,-100,4,2,2,70,0,0
11619,-100,4,1,1,60,0,0
11787,-100,4,2,2,70,0,0
12122,-100,4,1,1,60,0,0
12289,-100,4,2,2,70,0,0
12457,-100,4,1,1,60,0,0
12792,-100,4,2,2,70,0,0
12960,-100,4,1,1,60,0,0
13379,-100,4,2,2,70,0,0
13965,-100,4,1,1,60,0,0
14384,-100,4,1,2,35,0,0
14971,-100,4,1,1,60,0,0
15976,-100,4,2,2,70,0,0
16647,-100,4,2,2,50,0,0
16982,-100,4,1,1,50,0,0
17150,-100,4,2,2,50,0,0
17317,-100,4,1,1,50,0,0
17485,-100,4,2,2,50,0,0
17652,-100,4,1,1,50,0,0
17820,-100,4,2,2,50,0,0
17988,-100,4,1,1,50,0,0
18490,-100,4,2,2,50,0,0
18658,-100,4,1,1,50,0,0
19161,-100,4,2,2,50,0,0
19328,-100,4,1,1,50,0,0
19496,-100,4,2,2,50,0,0
19664,-100,4,1,1,50,0,0
19831,-100,4,2,2,50,0,0
19999,-100,4,1,1,50,0,0
20166,-100,4,2,2,50,0,0
20334,-100,4,1,1,50,0,0
20502,-100,4,2,2,50,0,0
20669,-100,4,1,1,50,0,0
21340,-200,4,1,1,50,0,0
21675,-200,4,2,1,50,0,0
22010,-100,4,2,1,60,0,0
43379,-133.333333333333,4,2,1,60,0,0
43965,-133.333333333333,4,1,1,50,0,0
44301,-100,4,2,1,60,0,0
44468,-100,4,1,1,50,0,0
44636,-100,4,2,1,33,0,0
44803,-133.333333333333,4,1,1,50,0,0
44971,-133.333333333333,4,2,1,60,0,0
45306,-133.333333333333,4,1,1,50,0,0
45893,-133.333333333333,4,2,2,60,0,0
46144,-133.333333333333,4,1,1,50,0,0
46228,-133.333333333333,4,2,2,60,0,0
46647,-133.333333333333,4,1,1,50,0,0
47150,-133.333333333333,4,2,2,60,0,0
47485,-133.333333333333,4,1,1,50,0,0
47652,-133.333333333333,4,2,2,60,0,0
47988,-133.333333333333,4,1,1,50,0,0
48490,-133.333333333333,4,2,2,60,0,0
48826,-133.333333333333,4,1,1,50,0,0
48993,-133.333333333333,4,2,2,60,0,0
49664,-133.333333333333,4,1,1,50,0,0
49831,-133.333333333333,4,2,2,60,0,0
50166,-133.333333333333,4,1,1,50,0,0
50502,-133.333333333333,4,2,1,60,0,0
51172,-133.333333333333,4,1,1,50,0,0
51256,-133.333333333333,4,2,1,60,0,0
51507,-100,4,1,1,60,0,0
51675,-100,4,2,1,50,0,0
51842,-100,4,1,1,60,0,0
52010,-100,4,2,1,50,0,0
52178,-100,4,1,1,60,0,0
52345,-100,4,2,1,50,0,0
52513,-100,4,1,1,60,0,0
52680,-100,4,2,1,50,0,0
52848,-100,4,1,1,60,0,0
53016,-100,4,2,1,50,0,0
53183,-100,4,1,1,60,0,0
53351,-100,4,2,1,50,0,0
53518,-100,4,1,1,60,0,0
53686,-100,4,2,1,50,0,0
53854,-100,4,1,1,60,0,0
54021,-100,4,2,1,50,0,0
54524,-100,4,1,1,70,0,0
54692,-100,4,2,1,50,0,0
54859,-100,4,1,1,70,0,0
55027,-100,4,2,1,50,0,0
55194,-100,4,1,1,70,0,0
55362,-100,4,2,1,50,0,0
55530,-100,4,1,1,70,0,0
56032,-100,4,2,1,50,0,0
56200,-100,4,1,1,70,0,0
56870,-100,4,2,2,70,0,1
66256,-100,4,1,1,45,0,1
67513,-100,4,1,1,45,0,0
67597,-100,4,2,2,70,0,1
78323,-100,4,2,1,70,0,0
78658,-100,4,1,1,50,0,0
78826,-100,4,2,1,70,0,0
79328,-100,4,1,1,50,0,0
79496,-100,4,2,1,70,0,0
79999,-100,4,1,1,50,0,0
80166,-100,4,2,1,70,0,0
80502,-100,4,1,1,40,0,0
81004,-100,4,2,1,60,0,1
81088,-100,4,2,1,60,0,0
81340,-100,4,1,1,60,0,0
81507,-100,4,2,1,60,0,0
81675,-100,4,1,1,60,0,0
82010,-100,4,2,1,60,0,0
82094,-100,4,1,1,60,0,0
82513,-100,4,2,1,60,0,0
82680,-100,4,1,1,60,0,0
82848,-100,4,2,1,60,0,0
83016,-100,4,1,1,60,0,0
83518,-100,4,2,1,60,0,0
84021,-100,4,1,1,60,0,0
84189,-100,4,2,1,60,0,0
84356,-100,4,1,1,60,0,0
84608,-100,4,2,1,60,0,0
84692,-100,4,1,1,60,0,0
84775,-100,4,2,1,60,0,0
84943,-100,4,1,1,60,0,0
86368,-100,4,2,1,60,0,0
86703,-100,4,1,1,60,0,0
86787,-100,4,2,1,60,0,0
87876,-100,4,1,1,60,0,0
88714,-100,4,1,1,80,0,0

[Colours]
Combo1 : 58,174,49
Combo2 : 255,255,128
Combo3 : 250,154,171
Combo4 : 240,5,5
Combo5 : 115,112,239

[HitObjects]
93,75,558,6,0,B|90:154,1,80,2|2
167,234,893,2,0,B|169:154,1,80,0|2
343,191,1228,2,0,B|340:270,1,80,0|2
417,349,1563,2,0,B|419:269,1,80,0|2
259,118,1898,2,0,B|256:197,2,80,2|0|2
259,118,2401,1,2
259,118,3239,6,0,B|278:153|327:149,1,80,2|0
320,69,3574,1,2
244,42,3742,1,2
186,96,3909,2,0,B|167:131|198:169,1,80,0|2
259,118,4245,1,0
244,42,4412,1,2
166,20,4580,6,0,B|112:35|90:108|112:154,1,160,0|2
346,364,5250,2,0,B|400:349|422:276|400:230,1,160,2|2
258,118,5921,6,0,B|210:181|302:203|254:266,2,160,2|0|2
335,60,7261,1,2
395,135,7932,1,2
370,263,8183,1,2
496,220,8435,1,2
395,135,8602,6,0,B|315:135,1,80
190,201,8937,2,0,B|270:201,1,80,0|0
140,134,9273,2,0,B|60:134,1,80
208,244,9608,2,0,B|288:244,1,80,0|0
107,292,9943,5,0
27,304,10111,1,0
237,322,10278,1,0
317,310,10446,1,0
88,250,10613,5,2
80,235,10697,1,2
78,219,10781,1,2
79,203,10865,1,0
84,187,10949,1,0
91,173,11032,1,0
101,160,11116,1,0
114,150,11200,1,0
129,145,11284,6,0,B|84:156|56:120,1,80,4|0
169,45,11619,2,0,B|214:34|242:70,1,80,2|0
319,227,11954,2,0,B|274:238|247:203,1,80,0|2
382,178,12289,1,0
308,146,12457,6,8,B|322:107|364:87|410:89|442:123,1,160,2|0
462,198,12960,1,2
483,274,13127,1,2
505,351,13295,2,0,B|349:312,1,160,2|8
349,312,13798,1,0
64,271,13965,6,0,B|78:310|120:330|166:328|198:294,1,160,2|2
217,129,14468,2,0,B|203:90|161:70|115:72|83:106,1,160,2|2
196,295,15139,1,2
187,306,15474,5,2
216,127,15641,1,2
52,199,15809,1,2
154,209,15976,5,2
233,216,16312,1,8
312,224,16647,6,0,B|355:232|388:204,1,80,4|0
409,127,16982,1,0
330,144,17150,1,0
312,224,17317,2,0,B|304:267|332:300,1,80,2|0
409,321,17652,1,0
392,242,17820,1,0
247,91,17988,6,0,B|161:73|80:96,1,160,2|0
34,152,18490,1,0
85,213,18658,2,0,B|171:231|252:208,1,160,2|0
299,152,19161,1,0
320,228,19328,6,0,B|380:281,1,80,2|0
489,225,19664,2,0,B|429:172,1,80,2|0
340,346,19999,2,0,B|379:367|417:348,1,80,2|0
469,107,20334,2,0,B|430:86|392:105,1,80,2|2
370,119,20837,5,2
201,200,21004,1,2
326,244,21172,1,2
246,75,21340,2,0,B|208:61|206:83|167:70,1,80,2|2
152,68,22010,6,0,B|112:72|84:108,1,80,4|0
51,180,22345,1,8
100,312,22513,2,0,B|140:308|168:272,1,80,0|0
201,200,22848,1,0
226,123,23016,2,0,B|271:115|303:140,1,80,8|0
339,210,23351,5,0
356,361,23518,1,0
318,287,23686,2,0,B|363:296|402:278|427:237|416:192,1,160,8|0
421,73,24189,1,0
421,73,24273,1,0
421,73,24356,2,0,B|367:132,1,80,8|0
290,106,24692,6,0,B|212:145|126:112,1,160,0|8
84,53,25194,1,0
150,218,25362,2,0,B|183:292,1,80
189,305,25613,1,0
195,319,25697,1,8
135,115,25865,6,0,B|213:76|299:109,1,160
364,134,26368,2,0,B|407:132|434:102,1,80,8|0
485,39,26703,1,0
365,49,26870,1,0
422,208,27038,2,0,B|386:228|345:218,1,80,8|0
270,188,27373,6,0,B|192:149|115:182,1,160,0|8
55,234,27876,1,0
41,312,28044,2,0,B|85:321|113:285,1,80
123,274,28295,1,0
133,261,28379,2,0,B|213:261,1,80,8|0
432,187,28714,2,0,B|352:187,1,80
157,287,29049,2,0,B|212:287|212:287|258:300|258:300|314:300,1,160,8|0
434,178,29552,5,0
440,163,29636,1,0
446,148,29720,2,0,B|460:104|440:70,1,80,8|0
301,119,30055,5,0
324,195,30222,1,0
379,252,30390,2,0,B|414:271|457:264,1,80,8|0
377,100,30725,5,0
301,119,30893,1,0
240,167,31060,2,0,B|218:200|222:243,1,80,8|0
379,252,31395,6,0,B|423:169|378:101,1,160,0|8
133,132,31898,2,0,B|89:215|134:283,1,160,0|2
149,296,32317,1,0
166,305,32401,1,8
185,310,32485,1,2
204,312,32569,1,2
223,309,32652,1,0
242,305,32736,6,0,B|285:291|300:253,1,80,2|0
319,175,33071,1,8
286,101,33239,1,0
220,54,33407,2,0,B|183:38|141:46,1,80,2|0
123,54,33658,1,0
107,66,33742,1,8
34,33,33909,1,0
89,206,34077,6,0,B|165:235|248:209,1,160,0|8
319,175,34580,2,0,B|399:149|475:178,1,160,2|0
475,178,35083,1,8
398,274,35250,1,0
256,108,35418,6,0,B|288:83|330:81,2,80,2|0|8
194,159,35921,1,0
130,206,36088,2,0,B|98:231|56:233,1,80,2|0
35,233,36340,1,0
15,228,36423,1,8
122,127,36591,6,0,B|177:112|230:167|209:225,1,160,2|0
157,284,37094,1,8
223,328,37261,2,0,B|305:341|373:290,1,160,2|2
388,276,37680,1,0
401,261,37764,1,8
440,191,37932,1,0
328,119,38099,6,0,B|353:196,1,80,2|0
420,115,38435,2,0,B|395:38,1,80,8|0
317,22,38770,1,2
237,17,38937,1,0
159,37,39105,1,8
95,86,39273,2,0,B|118:246,1,160,0|0
117,244,39775,1,8
264,290,39943,2,0,B|326:297|371:240|351:188,1,160,2|0
273,207,40446,6,0,B|195:225,1,80,8|0
117,244,40781,2,0,B|61:181|81:94,1,160,2|8
280,44,41284,2,0,B|254:124|169:151,1,160
176,41,41787,1,8
318,158,41954,2,0,B|400:141|465:201,1,160,2|0
433,274,42457,2,0,B|397:345,1,80,8|0
208,191,42792,2,0,B|244:120,2,80,0|0|10
227,216,43463,6,0,B|189:262|118:249,1,119.999996423721,4|0
64,121,43965,2,0,B|88:177,1,59.9999982118607,0|2
118,249,44301,1,0
53,324,44468,6,0,B|17:327|8:290|43:276,1,80,2|0
165,163,44803,6,0,B|180:100,1,59.9999982118607,2|0
197,28,45139,1,0
124,56,45306,1,0
251,83,45474,2,0,B|275:60|276:28|276:28|304:44|331:44,1,119.999996423721,2|2
324,121,45976,5,0
354,192,46144,1,2
385,263,46312,1,0
379,340,46479,2,0,B|342:338|325:317,1,59.9999982118607,8|0
287,251,46814,2,0,B|267:310|203:331,1,119.999996423721,2|8
126,323,47317,5,0
126,323,47485,1,2
188,234,47652,1,0
188,234,47820,1,8
287,251,47988,1,0
89,215,48155,2,0,B|109:156|172:134,1,119.999996423721,2|8
171,134,48658,1,0
298,88,48826,6,0,B|275:33,1,59.9999982118607,2|0
328,160,49161,2,0,B|372:146|388:100|372:62,1,119.999996423721,8|0
298,89,49664,1,0
396,211,49831,2,0,B|424:194|436:169,1,59.9999982118607,8|0
469,97,50166,2,0,B|494:221,1,119.999996423721,2|8
449,279,50669,2,0,B|404:314|333:305,1,119.999996423721,2|0
255,204,51172,2,0,B|268:263,1,59.9999982118607,2|0
45,34,51507,6,0,B|61:110,1,80,2|0
159,194,51842,2,0,B|142:116,1,80,2|0
90,235,52178,2,0,B|106:311,1,80,2|0
215,77,52513,6,0,B|190:40|148:36,1,80,2|0
142,116,52848,2,0,B|167:153|209:157,1,80,2|0
281,125,53183,1,2
294,45,53351,1,0
411,52,53518,6,0,B|391:133,1,80,2|0
366,206,53854,1,2
337,280,54021,1,0
337,280,54105,1,0
337,280,54189,6,0,B|309:310|263:307,1,80,4|0
110,254,54524,2,0,B|138:224|182:228,1,80,2|0
264,307,54859,1,2
110,254,55027,1,2
124,158,55194,2,0,B|167:141|215:156,1,80,2|0
346,219,55530,1,2
280,176,55697,1,2
426,221,55865,2,0,B|471:208|487:169,1,80,0|0
292,19,56200,5,2
307,34,56284,1,0
322,49,56368,1,0
337,64,56451,1,0
352,79,56535,1,0
367,94,56619,1,0
382,109,56703,1,0
397,124,56787,1,0
412,139,56870,6,0,B|440:64,1,80,4|0
279,177,57206,1,8
356,196,57373,1,0
412,139,57541,1,0
334,119,57708,1,0
302,251,57876,2,0,B|335:280|376:270,1,80,8|0
212,314,58211,6,0,B|179:285|138:295,2,80,2|0|8
376,270,58714,2,0,B|335:280|302:251,1,80,0|2
241,102,59049,1,0
241,102,59133,1,0
241,102,59217,2,0,B|272:176,1,80,8|0
484,29,59552,6,0,B|509:64|488:104,1,80,2|0
434,163,59887,1,8
360,194,60055,1,0
345,40,60222,2,0,B|395:38|416:66,1,80,2|0
487,104,60557,1,8
505,182,60725,1,0
505,182,60809,1,0
505,182,60893,2,0,B|495:222|457:245|412:232,1,120,2|0
394,220,61228,2,0,B|455:294,1,80,8|0
306,122,61563,5,0
240,222,61731,1,0
235,102,61898,2,0,B|245:62|283:39|328:52,1,120,8|0
328,52,62233,6,0,B|376:69|378:116,1,80,2|0
240,221,62569,2,0,B|192:204|190:157,1,80,8|0
449,93,62904,2,0,B|461:141|423:169,1,80,2|0
119,177,63239,2,0,B|106:128|144:100,2,80,8|0|2
146,321,63742,5,0
146,321,63826,1,0
146,321,63909,2,0,B|163:243,1,80,8|0
202,54,64245,2,0,B|218:132,1,80,2|0
218,132,64580,1,8
340,207,64747,5,0
430,128,64915,1,2
453,246,65083,1,0
355,131,65250,5,8
485,177,65418,1,0
379,266,65585,1,0
404,191,65753,5,0
372,342,65921,2,0,B|324:338|308:290,1,80,8|0
238,119,66256,5,0
279,231,66423,1,2
263,243,66507,1,0
247,255,66591,1,2
231,267,66675,1,0
215,279,66759,1,2
199,291,66842,1,0
183,303,66926,1,2
167,315,67010,1,0
151,327,67094,2,0,B|173:235,1,80,2|2
43,67,67429,5,0
43,67,67513,1,0
43,67,67597,2,0,B|38:117|76:141,1,80,4|0
188,110,67932,1,8
108,198,68099,1,0
120,78,68267,1,2
177,183,68435,1,0
181,39,68602,5,8
181,39,68770,2,0,B|220:31|263:60|271:112|249:149,1,160,2|2
266,225,69273,1,8
391,88,69440,1,0
196,261,69608,2,0,B|212:301|259:304,1,80,2|0
277,303,69859,1,0
296,298,69943,2,0,B|423:317,1,120,8|0
434,317,70278,6,0,B|475:295|472:252,1,80,2|0
310,86,70613,2,0,B|307:132|346:152,2,80,8|0|2
391,88,71116,1,0
351,18,71284,2,0,B|304:-3|263:20,1,80,8|0
211,66,71619,5,2
171,135,71787,1,0
246,263,71954,2,0,B|251:218|232:186,1,80,8|0
142,260,72289,2,0,B|137:305|156:337,2,80,2|0|8
280,110,72792,5,0
280,110,72876,1,0
280,110,72960,2,0,B|316:143|310:188,1,80,2|0
230,178,73295,1,8
350,72,73463,1,0
396,175,73630,6,0,B|393:223|355:248,1,80,8|0
311,180,73965,1,8
470,204,74133,1,0
428,296,74301,6,0,B|394:331|349:324,1,80,2|0
361,245,74636,1,8
465,367,74803,1,0
213,312,74971,2,0,B|246:276|291:283,2,80,2|0|8
159,371,75474,1,0
73,148,75641,6,0,B|90:204|90:204|109:233|109:233|131:296,2,160,2|8|2
50,70,76479,1,0
40,274,76647,2,0,B|68:354,1,80,8|2
229,140,77150,1,0
229,140,77317,6,0,B|201:60,2,80,0|0|2
347,272,77904,1,0
294,70,78155,1,0
259,241,78323,6,0,B|248:288|280:328,1,80,4|0
346,349,78658,1,0
418,315,78826,1,0
472,154,78993,6,0,B|451:236,1,80
274,149,79328,2,0,B|295:67,1,80,0|0
372,51,79664,1,0
372,51,79831,1,0
336,197,79999,2,0,B|312:233|256:227,1,80
154,93,80334,5,2
156,112,80418,1,0
158,131,80502,1,2
160,150,80585,1,0
162,169,80669,1,2
164,188,80753,1,0
167,207,80837,1,2
170,226,80921,1,0
172,245,81004,6,0,B|136:214|92:218,1,80,4|0
109,297,81340,1,2
35,267,81507,1,0
255,156,81675,2,0,B|291:187|335:183,2,80,2|2|0
314,102,82178,6,0,B|310:268,1,160,2|0
407,112,82680,2,0,B|409:29,1,80,0|0
496,118,83016,2,0,B|498:160|471:192|428:213|386:202,1,160,2|2
385,201,83518,1,0
197,62,83686,6,0,B|224:152,2,80,4|2|2
119,39,84189,1,0
158,180,84356,2,0,B|178:212|230:223|263:196,1,120,2|0
279,182,84692,1,2
269,287,84859,5,4
269,287,85194,1,2
289,89,85362,1,2
444,216,85530,1,2
356,318,85697,2,0,B|316:362|316:362|268:388|214:353,1,160,2|2
121,144,86368,6,0,B|125:50|221:39,1,160,4|0
231,169,86870,2,0,B|227:263|131:274,1,160,4|0
30,162,87373,6,0,B|34:68|130:57,1,160,4|0
214,80,87876,1,2
299,103,88044,1,2
383,126,88211,1,2
386,146,88714,5,4
