osu file format v10

[General]
AudioFilename: of memories.mp3
AudioLeadIn: 2000
PreviewTime: 137032
Countdown: 0
SampleSet: Soft
StackLeniency: 0.7
Mode: 0
LetterboxInBreaks: 1

[Editor]
DistanceSpacing: 0.9
BeatDivisor: 4
GridSize: 4

[Metadata]
Title:of Memories
TitleUnicode:of Memories
Artist:Sakaue Nachi
ArtistUnicode:坂上なち
Creator:Ayakura Mei
Version:Normal
Source:of memories
Tags:Comiket78 C78 Alstroemeria Records Masayoshi Minoshima Haruka Original
BeatmapID:181461
BeatmapSetID:60514

[Difficulty]
HPDrainRate:3
CircleSize:3
OverallDifficulty:3
ApproachRate:4
SliderMultiplier:1.2
SliderTickRate:2

[Events]
//Background and Video events
0,0,"BGmemories.png"
//Break Periods
2,16756,30474
//Storyboard Layer 0 (Background)
//Storyboard Layer 1 (Fail)
//Storyboard Layer 2 (Pass)
//Storyboard Layer 3 (Foreground)
//Storyboard Sound Samples
//Background Colour Transformations
3,100,163,162,255

[TimingPoints]
366,476.190476190476,4,2,0,100,1,0
604,-200,4,2,1,30,0,0
16437,-200,4,1,1,30,0,0
16794,-100,4,2,1,30,0,0
35485,-200,4,2,1,30,0,0
39175,-100,4,2,1,30,0,0
43104,-200,4,2,1,30,0,0
46913,-100,4,1,1,50,0,0
47151,-100,4,2,2,50,0,0
50723,-200,4,2,2,50,0,0
52508,-200,4,2,2,50,0,0
54413,-100,4,2,2,50,0,0
58342,-200,4,2,2,50,0,0
62151,-100,4,1,1,50,0,0
62389,-100,4,2,2,50,0,0
65842,-200,4,2,2,50,0,0
69651,-100,4,2,2,50,0,0
73461,-200,4,2,2,50,0,0
77389,-100,4,1,1,50,0,0
77627,-100,4,2,2,50,0,0
107865,-100,4,1,1,50,0,0
108104,-100,4,2,2,50,0,0
109770,-200,4,2,2,50,0,0
111437,-100,4,2,2,50,0,0
113580,-200,4,2,2,50,0,0
114752,-100,4,2,2,50,0,0
117389,-200,4,2,2,50,0,0
122389,-100,4,1,1,50,0,0
123342,-100,4,2,2,50,0,0
125008,-200,4,2,2,50,0,0
126673,-100,4,2,2,50,0,0
130723,-100,4,2,0,50,0,0
130961,-100,4,2,2,50,0,0
134532,-100,4,2,0,50,0,0
134770,-100,4,2,2,50,0,0
136437,-100,4,2,1,20,0,0
136794,-100,4,2,1,30,0,0
137270,-100,4,2,1,40,0,0
137746,-100,4,2,1,50,0,0
138461,-100,4,1,1,50,0,1
138580,-100,4,2,2,50,0,1
145961,-100,4,1,1,50,0,1
146199,-100,4,2,2,50,0,1
153580,-100,4,1,1,50,0,1
153818,-100,4,2,2,50,0,1
161199,-100,4,1,1,50,0,1
161437,-100,4,2,2,50,0,1
167151,-200,4,2,2,50,0,1
168937,-200,4,1,1,50,0,0
169056,-100,4,2,2,50,0,0
174532,-200,4,2,2,50,0,0
176437,-100,4,2,2,50,0,0
182151,-200,4,2,2,50,0,0
184056,-100,4,2,2,50,0,0
189770,-200,4,2,2,50,0,0
191675,-100,4,2,2,50,0,0
195485,-200,4,2,1,30,0,0
199294,-200,4,1,1,30,0,0

[Colours]
Combo1 : 64,0,128
Combo2 : 128,0,0
Combo3 : 0,128,0

[HitObjects]
416,136,842,1,0,0:0:0
364,224,1318,2,0,B|324:200|276:204,1,90,2|0,0:0|0:0,0:0:0
200,304,2746,1,0,0:0:0
120,232,3223,2,0,B|108:188|120:144,1,90,2|0,0:0|0:0,0:0:0
204,44,4651,1,0,0:0:0
308,52,5127,6,0,B|332:92|328:144,1,90,2|0,0:0|0:0,0:0:0
296,280,6556,1,0,0:0:0
352,192,7032,2,0,B|296:168|232:172,1,120,2|0,0:0|0:0,0:0:0
136,216,8461,1,0,0:0:0
136,216,8937,6,0,B|120:172|124:128,1,90,2|0,0:0|0:0,0:0:0
212,56,10365,1,0,0:0:0
212,56,10842,2,0,B|256:68|304:56,1,90,2|0,0:0|0:0,0:0:0
387,127,12270,1,0,0:0:0
387,127,12746,6,0,B|392:172|376:216,1,90,2|0,0:0|0:0,0:0:0
256,208,14175,1,0,0:0:0
256,208,14651,2,0,B|192:216|144:168,1,120,2|2,0:0|0:0,0:0:0
112,88,16080,1,0,0:0:0
40,144,16556,1,4,0:0:0
416,276,31794,5,4,0:0:0
348,328,32270,1,4,0:0:0
264,336,32747,2,0,B|228:288|236:220,1,120,2|4,0:0|0:0,0:0:0
260,140,33699,1,2,0:0:0
208,72,34175,1,4,0:0:0
124,88,34651,2,0,B|96:144|104:212,1,120,2|4,0:0|0:0,0:0:0
136,280,35604,6,0,B|100:312|48:312,2,90,2|2|0,0:0|0:0|0:0,0:0:0
196,216,37508,2,0,B|248:248,1,60,0|4,0:0|0:0,0:0:0
320,200,38461,2,0,B|380:228,1,60,0|4,0:0|0:0,0:0:0
452,192,39413,5,2,0:0:0
432,108,39889,1,4,0:0:0
364,56,40366,2,0,B|304:76|240:60,1,120,2|4,0:0|0:0,0:0:0
168,36,41318,1,2,0:0:0
116,100,41794,1,4,0:0:0
148,180,42270,2,0,B|168:240|156:312,1,120,2|4,0:0|0:0,0:0:0
228,348,43223,6,0,B|272:360|320:348,2,90,2|2|0,0:0|0:0|0:0,0:0:0
188,272,45127,2,0,B|208:216,1,60,0|4,0:0|0:0,0:0:0
296,220,46080,2,0,B|276:276,1,60,0|4,0:0|0:0,0:0:0
416,268,47032,5,4,0:0:0
348,328,47508,1,8,0:0:0
264,336,47985,2,0,B|228:288|236:220,1,120,2|8,0:0|0:0,0:0:0
260,140,48937,1,2,0:0:0
208,72,49413,1,8,0:0:0
124,88,49889,2,0,B|96:144|104:212,1,120,2|8,0:0|0:0,0:0:0
136,280,50842,6,0,B|100:312|48:312,2,90,2|2|0,0:0|0:0|0:0,0:0:0
196,216,52746,2,0,B|248:248,1,60,0|8,0:0|0:0,0:0:0
320,200,53699,2,0,B|380:228,1,60,0|8,0:0|0:0,0:0:0
452,192,54651,5,2,0:0:0
432,108,55127,1,8,0:0:0
364,56,55604,2,0,B|304:76|240:60,1,120,2|8,0:0|0:0,0:0:0
168,36,56556,1,2,0:0:0
116,100,57032,1,8,0:0:0
148,180,57508,2,0,B|168:240|156:312,1,120,2|8,0:0|0:0,0:0:0
228,348,58461,6,0,B|272:360|320:348,2,90,2|2|0,0:0|0:0|0:0,0:0:0
188,272,60365,2,0,B|208:216,1,60,0|10,0:0|0:0,0:0:0
296,220,61318,2,0,B|276:276,1,60,0|10,0:0|0:0,0:0:0
356,304,62270,5,4,0:0:0
432,264,62746,1,0,0:0:0
432,264,62985,2,0,B|464:160|376:104,1,180,2|8,0:0|0:0,0:0:0
296,120,64175,1,2,0:0:0
220,160,64651,1,8,0:0:0
220,160,64890,2,0,B|188:264|276:320,1,180,2|8,0:0|0:0,0:0:0
356,304,66080,5,2,0:0:0
408,200,66794,1,2,0:0:0
328,112,67508,1,8,0:0:0
252,156,67985,2,0,B|196:184|132:164,1,120
80,104,69413,1,8,0:0:0
48,188,69889,5,2,0:0:0
72,272,70365,1,8,0:0:0
72,272,70604,2,0,B|152:220|248:268,1,180,2|8,0:0|0:0,0:0:0
304,324,71794,1,2,0:0:0
388,304,72270,1,8,0:0:0
388,304,72508,2,0,B|416:216|384:120,1,180,2|8,0:0|0:0,0:0:0
324,68,73699,1,2,0:0:0
248,152,74413,1,2,0:0:0
220,44,75127,1,8,0:0:0
128,60,75604,6,0,B|112:128|104:196,1,120,0|2,0:0|0:0,0:0:0
152,268,77032,2,0,B|116:276,2,30,0|0|4,0:0|0:0|0:0,0:0:0
248,240,77985,5,8,0:0:0
312,316,78461,1,0,0:0:0
400,276,78937,1,8,0:0:0
400,276,79175,2,0,B|388:216|392:156,1,120,2|0,0:0|0:0,0:0:0
408,104,79889,1,8,0:0:0
332,40,80365,1,2,0:0:0
248,80,80842,1,8,0:0:0
156,44,81318,6,0,B|108:84|108:84|100:144,1,120,2|8,0:0|0:0,0:0:0
104,196,82032,2,0,B|152:160|152:160|208:176,1,120,2|0,0:0|0:0,0:0:0
236,216,82746,1,8,0:0:0
260,256,82985,2,0,P|308:224|368:236,1,120
440,304,83937,1,0,0:0:0
440,304,84175,2,0,B|392:352|328:328,1,120,2|8,0:0|0:0,0:0:0
268,256,85127,5,0,0:0:0
176,284,85604,1,8,0:0:0
104,216,86080,1,0,0:0:0
128,120,86556,1,8,0:0:0
128,120,86794,2,0,B|176:80|244:88,1,120,2|0,0:0|0:0,0:0:0
276,128,87508,1,8,0:0:0
348,200,87985,1,2,0:0:0
440,152,88461,1,8,0:0:0
364,88,88937,6,0,B|308:64|308:64|252:92,1,120,2|8,0:0|0:0,0:0:0
216,128,89651,2,0,B|236:184|236:184|224:244,1,120,2|0,0:0|0:0,0:0:0
168,328,90604,2,0,B|252:284|344:324,1,180,2|8,0:0|0:0,0:0:0
424,264,91794,2,0,B|452:204,2,60,0|2|8,0:0|0:0|0:0,0:0:0
348,192,92746,6,0,B|396:84,1,120,2|8,0:0|0:0,0:0:0
312,40,93699,1,0,0:0:0
220,68,94175,1,8,0:0:0
220,68,94413,2,0,B|164:44|104:76,1,120,2|0,0:0|0:0,0:0:0
76,120,95127,2,0,B|124:164|120:236,1,120,8|0,0:0|0:0,0:0:0
100,320,96080,1,8,0:0:0
176,252,96556,5,2,0:0:0
276,264,97032,1,8,0:0:0
276,264,97270,2,0,B|332:288|332:288|384:260,1,120,2|2,0:0|0:0,0:0:0
376,160,98223,2,0,B|320:136|320:136|268:164,1,120,0|2,0:0|0:0,0:0:0
220,192,98937,1,8,0:0:0
132,240,99413,1,2,0:0:0
60,172,99889,6,0,B|52:104,2,60,8|2|0,0:0|0:0|0:0,0:0:0
148,124,100842,2,0,B|196:80|260:100,1,120,8|2,0:0|0:0,0:0:0
360,92,101794,1,8,0:0:0
360,92,102032,2,0,B|312:136|328:208,1,120,2|0,0:0|0:0,0:0:0
384,296,102985,1,2,0:0:0
384,296,103223,2,0,B|324:260|268:296,1,120,0|8,0:0|0:0,0:0:0
184,336,104175,5,2,0:0:0
100,276,104651,1,8,0:0:0
100,276,104889,2,0,B|120:216|112:152,1,120,2|0,0:0|0:0,0:0:0
72,128,105604,1,8,0:0:0
72,128,106080,1,2,0:0:0
152,76,106556,1,8,0:0:0
152,76,106794,1,2,0:0:0
152,76,107032,1,0,0:0:0
152,168,107508,1,10,0:0:0
232,224,107985,6,0,B|284:248|284:248|344:228,1,120,4|8,0:0|0:0,0:0:0
392,204,108699,1,2,0:0:0
336,64,109413,1,0,0:0:0
272,132,109889,6,0,B|228:148|184:132,2,90,0|0|8,0:0|0:0|0:0,0:0:0
340,200,111794,5,2,0:0:0
256,248,112270,1,8,0:0:0
256,248,112508,2,0,B|196:236|136:248,1,120,2|0,0:0|0:0,0:0:0
100,284,113223,1,8,0:0:0
48,200,113699,6,0,B|40:136|72:84,1,120
164,64,115127,5,8,0:0:0
252,112,115604,2,0,B|300:72|368:80,1,120,2|8,0:0|0:0,0:0:0
408,112,116318,1,2,0:0:0
384,264,117032,1,10,0:0:0
292,220,117508,6,0,B|280:176|288:128,2,90,2|2|8,0:0|0:0|0:0,0:0:0
192,208,119413,2,0,B|184:253|196:297,2,90,2|2|8,0:0|0:0|0:0,0:0:0
96,192,121318,2,0,B|88:256|100:312,1,120,0|2,0:0|0:0,0:0:0
160,104,123223,6,0,B|216:132|280:104,1,120,4|8,0:0|0:0,0:0:0
316,68,123937,1,2,0:0:0
396,196,124651,1,8,0:0:0
388,100,125127,6,0,B|340:104|312:144,2,90,2|2|8,0:0|0:0|0:0,0:0:0
456,168,127032,5,2,0:0:0
432,268,127508,1,8,0:0:0
432,268,127746,2,0,B|376:244|312:260,1,120,2|0,0:0|0:0,0:0:0
276,296,128461,2,0,B|248:240|260:180,1,120,10|0,0:0|0:0,0:0:0
340,60,129651,2,0,B|280:32|216:40,1,120,2|2,0:0|0:0,0:0:0
196,84,130365,2,0,B|132:104,2,60,8|2|4,0:0|0:0|0:0,0:0:0
292,112,131318,5,8,0:0:0
292,112,131556,2,0,B|304:172|296:232,1,120,2|0,0:0|0:0,0:0:0
348,312,132508,2,0,B|264:268|164:288,1,180,2|8,0:0|0:0,0:0:0
84,232,133699,2,0,B|68:292,2,60,0|2|8,0:0|0:0|0:0,0:0:0
136,132,134651,5,4,0:0:0
236,160,135127,1,8,0:0:0
236,160,135365,2,0,B|268:104|336:84,2,120,2|0|2,0:0|0:0|0:0,0:0:0
220,212,136556,5,4,0:0:0
228,312,137032,1,4,0:0:0
324,348,137508,1,4,0:0:0
412,296,137985,1,4,0:0:0
448,200,138461,6,0,B|464:140|444:76,1,120,4|8,0:0|0:0,0:0:0
416,36,139175,1,4,0:0:0
332,104,139651,1,2,0:0:0
332,104,139889,1,12,0:0:0
232,68,140365,2,0,B|176:48|176:48|120:72,1,120,4|8,0:0|0:0,0:0:0
88,116,141080,2,0,B|120:168|120:168|120:228,1,120,6|0,0:0|0:0,0:0:0
104,276,141794,1,8,0:0:0
196,332,142270,5,4,0:0:0
296,308,142746,1,8,0:0:0
296,308,142985,2,0,B|376:208,1,120,4|2,0:0|0:0,0:0:0
316,140,143937,2,0,B|236:240,1,120,0|2,0:0|0:0,0:0:0
208,280,144651,1,8,0:0:0
128,208,145127,1,0,0:0:0
132,100,145604,1,8,0:0:0
224,40,146080,6,0,B|284:20|344:48,1,120,4|8,0:0|0:0,0:0:0
376,88,146794,1,6,0:0:0
352,192,147270,1,2,0:0:0
352,192,147508,1,12,0:0:0
396,292,147985,2,0,B|336:264|280:276,1,120,4|10,0:0|0:0,0:0:0
244,320,148699,2,0,B|200:268|136:280,1,120,4|2,0:0|0:0,0:0:0
88,300,149413,1,8,0:0:0
48,200,149889,5,4,0:0:0
76,96,150365,1,8,0:0:0
76,96,150604,2,0,B|128:60|192:72,1,120,0|2,0:0|0:0,0:0:0
212,176,151556,2,0,B|160:212|96:200,1,120,0|2,0:0|0:0,0:0:0
64,160,152270,1,8,0:0:0
148,92,152746,1,2,0:0:0
252,128,153223,1,8,0:0:0
348,76,153699,6,0,B|312:124|312:124|320:184,1,120,4|8,0:0|0:0,0:0:0
336,236,154413,2,0,B|284:200|284:200|224:220,1,120,6|0,0:0|0:0,0:0:0
184,244,155127,1,12,0:0:0
116,160,155604,2,0,B|172:136|172:136|232:152,1,120,4|10,0:0|0:0,0:0:0
264,112,156318,2,0,B|320:128|320:128|380:112,1,120,4|2,0:0|0:0,0:0:0
424,80,157032,1,12,0:0:0
464,180,157508,5,4,0:0:0
440,284,157985,1,8,0:0:0
440,284,158223,1,6,0:0:0
340,328,158699,1,2,0:0:0
240,292,159175,1,2,0:0:0
136,316,159651,1,2,0:0:0
56,240,160127,1,2,0:0:0
56,240,160365,2,0,B|56:176|100:132,1,120,0|8,0:0|0:0,0:0:0
204,108,161318,5,4,0:0:0
300,160,161794,1,8,0:0:0
296,52,162270,1,2,0:0:0
204,108,162746,1,8,0:0:0
204,108,162985,2,0,B|160:152|160:152|176:212,1,120,2|2,0:0|0:0,0:0:0
148,256,163699,2,0,B|200:224|200:224|264:248,1,120,8|2,0:0|0:0,0:0:0
328,324,164651,1,8,0:0:0
424,276,165127,2,0,B|396:224|408:156,1,120,2|8,0:0|0:0,0:0:0
432,112,165842,2,0,B|376:144|316:128,1,120,2|0,0:0|0:0,0:0:0
228,64,166794,1,2,0:0:0
128,96,167270,6,0,B|80:192|176:192|128:296,1,210,0|4,0:0|0:0,0:0:0
232,332,169413,5,8,0:0:0
232,332,169651,2,0,B|332:340|384:256,1,180,2|8,0:0|0:0,0:0:0
380,148,170842,1,2,0:0:0
328,52,171318,1,8,0:0:0
328,52,171556,2,0,B|248:104|148:64,1,180,2|8,0:0|0:0,0:0:0
76,140,172746,5,2,0:0:0
116,296,173461,1,2,0:0:0
276,312,174175,1,8,0:0:0
360,252,174651,2,0,B|376:312,1,60,0|8,0:0|0:0,0:0:0
456,264,175604,2,0,B|440:204,1,60,0|8,0:0|0:0,0:0:0
412,104,176556,5,2,0:0:0
312,60,177032,1,8,0:0:0
312,60,177270,2,0,B|268:140|296:244,1,180,2|8,0:0|0:0,0:0:0
364,316,178461,1,2,0:0:0
424,224,178937,1,8,0:0:0
424,224,179175,2,0,B|344:184|240:192,1,180,2|8,0:0|0:0,0:0:0
220,296,180365,5,2,0:0:0
80,212,181080,1,2,0:0:0
140,64,181794,1,8,0:0:0
224,132,182270,6,0,B|244:72,1,60,0|8,0:0|0:0,0:0:0
348,64,183223,2,0,B|328:128,1,60,0|8,0:0|0:0,0:0:0
292,224,184175,5,2,0:0:0
328,324,184651,1,8,0:0:0
328,324,184889,2,0,B|244:288|152:316,1,180,2|8,0:0|0:0,0:0:0
84,232,186080,1,2,0:0:0
148,144,186556,1,8,0:0:0
148,144,186794,2,0,B|236:176|328:148,1,180,2|8,0:0|0:0,0:0:0
372,52,187985,5,2,0:0:0
460,188,188699,1,2,0:0:0
376,324,189413,1,8,0:0:0
272,348,189889,6,0,B|264:288,1,60,0|8,0:0|0:0,0:0:0
172,320,190842,2,0,B|164:256,1,60,0|8,0:0|0:0,0:0:0
148,152,191794,5,2,0:0:0
256,272,192508,1,2,0:0:0
364,152,193223,1,8,0:0:0
300,64,193699,1,2,0:0:0
180,172,194413,1,2,0:0:0
320,252,195127,1,8,0:0:0
348,148,195604,6,0,B|256:160,2,90,2|2|2,0:0|0:0|0:0,0:0:0
400,168,197508,1,2,0:0:0
428,272,198461,1,2,0:0:0
340,332,199413,1,4,0:0:0
