osu file format v9

[General]
AudioFilename: 05 - Think of You.mp3
AudioLeadIn: 0
PreviewTime: 73670
Countdown: 0
SampleSet: Normal
StackLeniency: 0.7
Mode: 0
LetterboxInBreaks: 0

[Editor]
Bookmarks: 38542,51713,57566,84274,118664,124517,124883,225501
DistanceSpacing: 1
BeatDivisor: 4
GridSize: 8

[Metadata]
Title:Think of You
Artist:Sakaue Nachi
Creator:orioncomet
Version:Normal
Source:Touhou
Tags:Bad Apple DJ Command NJK Record Elly Kite S i R i R u SiRiRu NachoPiggy Rokodo

[Difficulty]
HPDrainRate:2
CircleSize:3
OverallDifficulty:2
ApproachRate:3
SliderMultiplier:1.1
SliderTickRate:1

[Events]
//Background and Video events
0,0,"thinkofyou.jpg"
//Break Periods
2,97278,107346
2,167156,177590
//Storyboard Layer 0 (Background)
//Storyboard Layer 1 (Fail)
//Storyboard Layer 2 (Pass)
//Storyboard Layer 3 (Foreground)
//Storyboard Sound Samples
//Background Colour Transformations
3,100,0,0,0

[TimingPoints]
1957,365.853658536585,4,1,0,50,1,0
178847,-100,4,2,1,50,0,0
190646,-100,4,1,0,50,0,0

[Colours]
Combo1 : 186,104,253
Combo2 : 255,94,199
Combo3 : 254,166,1
Combo4 : 168,188,27

[HitObjects]
160,264,38542,1,0
120,224,38725,1,0
104,168,38908,2,0,B|112:104|168:72|168:72,2,110,8|0|8
176,248,40005,1,2
256,176,40371,1,8
336,248,40737,6,0,B|392:232|424:160|424:160,1,110,0|8
352,88,41469,1,8
352,88,41652,1,0
240,88,42017,2,0,B|120:88|120:88,1,110,2|0
112,200,42749,5,0
112,200,42932,2,0,B|80:272|80:272,1,55,8|0
200,264,43481,1,0
200,264,43664,2,0,B|256:312|256:312,2,55,0|0|8
272,176,44396,5,0
384,192,44761,1,8
392,80,45127,1,0
280,64,45493,2,0,B|256:24|208:96|160:48|160:48,1,110,8|0
120,152,46225,5,2
64,248,46591,2,0,B|72:320|152:336|152:336,1,110,8|0
232,288,47322,1,8
328,240,47688,1,0
240,176,48054,1,8
336,120,48420,1,0
240,64,48786,2,0,B|184:24|128:64|128:64,2,110,8|0|0
328,0,49883,1,6
376,96,50249,6,0,B|280:208|488:192|352:304|352:304,1,220
256,328,51347,1,8
136,288,51713,6,0,B|232:176|24:192|160:80|160:80,1,220
256,56,52811,1,8
352,104,53176,6,0,B|440:232|336:320|336:320,1,220
256,256,54274,1,8
160,304,54639,2,0,B|72:176|176:88|176:88,1,220
256,40,55737,5,8
256,40,56103,1,2
344,240,56835,6,0,B|296:288|232:256|232:256,1,110,8|0
152,192,57566,2,0,B|200:144|264:176|264:176,1,110,8|0
360,152,58298,6,0,B|320:24|168:56|168:56,1,220,0|0
152,232,59578,2,0,B|208:368|384:320,1,275,0|0
56,336,61225,5,0
104,304,61408,1,0
72,256,61591,2,0,B|104:208|176:200|176:200,1,110,8|2
344,320,62688,5,0
288,224,63054,1,8
360,144,63420,1,0
248,120,63786,2,0,B|184:96|120:120|120:120,1,110,0|8
216,32,64517,6,0,B|272:8|344:48|344:48,1,110
392,120,65249,1,8
408,232,65615,1,0
320,296,65981,1,0
296,192,66347,2,0,B|232:176|176:216|176:216,1,110,8|0
128,296,67078,5,0
72,200,67444,1,8
128,104,67810,1,2
344,56,68542,6,0,B|288:88|288:88,2,55
392,88,69091,2,0,B|448:144|448:144,2,55
352,128,69639,2,0,B|224:184|392:224|232:296|232:296,1,220
152,216,70737,1,2
152,216,71286,1,8
256,88,71835,5,0
312,184,72200,1,2
256,280,72566,1,0
208,184,72932,1,2
256,88,73298,1,8
360,48,73664,6,0,B|432:56|432:144|432:144,2,110,0|8|0
312,144,74761,1,8
352,248,75127,1,0
240,248,75493,1,8
160,328,75859,2,0,B|88:320|88:232|88:232,2,110,0|8|0
240,248,76956,5,8
344,224,77322,2,0,B|416:120|416:120,1,110,0|8
384,24,78054,1,2
280,64,78420,2,0,B|200:160|200:160,1,110,8|6
80,320,79517,5,8
80,320,79700,2,0,B|144:352|208:304|208:304,1,110,0|0
256,232,80432,1,8
256,232,80615,2,0,B|272:168|344:136|344:136,2,110,0|0|8
368,240,81713,2,0,B|424:208|416:128|416:128,1,110
352,56,82444,5,0
248,88,82810,1,8
144,64,83176,1,0
72,144,83542,2,0,B|56:208|88:256|88:256,1,110,0|2
320,272,84639,5,0
224,320,85005,1,2
208,208,85371,1,8
312,168,85737,2,0,B|352:120|352:120,2,55,0|0|8
224,96,86469,5,0
120,128,86835,1,8
72,232,87200,1,0
120,128,87566,2,0,B|216:216|216:216,1,110,8|0
224,312,88298,6,0,B|320:304|320:184|320:184,1,165,8|0
304,88,89213,1,0
304,88,89396,1,8
200,120,89761,2,0,B|120:120|96:184|96:184,1,110,2|8
184,240,90493,2,0,B|240:272|152:312|208:344|208:344,1,110,8|2
312,312,91225,6,0,B|384:312|384:312,2,55,8|0|0
328,200,91956,1,8
240,136,92322,2,0,B|288:80|288:80,2,55,0|0|8
160,208,93054,6,0,B|136:248|208:280|144:320|144:320,1,110
256,344,93786,1,8
360,304,94152,2,0,B|336:264|408:232|344:192|344:192,1,110
240,208,94883,5,0
320,128,95249,1,8
232,56,95615,1,0
152,136,95981,2,0,B|96:152|80:232|80:232,1,110,0|2
192,216,96713,2,0,B|160:264|192:328|192:328,1,110,8|4
144,144,108786,5,8
80,232,109152,2,0,B|48:288|48:296,2,55
192,256,109883,1,8
192,256,110066,2,0,B|248:200|304:304|360:216,1,165
384,128,110981,5,8
288,72,111347,1,0
200,136,111713,1,0
216,248,112078,2,0,B|304:296|376:248|376:248,2,165,8|0|8
112,208,113542,2,0,B|88:152|120:96|120:96,1,110
192,176,114274,2,0,B|192:120|256:72|256:72,1,110,8|2
344,128,115005,5,0
440,176,115371,2,0,B|448:224|424:288|424:288,1,110,8|0
320,320,116103,1,0
224,264,116469,2,0,B|216:216|240:152|240:152,1,110,8|0
320,80,117200,5,0
320,80,117383,1,0
320,80,117566,2,0,B|384:80|424:144|424:144,1,110,8|0
320,184,118298,1,0
320,296,118664,2,0,B|256:296|216:232|216:232,1,110,8|0
176,144,119396,5,0
80,96,119761,1,2
176,40,120127,1,4
272,96,120493,6,0,B|352:40|432:64|448:176,1,220
344,192,121591,1,8
400,288,121956,2,0,B|320:344|240:320|224:208,1,220
240,96,123054,6,0,B|160:40|80:64|64:176,1,220
168,192,124152,1,8
112,288,124517,2,0,B|192:344|272:320|288:208,1,220
424,64,125981,5,8
424,64,126347,1,2
256,128,127078,5,8
160,184,127444,2,0,B|248:256|104:288|264:360,1,220
368,360,128542,2,0,B|456:288|312:256|472:184,1,220
256,192,129639,12,0,130737
128,256,131469,5,0
240,264,131835,1,8
352,248,132200,1,0
384,144,132566,2,0,B|400:88|392:32,1,110,8|0
304,104,133298,2,0,B|312:48|280:0,2,110,8|0|8
248,200,134396,1,2
128,240,134761,6,0,B|112:296|120:352,1,110,8|0
208,280,135493,2,0,B|200:336|232:384,2,110,8|0|8
320,296,136591,1,0
416,240,136956,2,0,B|424:176|376:136|376:136,1,110,8|0
288,200,137688,2,0,B|248:152|256:96|256:96,1,110,8|2
40,128,138786,5,8
40,128,138969,2,0,B|96:88|96:88,1,55
96,208,139517,1,8
96,208,139700,2,0,B|176:208|176:208,1,55
88,304,140249,1,8
88,304,140432,2,0,B|144:344|144:344,1,55
240,320,140981,6,0,B|256:216|392:256|376:144|376:144,1,220,0|2
360,48,142078,1,8
256,72,142444,1,0
232,176,142810,1,8
128,128,143176,1,0
128,240,143542,1,2
216,312,143908,6,0,B|344:312|344:312,1,110,8|0
392,224,144639,1,0
280,224,145005,2,0,B|200:120|200:120,1,110,8|0
320,136,145737,2,0,B|312:8|312:8,1,110,0|8
200,40,146469,5,0
120,112,146835,1,0
104,224,147200,1,8
104,224,147383,2,0,B|128:312|240:312,1,165
336,288,148298,2,0,B|312:200|200:200,2,165,8|0|2
448,304,149761,5,8
424,256,149944,1,0
448,208,150127,1,0
408,168,150310,2,0,B|384:80|264:72|264:72,1,165,0|8
272,184,151225,1,8
168,224,151591,2,0,B|192:312|312:320|312:320,2,165,0|0|8
104,72,153237,6,0,B|192:120|176:0|280:80|280:80,2,165,0|8|0
184,216,154883,1,8
256,304,155249,1,2
320,216,155615,1,8
320,216,155798,6,0,B|408:168|392:288|496:208|496:208,1,165,0|8
472,112,156713,1,0
376,64,157078,2,0,B|296:48|248:72|248:72,1,110,0|8
200,152,157810,2,0,B|120:168|72:144|72:144,1,110
120,256,158542,6,0,B|136:328|200:352|200:352,1,110,8|0
248,256,159274,1,0
360,240,159639,2,0,B|344:168|280:144|280:144,1,110,8|2
152,80,160554,1,0
152,80,160737,1,8
152,80,160920,6,0,B|320:80,1,165
312,192,161835,1,0
376,280,162200,1,8
280,336,162566,1,0
280,336,162749,2,0,B|184:360|120:288|120:288,1,165,0|8
88,192,163664,1,0
200,192,164030,2,0,B|320:192,2,110
152,104,165127,6,0,B|192:48|256:48,1,110
352,48,165859,1,0
416,136,166225,1,8
360,232,166591,2,0,B|328:280|256:288,1,110,0|0
256,80,179030,5,4
80,216,179761,2,0,B|256:336|464:208|464:208,1,385
424,56,181591,5,2
424,56,181956,2,0,B|440:192|224:56|320:288|176:240,1,330
80,200,183420,5,2
80,200,183785,2,0,B|64:64|280:200|184:-32|328:16,1,330
448,192,185615,6,0,B|416:288|296:176|256:296|256:296,1,220
96,272,186896,1,2
184,128,187444,2,0,B|296:128,1,110
256,192,188176,12,0,189274
176,264,190005,5,0
256,192,190371,1,8
336,264,190737,1,0
312,48,191469,5,0
384,128,191835,1,8
416,24,192200,1,0
200,336,192932,5,0
128,256,193298,1,8
96,360,193663,1,0
200,48,194396,5,0
128,128,194762,1,8
96,24,195127,1,0
312,336,195859,5,0
384,256,196225,1,8
416,360,196590,1,0
216,264,197322,6,0,B|152:264|136:200,1,110,8|8
296,120,198054,2,0,B|360:120|376:184,1,110,8|8
296,264,198786,6,0,B|360:264|376:200,1,110,8|8
216,120,199518,2,0,B|152:120|136:184,1,110,8|8
256,368,200615,5,0
200,272,200981,1,8
296,216,201347,1,0
216,144,201713,1,8
304,80,202078,1,2
200,40,202444,6,0,B|144:40|96:80|96:80,1,110
96,192,203176,1,8
168,272,203542,2,0,B|224:272|272:232|272:232,2,110
200,168,204639,5,8
240,136,204822,1,0
288,160,205005,2,0,B|360:176|400:104|400:104,1,110,0|8
368,232,205737,2,0,B|440:248|480:176|480:176,1,110,0|8
256,192,206469,12,0,207932
256,192,208298,5,0
216,88,208664,1,8
320,56,209030,1,0
368,152,209396,2,0,B|408:216|368:272|368:272,1,110,8|0
272,216,210127,2,0,B|232:280|272:336|272:336,1,110,8|0
160,288,210859,6,0,B|112:240|128:176|128:176,1,110,8|0
192,96,211591,1,8
192,96,211774,2,0,B|312:96|312:96,1,110
376,176,212505,2,0,B|424:224|408:288|408:288,1,110,8|0
256,344,213420,1,8
256,232,213786,1,2
152,192,214152,6,0,B|104:144,2,55,8|0|0
256,152,214883,2,0,B|256:96|256:96,2,55,8|0|0
360,192,215615,2,0,B|408:144,2,55,8|0|0
328,296,216347,6,0,B|264:360|176:296,1,165,8|0
256,216,217261,2,0,B|312:184|208:120|304:48,2,165,0|8|0
256,192,218542,12,0,219639
160,272,220005,5,0
256,224,220371,1,8
352,272,220737,1,0
400,176,221103,2,0,B|400:112|336:88|336:88,1,110
232,72,221835,5,0
152,152,222201,1,8
168,264,222567,1,0
256,200,222932,2,0,B|376:184|280:112|408:112,1,165,8|0
400,224,223847,5,0
320,296,224213,1,8
320,296,224396,2,0,B|272:272|288:352|200:304,1,110
168,216,225127,1,8
256,152,225493,1,6
