osu file format v9

[General]
AudioFilename: 05 - Think of You.mp3
AudioLeadIn: 0
PreviewTime: 73670
Countdown: 0
SampleSet: Normal
StackLeniency: 0.7
Mode: 0
LetterboxInBreaks: 0

[Editor]
Bookmarks: 38542,239030
DistanceSpacing: 1
BeatDivisor: 4
GridSize: 8

[Metadata]
Title:Think of You
Artist:Sakaue Nachi
Creator:orioncomet
Version:Lunatic
Source:Touhou
Tags:Bad Apple DJ Command NJK Record Elly Kite S i R i R u SiRiRu NachoPiggy Rokodo

[Difficulty]
HPDrainRate:7
CircleSize:4
OverallDifficulty:8
ApproachRate:8
SliderMultiplier:1.8
SliderTickRate:1

[Events]
//Background and Video events
0,0,"thinkofyou.jpg"
//Break Periods
2,50449,60475
2,167156,178280
//Storyboard Layer 0 (Background)
//Storyboard Layer 1 (Fail)
//Storyboard Layer 2 (Pass)
//Storyboard Layer 3 (Foreground)
//Storyboard Sound Samples
//Background Colour Transformations
3,100,0,0,0

[TimingPoints]
1957,365.853658536585,4,1,0,30,1,0
38176,-100,4,1,0,70,0,0
38542,-100,4,2,1,70,0,0
43572,-100,4,1,0,60,0,0
44304,-100,4,2,1,70,0,0
48694,-100,4,2,1,60,0,0
50158,-200,4,1,0,50,0,0
50341,-200,4,2,1,70,0,0
61042,-100,4,1,0,60,0,0
61865,-100,4,2,1,70,0,0
73572,-100,4,1,0,70,0,0
84457,-100,4,2,0,70,0,0
85280,-100,4,1,0,70,0,0
96164,-100,4,2,0,70,0,0
96896,-100,4,1,0,65,0,0
108694,-100,4,2,1,70,0,0
113816,-100,4,1,0,60,0,0
114639,-100,4,2,1,70,0,0
120402,-200,4,1,0,50,0,0
120585,-200,4,2,1,70,0,0
121682,-200,4,1,0,50,0,0
122048,-200,4,2,1,70,0,0
123328,-200,4,1,0,50,0,0
123511,-200,4,2,1,70,0,0
124609,-200,4,1,0,50,0,0
124975,-200,4,2,1,70,0,0
125524,-200,4,1,0,50,0,0
126438,-200,4,2,1,70,0,0
127536,-200,4,1,0,50,0,0
127902,-200,4,2,1,70,0,0
129182,-200,4,1,0,50,0,0
129365,-200,4,2,1,70,0,0
130463,-200,4,1,0,50,0,0
130828,-200,4,2,1,70,0,0
131377,-100,4,1,0,60,0,0
132109,-100,4,2,1,70,0,0
143816,-100,4,1,0,70,0,0
154700,-100,4,2,0,70,0,0
155524,-100,4,1,0,70,0,0
166408,-100,4,2,0,70,0,0
178938,-200,4,1,0,50,0,0
179121,-200,4,2,1,70,0,0
180219,-200,4,1,0,50,0,0
180585,-200,4,2,1,70,0,0
181865,-200,4,1,0,50,0,0
182048,-200,4,2,1,70,0,0
183146,-200,4,1,0,50,0,0
183511,-200,4,2,1,70,0,0
184060,-200,4,1,0,50,0,0
184975,-200,4,2,1,70,0,0
186072,-200,4,1,0,50,0,0
186438,-200,4,2,1,70,0,0
187719,-200,4,1,0,50,0,0
187902,-200,4,2,1,70,0,0
188999,-200,4,1,0,50,0,0
189365,-200,4,2,1,70,0,0
189914,-100,4,1,0,60,0,0
190737,-100,4,2,1,70,0,0
202353,-100,4,1,0,70,0,0
213328,-100,4,2,0,70,0,0
213511,-100,4,1,0,60,0,0
213694,-100,4,2,0,70,0,0
213877,-100,4,1,0,70,0,0
224944,-100,4,2,0,70,0,0
226408,-100,4,1,0,40,0,0
226956,-100,4,1,0,50,0,0
227322,-100,4,1,0,65,0,0

[Colours]
Combo1 : 198,104,253
Combo2 : 255,94,199
Combo3 : 254,166,1
Combo4 : 168,188,27

[HitObjects]
256,192,37078,12,0,38175
192,64,38542,5,4
192,64,38725,1,0
312,192,38908,1,8
112,224,39091,1,0
184,280,39274,6,0,B|272:344|368:272,1,180,0|8
288,224,39822,1,0
368,176,40005,1,0
368,176,40371,2,0,B|408:280|288:336,1,180,8|0
200,224,40920,5,0
312,88,41103,1,8
456,192,41286,1,0
320,280,41469,6,0,B|272:272|240:200,1,90,4|0
252,224,41835,1,8
216,144,42017,1,0
168,216,42200,2,0,B|168:320|280:352,1,180,0|8
352,304,42749,5,0
352,208,42932,2,0,B|304:200|280:144,1,90
352,88,43298,1,8
272,40,43481,1,0
208,104,43664,1,0
184,128,43755,1,0
168,160,43847,1,0
168,192,43938,1,0
176,224,44030,1,0
192,256,44121,1,0
216,280,44213,5,0
160,352,44396,2,0,B|112:352|64:304,1,90,4|0
40,240,44761,1,8
104,176,44944,1,0
192,208,45127,2,0,B|128:120|200:32,1,180,0|8
248,112,45676,1,0
320,56,45859,2,0,B|312:160|432:184,1,180,0|8
422,181,46591,5,0
304,320,46774,1,0
168,200,46957,1,8
304,88,47139,1,0
248,200,47322,6,0,B|208:296,1,90,4|0
136,192,47688,1,8
136,192,47871,1,0
248,200,48054,2,0,B|296:112,1,90
256,40,48420,5,8
80,72,48603,1,0
80,256,48786,1,4
80,256,49152,5,8
112,256,49517,1,12
144,256,49883,1,8
256,192,50249,5,4
48,240,61225,5,0
72,264,61316,1,0
104,280,61408,1,0
136,296,61499,1,0
168,304,61591,1,0
232,240,61774,1,0
288,312,61957,2,0,B|392:320|432:216,1,180,4|0
48,120,62688,5,2
112,184,62871,1,2
176,120,63054,2,0,B|184:72|240:40,1,90,2|0
320,48,63420,2,0,B|384:128|304:240,1,180,2|0
272,136,63969,2,0,B|240:240|104:216,1,180,2|0
64,160,64517,2,0,B|24:256|120:320,2,180,2|0|0
272,240,65615,6,2,B|301:276|352:288,1,90
416,232,65981,2,0,B|408:184|368:152,1,90,2|0
328,232,66347,2,0,B|296:328|184:312,1,180,2|0
232,232,66896,2,0,B|224:120|352:80,1,180,2|0
320,184,67444,1,2
320,184,67810,2,0,B|336:296|192:328,1,180,4|0
268,40,68542,5,2
132,152,68725,1,2
268,272,68908,1,2
104,128,69091,5,0
24,176,69274,2,0,B|96:240|216:176,1,180,2|0
280,200,69822,2,0,B|272:304|160:320,1,180,2|0
80,312,70371,1,2
80,312,70737,6,0,B|8:232|56:144,1,180,2|0
144,144,71286,2,0,B|208:216|160:320,1,180,2|0
256,336,71835,5,8
464,192,72200,1,4
256,48,72566,1,4
56,192,72932,1,4
256,336,73298,1,4
256,192,73664,5,4
168,168,73847,2,0,B|152:216|192:248,1,90
280,216,74213,2,0,B|384:208|400:96,1,180
304,112,74761,5,0
448,208,74944,1,0
368,248,75127,2,0,B|384:296|456:320,1,90
344,344,75493,2,0,B|296:368|248:336,2,90
304,264,76042,5,0
416,120,76225,1,0
200,120,76408,1,0
288,144,76591,5,0
224,208,76774,1,0
312,232,76957,1,0
248,288,77139,6,0,B|136:288|104:184,1,180
144,112,77688,2,0,B|192:128|224:192,1,90
296,208,78054,2,0,B|240:128|288:32,1,180
368,40,78603,1,0
368,40,78694,1,0
368,40,78786,2,0,B|424:128|376:224,1,180
312,320,79335,5,0
280,320,79426,1,0
248,320,79517,2,0,B|160:320,1,90,4|0
128,232,79883,2,0,B|81:237|32:232,1,90
80,152,80249,2,0,B|165:111|264:160,1,180
160,296,80798,5,0
160,296,80981,2,0,B|64:248|80:136,1,180
120,72,81530,2,0,B|216:64|288:144,1,180
424,192,82078,5,0
368,256,82261,1,0
304,192,82444,1,0
480,144,82627,5,0
368,328,82810,1,0
248,144,82993,1,0
248,144,83359,6,0,B|232:99|176:80,1,90
160,168,83725,1,0
88,112,83908,2,0,B|48:216|152:280,1,180
296,352,84639,1,4
296,40,85005,1,4
296,40,85371,5,4
448,128,85554,1,0
264,136,85737,1,0
264,136,85920,2,0,B|216:224|264:336,1,180
176,352,86469,5,0
64,240,86652,1,0
176,136,86835,2,0,B|88:96,1,90
24,152,87200,2,0,B|8:256|120:312,1,180
288,208,87749,5,0
112,208,87932,1,0
184,88,88115,2,0,B|239:88|288:136,1,90
288,208,88481,2,0,B|304:256|256:312,1,90
344,352,88847,6,0,B|424:288|384:176,1,180
472,160,89396,1,0
408,96,89578,1,0
336,152,89761,2,0,B|248:208|280:344,1,180
184,328,90310,1,0
184,328,90493,2,0,B|144:224|216:152,1,180
208,159,91042,1,0
256,88,91225,6,0,B|204:82|160:32,1,90,4|0
96,88,91591,1,0
88,256,91774,1,0
256,192,91956,1,0
176,160,92139,6,0,B|160:208|176:272,2,90
256,192,92688,1,0
344,32,92871,1,0
264,192,93054,1,0
416,280,93237,1,0
304,304,93420,5,0
224,344,93603,2,0,B|176:360|128:336,1,90
80,272,93969,2,0,B|72:224|112:184,1,90
176,128,94335,2,0,B|224:112|264:136,1,90
288,216,94700,6,0,B|224:288|112:256,1,180
184,192,95249,2,0,B|147:161|88:160,1,90
48,88,95615,2,0,B|144:56|248:120,1,180
464,192,96347,1,4
48,192,96713,1,4
152,48,97078,5,4
232,88,97261,1,0
248,120,97353,1,0
252,156,97444,1,0
200,232,97627,1,0
232,248,97719,1,0
268,252,97810,1,0
328,184,97993,1,0
376,256,98176,1,0
328,328,98359,5,0
240,344,98542,2,0,B|136:360|80:264,1,180,0|0
80,184,99091,1,0
80,152,99182,1,0
104,120,99274,1,0
184,72,99456,1,0
216,80,99548,1,0
240,104,99639,1,0
248,192,99822,6,0,B|304:184|320:136,1,90
328,56,100188,1,0
364,68,100280,1,0
396,88,100371,1,0
420,116,100463,1,0
436,148,100554,1,0
444,184,100646,1,0
440,220,100737,1,0
424,252,100828,1,0
400,276,100920,1,0
320,316,101103,5,0
240,192,101286,1,0
160,224,101469,5,0
144,240,101560,1,0
80,176,101743,1,0
88,160,101835,1,0
72,72,102017,1,0
160,72,102200,5,0
176,80,102292,1,0
264,72,102475,1,0
280,80,102566,1,0
368,48,102749,1,0
416,128,102932,1,4
408,164,103024,1,0
388,192,103115,1,0
356,208,103206,1,0
320,208,103298,1,0
288,188,103389,1,0
256,176,103481,5,0
220,184,103572,1,0
188,204,103664,1,0
184,296,103847,1,0
104,336,104030,1,0
56,264,104213,1,0
56,264,104396,2,0,B|40:200|152:192|136:112,1,180
208,64,104944,5,0
240,48,105036,1,0
272,48,105127,1,0
304,64,105219,1,0
352,136,105402,1,0
368,152,105493,1,0
288,200,105676,1,0
204,164,105859,1,0
168,172,105950,1,0
144,196,106042,1,0
136,232,106133,1,0
148,264,106225,1,0
168,292,106316,1,0
200,308,106408,1,0
236,308,106499,1,0
268,292,106591,1,0
256,192,106956,12,0,108420
176,88,108786,6,0,B|152:128|80:144,1,90,4|0
152,216,109152,2,0,B|176:176|240:160,1,90,8|0
272,88,109517,2,0,B|344:176|264:272,1,180,0|8
278,253,110066,1,0
240,336,110249,2,0,B|144:296|128:176,1,180,0|8
288,72,110981,5,0
416,136,111164,1,0
328,248,111347,1,8
200,184,111530,1,0
328,248,111713,6,0,B|264:328|152:288,1,180,4|8
224,224,112261,2,0,B|256:184|320:176,1,90
392,184,112627,1,0
408,272,112810,6,0,B|448:296|448:352,2,90,8|0|0
392,96,113359,1,0
232,184,113542,1,8
312,256,113725,5,0
240,312,113908,1,0
204,312,113999,1,0
168,304,114091,1,0
136,288,114182,1,0
104,264,114274,1,0
80,232,114365,1,0
64,200,114456,1,0
64,160,114548,1,0
72,128,114639,5,4
160,112,114822,1,0
96,48,115005,1,8
304,56,115188,5,0
360,128,115371,2,0,B|352:232|240:240,1,180,0|8
272,152,115920,1,0
280,64,116103,2,0,B|184:96|184:200,1,180,0|8
256,328,116835,5,0
240,216,117017,1,0
360,208,117200,1,8
376,320,117383,1,0
200,344,117566,5,4
192,168,117749,1,0
408,160,117932,1,8
440,344,118115,1,0
304,256,118298,5,0
296,80,118481,1,0
296,80,118664,5,8
136,168,118847,1,0
240,312,119030,1,4
240,312,119396,5,8
240,240,119761,1,4
240,168,120127,1,8
240,168,120493,5,4
152,328,121774,5,0
288,328,121956,1,0
312,80,123420,5,0
232,112,124700,5,0
232,240,124883,1,0
142,240,125615,5,0
40,112,125981,1,0
192,56,126347,1,0
315,168,127627,5,0
240,216,127810,1,0
136,80,129274,6,0,B|120:120|144:176,1,90
232,168,129822,2,0,B|240:240|136:240|144:320,1,180
232,336,130737,1,0
368,56,131469,5,0
384,88,131560,1,0
392,120,131652,1,0
392,152,131743,1,0
384,184,131835,1,0
328,256,132017,1,0
288,176,132200,2,0,B|184:192|152:296,1,180,4|0
248,272,132749,1,0
192,112,132932,6,2,B|288:64|392:112,1,180
384,192,133481,2,0,B|376:248|304:264,2,90,0|2|0
336,120,134030,1,0
264,176,134213,2,0,B|176:136|80:176,1,180,2|0
64,256,134761,2,0,B|80:304|144:336,1,90,2|0
176,248,135127,5,4
48,136,135310,1,0
192,96,135493,1,0
176,248,135676,1,0
176,248,135859,5,2
296,128,136042,1,2
432,240,136225,2,0,B|448:136|352:88,2,180,2|2|0
360,296,137139,2,0,B|264:328|184:248,1,180,2|0
280,232,137688,2,0,B|240:152|112:144,1,180,2|4
80,256,138237,5,0
136,48,138420,1,0
136,56,138786,5,2
304,136,138969,1,2
120,200,139152,1,2
72,120,139335,5,0
144,176,139517,2,0,B|192:256|120:352,1,180,2|0
144,176,140066,2,0,B|240:224|336:160,1,180,2|0
368,96,140615,5,2
344,272,140981,2,0,B|240:256|160:336,1,180,2|0
136,240,141530,2,0,B|200:160|168:56,1,180,2|0
256,40,142078,6,0,B|304:48|328:104,1,90,8|0
256,112,142444,2,0,B|208:120|184:168,1,90,4|0
256,184,142810,2,0,B|304:192|328:248,1,90,4|0
256,256,143176,2,0,B|208:264|184:312,1,90,4|0
256,328,143542,5,4
424,120,143908,6,0,B|408:168|344:200,1,90,4|0
280,208,144274,1,0
192,208,144456,2,0,B|88:208|40:104,1,180
64,264,145005,5,0
160,112,145188,1,0
320,192,145371,1,0
208,336,145554,1,0
248,256,145737,5,0
160,264,145920,2,0,B|72:216|88:104,1,180
168,144,146469,1,0
216,64,146652,2,0,B|256:40|312:40,1,90
384,80,147017,2,0,B|399:125|384:184,1,90
304,136,147383,6,0,B|200:112|128:216,1,180
224,240,147932,2,0,B|336:256|384:152,2,180
152,296,148847,1,0
240,336,149030,2,0,B|320:288|432:312,1,180
424,128,149578,5,0
384,112,149670,1,0
344,104,149761,2,0,B|264:152|152:96,1,180,4|0
112,176,150310,2,0,B|164:181|208:232,1,90
232,296,150676,5,0
336,352,150859,1,0
320,240,151042,1,0
272,104,151225,5,0
424,208,151408,1,0
400,32,151591,1,0
432,120,151774,6,0,B|328:96|264:168,1,180
264,256,152322,1,0
344,208,152505,1,0
200,272,152688,5,0
152,96,152871,1,0
24,224,153054,1,0
104,208,153237,6,0,B|176:136|296:168,1,180
360,64,153786,1,0
456,160,153969,1,0
272,160,154152,2,0,B|288:264|184:328,1,180
202,315,154883,5,4
384,320,155249,1,4
296,168,155615,5,4
296,168,155798,2,0,B|352:248|280:336,2,180
152,128,156713,1,0
280,56,156896,1,0
424,168,157078,5,0
296,56,157261,1,0
296,240,157444,2,0,B|200:224|120:312,1,180
112,208,157993,5,0
184,152,158176,2,0,B|224:184|280:152,1,90
352,192,158542,1,0
304,264,158725,2,0,B|352:288|400:272,1,90
440,128,159091,6,0,B|352:80|256:136,1,180
176,112,159639,2,0,B|160:160|200:208,1,90
280,216,160005,2,0,B|328:104|232:32,1,180
344,32,160554,1,0
384,112,160737,2,0,B|408:208|312:280,1,180,0|4
88,288,161286,5,0
88,288,161469,2,0,B|32:208|88:112,1,180,4|0
160,64,162017,2,0,B|256:72|304:168,1,180
184,248,162566,5,0
360,280,162749,1,0
432,112,162932,1,0
256,160,163115,6,0,B|136:160,1,90
224,88,163481,2,0,B|352:56,1,90
296,152,163847,2,0,B|336:232,1,90
256,320,164213,5,0
128,200,164396,1,0
296,152,164578,1,0
296,152,164761,2,0,B|400:136|472:200,1,180
400,256,165310,5,0
256,336,165493,1,0
128,256,165676,1,0
272,344,165859,6,0,B|304:240|272:160,1,180
64,136,166591,2,4,B|32:216|64:320,1,180,4|4
256,192,179030,5,0
80,88,180310,5,0
208,88,180493,1,0
424,328,181956,5,0
200,104,183237,5,0
136,168,183420,1,0
256,328,184152,5,0
104,96,184517,1,0
392,104,184883,1,0
336,192,186164,5,0
184,192,186347,1,0
264,200,187810,6,0,B|264:344,2,135
360,144,189091,5,0
176,144,189274,1,0
48,224,190005,5,0
48,264,190097,1,0
64,296,190188,1,0
88,320,190280,1,0
120,336,190371,1,0
152,344,190463,1,0
184,344,190554,1,0
216,336,190646,1,0
248,320,190737,2,0,B|304:224|224:144,1,180,4|0
440,64,191469,5,2
304,160,191652,1,2
432,280,191835,2,0,B|400:320|328:328,1,90,2|0
272,304,192200,6,0,B|208:216|288:112,1,180,2|0
328,208,192749,2,0,B|416:144|400:24,1,180,2|0
320,88,193298,2,0,B|232:40|136:88,2,180,2|4|0
272,256,194213,5,0
272,168,194396,2,2,B|229:153|168:168,1,90
192,256,194761,2,0,B|142:270|88:256,1,90,2|0
136,344,195127,2,0,B|232:360|328:344,1,180,2|0
264,272,195676,2,0,B|160:254|72:272,1,180,2|0
128,192,196225,1,2
200,144,196408,1,0
232,136,196499,1,0
264,144,196591,2,0,B|352:184|448:144,1,180,4|0
384,72,197139,6,0,B|344:48|280:48,1,90,0|2
160,104,197505,1,2
240,224,197688,1,2
360,152,197871,1,0
352,272,198054,6,0,B|304:352|184:344,1,180,2|0
152,264,198603,2,0,B|192:168|320:176,1,180,2|0
272,264,199152,1,2
272,264,199517,6,0,B|240:200|320:128|272:72,1,180,2|0
200,120,200066,2,0,B|136:208|216:312,1,180,2|0
264,352,200615,1,8
464,192,200981,1,4
264,48,201347,1,4
64,192,201713,1,4
264,352,202078,1,4
360,200,202444,5,4
280,248,202627,2,0,B|192:304|96:240,1,180
176,192,203176,1,0
104,136,203359,1,0
128,96,203450,1,0
168,80,203542,1,0
256,88,203725,1,0
328,144,203908,2,0,B|316:192|264:232,1,90
208,160,204274,2,0,B|160:176|128:232,2,90
336,48,204822,5,0
432,200,205005,1,0
272,280,205188,1,0
176,128,205371,1,0
336,48,205554,2,0,B|383:69|400:120,1,90
320,160,205920,6,0,B|336:256|464:272,1,180
368,320,206469,2,0,B|318:320|280:272,1,90
232,216,206835,2,0,B|208:320|72:320,1,180
64,240,207383,1,0
64,240,207475,1,0
64,240,207566,2,0,B|88:144|208:120,1,180
200,208,208115,5,0
192,248,208206,1,0
200,296,208298,2,0,B|288:344|392:288,1,180,4|0
424,224,208847,2,0,B|424:120|304:64,1,180
280,152,209396,5,0
280,240,209578,1,0
200,192,209761,5,0
280,32,209944,1,0
424,144,210127,1,0
368,224,210310,6,0,B|280:280|184:216,1,180
144,160,210859,1,0
280,40,211042,1,0
424,152,211225,5,0
304,160,211408,1,0
368,256,211591,1,0
304,320,211774,6,0,B|208:368|112:280,1,180
135,299,212322,1,0
232,152,212505,1,0
232,152,212688,2,0,B|192:64|64:56,1,180
88,240,213420,5,4
184,304,213603,1,0
272,240,213786,1,4
304,232,213877,1,0
336,240,213969,1,0
368,232,214060,1,0
400,240,214152,6,0,B|496:200|488:88,1,180,4|0
400,128,214700,2,0,B|304:144|272:264,1,180
232,168,215249,5,0
128,88,215432,1,0
48,200,215615,2,0,B|83:227|136:240,1,90
232,168,215981,1,0
200,248,216164,2,0,B|192:296|144:336,1,90
240,336,216530,5,0
312,208,216713,1,0
424,312,216896,2,0,B|465:282|480:240,1,90
392,224,217261,2,0,B|416:184|424:120,1,90
328,112,217627,6,0,B|232:168|272:288,1,180
360,264,218176,1,0
360,264,218267,1,0
360,264,218359,1,0
320,344,218542,2,0,B|216:368|152:280,1,180
240,248,219091,1,0
152,216,219274,2,0,B|200:128|320:120,1,180
297,122,219822,1,0
136,40,220005,6,0,B|232:96,1,90,4|0
213,85,220371,1,0
64,192,220554,1,0
232,264,220737,1,0
232,264,220920,2,0,B|296:184,2,90
144,272,221469,5,0
280,352,221652,1,0
320,208,221835,2,0,B|424:168|416:32,1,180
328,64,222383,6,0,B|328:112|280:160,1,90
144,104,222749,2,0,B|130:154|152:224,1,90
312,160,223115,2,0,B|312:208|280:256,1,90
72,192,223481,2,0,B|56:296|160:360,1,180
320,256,224030,6,0,B|360:224|376:160,1,90
312,112,224396,2,0,B|208:96|160:192,1,180
256,344,225127,1,4
256,344,225493,1,4
392,116,226591,5,0
424,136,226682,1,0
448,164,226774,1,0
456,200,226865,1,0
456,236,226956,1,0
444,272,227048,1,0
420,300,227139,1,0
392,320,227231,1,0
360,336,227322,5,0
280,296,227505,1,0
264,264,227597,1,0
260,228,227688,1,0
312,152,227871,1,0
280,136,227963,1,0
244,132,228054,1,0
184,200,228237,1,0
136,128,228420,1,0
184,56,228603,5,0
272,40,228786,2,0,B|376:24|432:120,1,180
432,200,229335,1,0
432,232,229426,1,0
408,264,229517,1,0
328,312,229700,1,0
296,304,229792,1,0
272,280,229883,1,0
264,192,230066,6,0,B|208:200|192:248,1,90
184,328,230432,1,0
148,316,230524,1,0
116,296,230615,1,0
92,268,230706,1,0
76,236,230798,1,0
68,200,230889,1,0
72,164,230981,1,0
88,132,231072,1,0
112,108,231164,1,0
192,68,231347,5,0
272,192,231530,1,0
352,160,231713,5,0
368,144,231804,1,0
432,208,231987,1,0
424,224,232078,1,0
440,312,232261,1,0
352,312,232444,5,0
336,304,232536,1,0
248,312,232719,1,0
232,304,232810,1,0
144,336,232993,1,0
96,256,233176,1,0
104,220,233267,1,0
124,192,233359,1,0
156,176,233450,1,0
192,176,233542,1,0
224,196,233633,1,0
256,208,233725,5,0
292,200,233816,1,0
324,180,233908,1,0
328,88,234091,1,0
408,48,234274,1,0
456,120,234456,1,0
456,120,234639,2,0,B|472:184|360:192|376:272,1,180
304,320,235188,5,0
272,336,235280,1,0
240,336,235371,1,0
208,320,235463,1,0
160,248,235646,1,0
176,232,235737,1,0
264,252,235920,1,0
336,196,236103,5,0
372,188,236194,1,0
396,164,236286,1,0
404,128,236377,1,0
392,96,236469,1,0
372,68,236560,1,0
340,52,236652,1,0
304,52,236743,1,0
272,72,236835,1,0
248,96,236926,1,0
212,108,237017,1,0
176,96,237109,1,0
148,72,237200,1,0
112,60,237292,1,0
76,68,237383,1,0
40,152,237566,5,0
48,176,237658,1,0
104,240,237841,1,0
120,224,237932,1,0
200,184,238115,1,0
232,184,238206,1,0
256,192,238298,12,4,239030
