osu file format v9

[General]
AudioFilename: 05 - Think of You.mp3
AudioLeadIn: 0
PreviewTime: 73670
Countdown: 0
SampleSet: Soft
StackLeniency: 0.7
Mode: 0
LetterboxInBreaks: 0

[Editor]
Bookmarks: 38542
DistanceSpacing: 1
BeatDivisor: 4
GridSize: 8

[Metadata]
Title:Think of You
Artist:Sakaue Nachi
Creator:orioncomet
Version:Insane
Source:Touhou
Tags:Bad Apple DJ Command NJK Record Elly Kite S i R i R u SiRiRu NachoPiggy Rokodo

[Difficulty]
HPDrainRate:5
CircleSize:4
OverallDifficulty:7
ApproachRate:8
SliderMultiplier:1.8
SliderTickRate:1

[Events]
//Background and Video events
0,0,"thinkofyou.jpg"
//Break Periods
2,50449,60475
2,97278,106572
2,120693,130719
2,167522,176816
//Storyboard Layer 0 (Background)
//Storyboard Layer 1 (Fail)
//Storyboard Layer 2 (Pass)
//Storyboard Layer 3 (Foreground)
//Storyboard Sound Samples
//Background Colour Transformations
3,100,0,0,0

[TimingPoints]
1957,365.853658536585,4,1,0,30,1,0
38176,-100,4,1,0,70,0,0
38542,-100,4,2,1,70,0,0
44396,-100,4,2,1,70,0,0
50432,-100,4,2,1,40,0,0
61225,-100,4,1,0,30,0,0
61682,-100,4,2,1,70,0,0
61957,-125,4,2,0,40,0,0
63420,-166.666666666667,4,2,0,40,0,0
63786,-125,4,2,0,40,0,0
64883,-166.666666666667,4,2,0,40,0,0
65615,-125,4,2,0,40,0,0
66347,-166.666666666667,4,2,0,40,0,0
67810,-125,4,2,0,40,0,0
69274,-166.666666666667,4,2,0,40,0,0
70737,-125,4,2,0,40,0,0
73664,-100,4,1,0,60,0,0
84639,-100,4,2,0,60,0,0
85371,-100,4,1,0,60,0,0
96347,-100,4,2,0,60,0,0
96896,-100,4,1,0,60,0,0
107322,-100,4,2,1,40,0,0
120859,-125,4,2,1,40,0,0
131286,-100,4,1,0,30,0,0
131835,-100,4,2,1,40,0,0
132200,-125,4,2,1,40,0,0
133664,-166.666666666667,4,2,1,40,0,0
135127,-125,4,2,1,40,0,0
136591,-166.666666666667,4,2,1,40,0,0
138054,-125,4,2,1,40,0,0
139517,-166.666666666667,4,2,1,40,0,0
140981,-125,4,2,1,40,0,0
142444,-100,4,2,1,40,0,0
143267,-100,4,1,0,40,0,0
143542,-100,4,1,0,59,0,0
143908,-100,4,1,0,60,0,0
154792,-100,4,2,0,60,0,0
154975,-100,4,1,0,60,0,0
155249,-100,4,2,0,60,0,0
155341,-100,4,1,0,60,0,0
166591,-100,4,2,0,60,0,0
167322,-100,4,1,0,60,0,0
177566,-100,4,2,1,40,0,0
179030,-125,4,2,1,40,0,0
186347,-166.666666666667,4,2,1,40,0,0
190005,-125,4,1,0,40,0,0
190737,-125,4,2,1,40,0,0
192200,-166.666666666667,4,2,1,40,0,0
193664,-125,4,2,1,40,0,0
195127,-166.666666666667,4,2,1,40,0,0
196591,-125,4,2,1,40,0,0
198054,-166.666666666667,4,2,1,40,0,0
199700,-125,4,2,1,40,0,0
200615,-100,4,2,1,40,0,0
202444,-100,4,1,0,60,0,0
213420,-100,4,2,0,60,0,0
214152,-100,4,1,0,60,0,0
218542,-100,4,1,0,30,0,0
219274,-100,4,1,0,60,0,0
225127,-100,4,2,0,60,0,0
225676,-100,4,2,0,30,0,0
227322,-100,4,1,0,60,0,0

[Colours]
Combo1 : 186,104,253
Combo2 : 255,94,199
Combo3 : 254,166,1
Combo4 : 168,188,27

[HitObjects]
256,192,37078,12,0,38176
168,160,38542,5,4
240,104,38725,1,0
256,192,38908,2,0,B|288:240|352:240,1,90,8|0
336,152,39274,2,0,B|384:120|448:144,2,90,0|0|8
336,152,39822,1,0
392,216,40005,1,0
408,240,40097,1,0
408,264,40188,1,0
392,288,40280,1,0
368,296,40371,2,0,B|256:296,1,90,8|0
184,296,40737,5,0
72,216,40920,1,0
112,88,41103,1,8
240,48,41286,1,0
240,136,41469,6,0,B|352:96,1,90,4|0
224,216,41835,2,0,B|136:184,1,90,8|0
208,296,42200,2,0,B|248:312|312:280|322:216|296:176,1,180,0|8
301,185,42749,1,0
360,120,42932,5,0
448,152,43115,1,0
464,240,43298,1,8
416,312,43481,1,0
376,232,43664,5,0
288,312,43847,1,0
176,296,44030,1,8
128,192,44213,1,8
216,192,44396,6,0,B|216:128|160:112,1,90,4|0
88,120,44761,2,0,B|56:80|88:24,1,90,8|0
160,80,45127,2,0,B|240:80|288:112|320:168,1,180,0|8
313,157,45676,1,0
352,80,45859,2,0,B|408:104|400:176,1,90
464,88,46225,2,0,B|488:136|480:192|464:232|376:224,1,180,8|0
320,240,46774,5,0
216,136,46956,1,8
80,176,47139,1,0
88,320,47322,5,4
176,352,47505,1,0
152,264,47688,1,8
240,296,47871,1,0
328,328,48054,2,0,B|424:328,2,90,0|0|8
312,240,48603,1,0
224,216,48786,5,4
408,216,49152,1,8
248,128,49517,1,4
432,128,49883,1,8
272,40,50249,1,4
96,112,61225,5,0
64,112,61316,1,0
40,128,61408,1,0
24,152,61499,1,0
16,184,61591,1,0
56,264,61774,1,0
104,192,61956,5,4
168,144,62139,1,0
176,224,62322,2,0,B|200:256|248:264,1,72,2|0
248,184,62688,2,0,B|272:144|240:96,1,72,2|2
117,82,63054,2,0,B|152:56|200:72,1,72,2|0
64,144,63420,2,0,B|48:192|56:224|96:256,1,108.000002574921,4|2
160,248,63969,1,4
224,200,64152,2,0,B|192:168,2,36,2|0|0
240,280,64517,2,0,B|272:304|336:304,1,72,2|0
312,224,64883,6,0,B|344:176|432:184,2,108.000002574921,4|2|2
240,184,65798,1,2
240,184,65889,1,0
240,184,65981,2,0,B|200:184|168:136,1,72,2|0
160,72,66347,2,0,B|96:104|80:168,1,108.000002574921,4|0
136,208,66896,2,0,B|128:272|168:320,1,108.000002574921,4|0
232,280,67444,2,0,B|280:312|336:304,1,108.000002574921,2|4
416,240,67993,5,0
416,240,68085,1,0
416,240,68176,2,0,B|416:160,1,72,2|0
360,112,68542,2,2,B|320:80|272:96,1,72
296,168,68908,1,2
224,128,69091,1,0
136,128,69274,6,0,B|160:192|104:232,1,108.000002574921,4|0
64,168,69822,2,0,B|40:104|88:64,1,108.000002574921,4|0
82,68,70371,1,2
256,328,70737,5,4
328,272,70920,1,0
408,304,71103,1,2
400,216,71286,1,2
400,216,71377,1,2
400,216,71469,2,0,B|456:208|496:240,1,72,2|0
320,192,71835,6,0,B|344:112,1,72,8|0
192,192,72200,2,0,B|168:272,1,72,4|0
400,152,72566,2,0,B|424:72,1,72,4|0
112,232,72932,2,0,B|88:312,1,72,4|0
256,136,73298,5,4
64,96,73664,5,4
152,40,73847,1,0
256,64,74030,1,0
336,136,74213,2,0,B|376:184|360:240,1,90
219,321,74578,2,0,B|256:280|312:280,1,90
296,280,74944,1,0
376,312,75127,5,0
280,200,75310,1,0
136,168,75493,1,0
72,296,75676,5,0
136,360,75859,2,0,B|176:320|160:272,1,90
248,128,76225,2,0,B|206:157|206:213,1,90
256,280,76591,5,0
416,232,76774,1,0
472,72,76956,1,0
368,40,77139,5,0
328,40,77231,1,0
288,40,77322,2,0,B|192:40,1,90
168,120,77688,2,0,B|264:120,1,90
336,120,78054,2,0,B|336:184|272:200,1,90
256,208,78328,1,0
216,208,78420,1,0
240,288,78603,1,0
400,192,78786,5,0
336,360,78969,1,0
472,232,79152,1,0
296,288,79335,1,0
312,200,79517,5,4
224,176,79700,1,0
136,200,79883,1,0
80,272,80066,1,0
80,272,80158,1,0
80,272,80249,1,0
168,280,80432,6,0,B|176:328|232:352,1,90
400,192,80798,1,0
200,184,80981,5,0
256,112,81164,1,0
344,88,81347,1,0
432,112,81530,1,0
432,112,81622,1,0
432,112,81713,1,0
400,192,81896,6,0,B|392:240|336:264,1,90
112,168,82262,1,0
64,96,82444,5,0
168,88,82627,1,0
272,120,82810,1,0
336,200,82993,1,0
336,200,83085,1,0
336,200,83176,1,0
256,240,83359,6,0,B|256:328,2,90
176,280,83908,1,0
112,216,84091,1,0
112,216,84182,1,0
112,216,84274,1,0
72,296,84456,6,0,B|24:328,2,45,0|0|4
416,72,85005,1,4
264,160,85371,5,4
288,248,85554,1,0
224,312,85737,1,0
136,288,85920,1,0
104,256,86011,1,0
104,208,86103,1,0
192,216,86286,2,0,B|184:160|152:136,1,90
64,128,86652,1,0
208,48,86835,6,0,B|264:48|288:96,1,90
208,136,87200,2,0,B|248:160|248:224,1,90
160,208,87566,2,0,B|160:264|104:288,1,90
72,208,87932,2,0,B|40:224|8:216,2,45
88,296,88298,5,0
192,320,88481,1,0
288,296,88664,1,0
384,256,88847,1,0
384,256,88938,1,0
384,256,89030,1,0
472,216,89213,5,0
352,80,89396,1,0
176,72,89578,1,0
88,72,89761,6,0,B|64:144|160:160|144:256,1,180
56,240,90310,2,0,B|56:304,2,45
64,152,90676,1,0
152,136,90859,1,0
232,176,91042,1,0
264,256,91225,6,0,B|264:320|224:352,1,90,4|0
87,258,91591,2,0,B|144:256|184:288,1,90
192,192,91956,2,0,B|184:144|232:96,1,90
304,72,92322,5,0
352,256,92505,1,0
408,184,92688,5,0
424,288,92871,1,0
320,336,93054,1,0
232,288,93237,1,0
216,176,93420,1,0
288,96,93603,1,0
384,72,93786,5,0
144,72,93969,1,0
128,160,94152,6,0,B|128:224|168:272,1,90
120,328,94517,2,0,B|72:312|48:256,2,90
200,288,95066,1,0
240,264,95158,1,0
256,224,95249,2,0,B|264:176|232:120,1,90
288,56,95615,1,0
368,96,95798,1,0
392,136,95889,1,0
392,184,95981,1,0
344,264,96164,6,0,B|408:312,2,45,0|0|4
96,56,96713,1,4
344,264,97078,1,4
40,192,107322,5,4
160,136,107597,1,4
280,200,107871,1,4
280,288,108054,1,4
248,320,108146,1,0
208,328,108237,1,0
160,320,108328,1,0
128,288,108420,2,0,B|128:240,4,45,4|0|0|0|4
208,240,108969,5,0
208,152,109152,1,8
288,112,109335,1,0
288,200,109517,2,0,B|336:224|384:192,1,90
472,78,109883,2,0,B|408:80|392:136,1,90,8|0
456,192,110249,2,0,B|472:240|432:288,1,90
275,328,110615,2,0,B|312:296|376:320,1,90,8|0
368,232,110981,5,0
296,152,111164,1,0
192,88,111347,1,8
80,72,111530,1,0
48,160,111713,5,4
128,232,111896,1,0
240,280,112079,1,8
352,288,112262,1,0
464,208,112444,6,0,B|464:160|416:128,1,90
376,128,112719,1,0
328,128,112810,2,0,B|224:128,2,90,8|0|0
352,216,113359,5,0
224,304,113542,1,8
72,264,113725,1,0
40,176,113908,5,0
128,200,114091,1,0
152,288,114274,1,8
96,360,114456,1,8
216,224,114639,5,4
224,136,114822,1,0
304,96,115005,2,0,B|328:152|288:192,1,90,8|0
224,136,115371,2,0,B|176:96|96:120|72:184,1,180,0|8
112,256,115920,1,0
112,256,116103,2,0,B|136:304|104:360,1,90
32,296,116469,5,8
256,216,116652,1,0
192,272,116835,5,0
304,304,117017,1,0
400,264,117200,1,8
440,168,117383,1,0
408,72,117566,5,4
320,32,117748,1,0
384,104,117931,1,8
296,64,118114,1,0
296,160,118298,6,0,B|264:200|200:184,1,90
168,120,118664,1,8
104,176,118847,1,0
96,256,119030,6,0,B|112:304|176:296,1,90,4|0
240,264,119396,2,0,B|280:240|336:272,1,90,8|0
384,320,119761,2,0,B|440:304|448:256,1,90,4|0
376,216,120127,2,0,B|360:168|400:128,1,90,8|0
395,132,120493,1,4
360,72,131469,5,0
368,104,131560,1,0
360,136,131652,1,0
336,160,131743,1,0
304,168,131835,2,0,B|216:168,1,90
128,144,132200,6,0,B|96:176|104:224,1,72,4|0
152,272,132566,1,2
152,272,132749,1,0
232,288,132932,2,2,B|280:304|288:352,1,72
216,368,133298,1,2
232,288,133481,1,0
296,240,133664,6,0,B|400:192,1,108.000002574921,4|0
464,224,134213,2,0,B|480:176|464:136|416:104|360:128,1,162.000003862381,4|2
248,192,135127,6,0,B|147:190,1,72,4|0
123,118,135493,1,2
59,174,135676,2,0,B|35:230|75:270,1,72,0|2
139,270,136042,1,2
83,334,136225,1,2
248,216,136591,6,0,B|264:96,1,108.000002574921,4|0
320,48,137139,1,4
368,112,137322,2,0,B|424:144|480:112,2,108.000002574921,0|2|4
328,248,138420,1,2
104,320,138786,5,2
56,256,138969,1,2
136,240,139152,2,0,B|176:216,2,36,2|0|0
88,176,139517,6,0,B|80:136|104:88|160:88,1,108.000002574921,4|0
176,160,140066,2,0,B|216:168|256:160|272:112,1,108.000002574921,4|0
267,122,140615,1,2
400,192,140981,6,0,B|400:272,2,72,4|0|2
464,136,141530,1,2
448,96,141621,1,2
416,80,141713,2,0,B|336:80,1,72,2|0
256,48,142078,1,8
40,192,142444,6,0,B|48:240|96:264,1,90,4|0
160,176,142810,2,0,B|240:128,1,90,8|0
344,128,143176,5,4
384,144,143267,1,0
416,176,143359,1,0
432,216,143450,1,0
432,264,143542,1,0
360,320,143725,1,0
280,312,143908,6,0,B|176:312,1,90,4|0
112,272,144274,1,0
72,192,144456,2,0,B|72:136|128:120,1,90
168,200,144822,5,0
168,200,144914,1,0
168,200,145005,1,0
336,72,145188,1,0
384,152,145371,6,0,B|336:176|280:152,1,90
224,104,145737,1,0
88,192,145919,2,0,B|88:136|144:120,1,90
160,40,146285,5,0
160,40,146377,1,0
160,40,146468,1,0
256,256,146651,1,0
280,168,146835,6,0,B|328:176|344:232,1,90
344,272,147109,1,0
344,320,147200,1,0
432,296,147383,2,0,B|432:112,1,180
344,104,147932,2,0,B|344:48|416:24,1,90
256,48,148298,6,0,B|256:104|200:128,1,90
168,136,148572,1,0
120,136,148664,1,0
56,72,148847,2,0,B|24:16,2,45
40,160,149213,5,0
176,280,149396,1,0
352,288,149578,1,0
400,208,149761,5,4
312,208,149944,1,0
264,288,150127,1,0
352,288,150310,5,0
464,264,150493,1,0
456,144,150676,1,0
400,208,150859,5,0
120,160,151042,1,0
200,112,151225,5,0
200,200,151408,1,0
280,248,151591,1,0
280,160,151774,5,0
256,48,151957,1,0
136,56,152140,1,0
200,112,152323,5,0
40,256,152506,1,0
96,328,152688,6,0,B|144:344|200:328,1,90
333,244,153054,2,0,B|272:240|232:288,1,90
249,270,153328,1,0
249,270,153420,2,0,B|192:272|160:208,1,90
248,176,153786,1,0
336,152,153969,1,0
384,80,154152,6,0,B|448:88|464:144,1,90
416,208,154517,2,0,B|416:256,2,45
336,240,154883,1,4
312,280,154975,1,0
272,296,155066,1,0
224,304,155158,1,0
176,296,155249,2,0,B|88:240,1,90
168,192,155615,5,4
192,104,155798,1,0
272,56,155981,1,0
288,144,156164,2,0,B|288:200,2,45
360,88,156530,1,0
440,128,156713,5,0
272,296,156896,1,0
360,312,157078,5,0
416,248,157261,1,0
328,232,157444,1,0
392,168,157627,1,0
392,168,157719,1,0
392,168,157810,1,0
304,152,157993,5,0
152,200,158176,1,0
56,328,158359,1,0
144,328,158542,6,0,B|192:328|216:280,1,90
232,192,158908,2,0,B|208:144|240:96,1,90
256,64,159182,1,0
296,48,159274,1,0
384,48,159456,1,0
336,128,159639,2,0,B|352:176|408:192,1,90
464,248,160005,6,0,B|416:312|336:304|288:280,1,180
224,240,160554,1,0
184,224,160646,1,0
144,240,160737,1,0
184,320,160920,2,0,B|184:368,2,45
184,320,161286,1,0
184,136,161469,6,0,B|184:48,1,90,4|0
264,88,161835,2,0,B|264:192,1,90
264,224,162109,2,0,B|264:280,1,45
328,328,162383,1,0
416,328,162566,5,0
184,224,162749,1,0
88,168,162932,6,0,B|56:208|72:264,1,90
230,333,163298,2,0,B|191:287|127:295,1,90
112,312,163572,2,0,B|72:328|72:368,1,45
16,280,163847,1,0
16,192,164030,5,0
256,104,164213,1,0
256,192,164396,6,0,B|256:240|312:264,1,90
344,176,164761,2,0,B|400:176|416:120,1,90
416,80,165036,2,0,B|416:32,1,45
328,48,165310,2,0,B|328:112,2,45
248,80,165676,1,0
160,88,165859,5,0
128,112,165950,1,0
112,152,166042,1,0
200,168,166225,1,0
240,176,166316,1,0
272,208,166408,1,0
288,248,166499,1,0
288,296,166591,2,0,B|280:352|221:354|186:319|201:302|198:246,2,180,4|4|4
256,344,177566,5,0
168,240,177841,1,0
168,104,178115,1,0
248,64,178298,1,0
296,64,178389,1,0
336,88,178481,1,0
352,128,178572,1,0
352,176,178664,2,0,B|352:224,4,45
160,312,180310,5,8
352,312,180493,1,8
256,48,181956,5,8
424,328,183237,5,8
424,328,183420,1,8
264,328,183786,1,0
264,328,183969,1,0
312,264,184152,2,8,B|280:240|216:240|192:280|184:320,2,144
304,80,185615,5,0
208,80,185798,1,0
320,160,185981,1,0
192,160,186164,1,0
256,240,186347,6,0,B|264:248|264:248|248:256|248:256|264:264|264:264|248:272|248:272|264:280|264:280|248:288|248:288|256:296|256:296|256:352,2,162.000003862381
256,240,187810,1,8
256,40,189091,5,8
256,40,189274,1,8
408,96,190005,5,0
408,120,190097,1,0
408,144,190188,1,0
408,168,190280,1,0
408,192,190371,2,0,B|408:232,4,36,0|0|0|0|4
328,192,190920,5,0
256,240,191103,2,0,B|208:256|176:232,1,72,2|0
224,160,191469,2,2,B|208:120|168:112,1,72
112,176,191835,1,2
56,240,192017,1,0
104,312,192200,6,0,B|144:352|224:344,1,108.000002574921,4|0
208,264,192749,2,0,B|272:256|304:208,1,108.000002574921,4|0
232,168,193298,1,2
232,168,193664,5,4
152,120,193847,1,0
128,208,194030,2,0,B|96:232|40:208,2,72,2|0|2
208,256,194578,2,2,B|240:280|232:328,1,72
448,192,195127,6,0,B|416:136|336:136,1,108.000002574921,4|0
280,184,195676,1,4
192,168,195859,1,0
184,80,196042,2,0,B|152:40,2,27.0000006437302,0|0|2
184,80,196591,1,4
264,48,196774,5,0
304,48,196865,1,0
336,80,196956,1,2
336,168,197139,1,0
336,256,197322,2,0,B|336:328,2,72,2|2|2
264,216,197871,1,0
176,216,198054,6,0,B|112:208|96:152,1,108.000002574921,4|0
184,128,198603,1,4
184,128,198786,2,0,B|264:24,2,108.000002574921,0|2|4
112,80,199700,6,0,B|64:80,2,36
88,168,200066,2,0,B|64:224,2,36
144,240,200432,1,0
232,240,200615,6,0,B|296:152,1,90,8|0
416,112,200981,2,0,B|352:200,1,90,4|0
200,160,201347,2,0,B|264:72,1,90,8|0
448,192,201713,2,0,B|384:280,1,90,4|0
395,264,202078,1,4
144,312,202444,6,0,B|88:312|64:264,1,90,4|0
40,184,202810,1,0
96,112,202993,1,0
144,104,203085,1,0
184,120,203176,1,0
136,192,203359,1,0
216,224,203542,5,0
464,192,203725,1,0
376,192,203908,6,0,B|376:280,1,90
296,248,204274,1,0
296,160,204456,1,0
296,160,204548,1,0
296,160,204639,1,0
240,88,204822,5,0
88,96,205005,1,0
40,240,205188,1,0
128,224,205371,6,0,B|168:256|168:320,1,90
248,352,205737,2,0,B|232:296|264:256,1,90
296,248,206011,1,0
344,248,206103,2,0,B|440:248,1,90
464,160,206469,1,0
384,112,206652,1,0
344,96,206743,1,0
296,96,206835,2,0,B|232:96,4,45
256,176,207383,1,0
216,256,207566,5,0
104,120,207749,1,0
144,296,207932,1,0
184,120,208115,1,0
256,176,208298,5,4
344,168,208481,1,0
416,224,208664,1,0
416,320,208847,2,0,B|384:360,2,45
336,272,209213,1,0
256,312,209396,5,0
256,64,209578,1,0
256,208,209761,5,0
168,216,209944,1,0
96,160,210127,1,0
96,64,210310,2,0,B|128:24,2,45
176,112,210676,1,0
256,64,210859,5,0
440,192,211042,1,0
352,192,211225,6,0,B|320:240|256:240,1,90
192,200,211591,1,0
128,264,211774,1,0
104,224,211865,1,0
104,176,211956,2,0,B|96:120|48:104,2,90
192,200,212505,1,0
216,288,212688,6,0,B|296:248,1,90
472,64,213054,2,0,B|392:104,1,90
304,80,213420,5,4
56,344,213786,1,4
256,240,214152,6,0,B|296:208|360:216,1,90,4|0
475,331,214517,2,0,B|424:320|400:272,1,90
404,280,214792,1,0
404,280,214883,1,0
424,192,215066,1,0
424,104,215249,5,0
256,328,215432,1,0
256,144,215615,6,0,B|216:176|152:168,1,90
36,52,215980,2,0,B|88:64|112:112,1,90
107,103,216255,1,0
107,103,216346,1,0
88,192,216529,1,0
88,280,216712,5,0
336,328,216895,1,0
256,192,217078,6,0,B|256:96,1,90
336,136,217444,2,0,B|384:160|384:208,1,90
384,248,217719,2,0,B|384:304,1,45
472,264,217993,2,0,B|472:216,2,45
472,352,218359,1,0
256,192,218542,12,0,219274
256,192,219456,6,0,B|256:136,2,45
256,280,219822,1,0
136,208,220005,6,0,B|128:144|168:120,1,90,4|0
88,72,220371,2,0,B|128:32|184:40,1,90
216,40,220646,1,0
264,40,220737,1,0
328,104,220920,1,0
256,160,221103,5,0
256,344,221286,1,0
256,256,221469,6,0,B|304:240|352:264,1,90
467,144,221835,2,0,B|472:200|416:232,1,90
431,221,222109,1,0
431,221,222200,1,0
416,312,222383,1,0
416,312,222566,5,0
256,120,222749,1,0
56,200,222932,6,0,B|56:112,1,90
136,144,223298,2,0,B|136:248,1,90
136,280,223572,1,0
136,328,223664,1,0
224,296,223847,1,0
224,208,224030,1,0
304,248,224213,1,0
304,160,224396,6,0,B|320:112|400:120,1,90
384,208,224761,2,0,B|432:232|432:288,1,90
360,336,225127,5,4
256,48,225493,1,4
256,192,225676,12,4,227322
