osu file format v9

[General]
AudioFilename: 05 - Think of You.mp3
AudioLeadIn: 0
PreviewTime: 73670
Countdown: 0
SampleSet: Normal
StackLeniency: 0.7
Mode: 0
LetterboxInBreaks: 0

[Editor]
Bookmarks: 38542
DistanceSpacing: 1
BeatDivisor: 2
GridSize: 8

[Metadata]
Title:Think of You
Artist:Sakaue Nachi
Creator:orioncomet
Version:Easy
Source:Touhou
Tags:Bad Apple DJ Command NJK Record Elly Kite S i R i R u SiRiRu NachoPiggy Rokodo

[Difficulty]
HPDrainRate:1
CircleSize:3
OverallDifficulty:1
ApproachRate:1
SliderMultiplier:0.799999999999999
SliderTickRate:1

[Events]
//Background and Video events
0,0,"thinkofyou.jpg"
//Break Periods
2,97278,107106
2,167522,177350
//Storyboard Layer 0 (Background)
//Storyboard Layer 1 (Fail)
//Storyboard Layer 2 (Pass)
//Storyboard Layer 3 (Foreground)
//Storyboard Sound Samples
//Background Colour Transformations
3,100,0,0,0

[TimingPoints]
1957,365.853658536585,4,1,0,50,1,0

[Colours]
Combo1 : 186,104,253
Combo2 : 255,94,199
Combo3 : 254,166,1
Combo4 : 168,188,27

[HitObjects]
48,336,38542,2,0,B|136:336|176:248,1,160,4|0
256,240,39639,1,0
336,256,40005,2,0,B|373:339|461:339,2,160,8|0|8
360,176,41835,6,0,B|328:112|184:112|152:176,2,240,0|8|0
400,248,44396,6,0,B|368:336|272:352,1,160,4|0
256,272,45493,1,0
256,192,45859,1,8
256,112,46225,1,0
224,40,46591,6,0,B|141:53|109:141,2,160,0|8|0
256,112,48420,1,0
336,136,48786,2,0,B|384:72,1,79.9999999999999,8|0
456,112,49517,2,0,B|408:176,1,79.9999999999999,8|0
400,256,50249,6,0,B|328:280|288:352|224:352|184:280|112:256,3,320,4|4|4|4
256,192,55371,1,4
400,128,56103,6,4,B|328:104|288:32|224:32|184:104|112:128,3,320
256,192,61225,1,0
160,320,61956,6,0,B|72:256|72:192,1,160,8|0
152,192,63054,1,0
72,192,63420,2,0,B|72:128|160:64,1,160,8|0
208,128,64517,1,0
256,64,64883,6,0,B|416:64,1,160,8|0
496,64,65981,1,0
496,144,66347,2,0,B|336:144,1,160,8|0
256,144,67444,1,0
256,224,67810,6,0,B|368:224|408:320|488:320,1,240,4|0
472,240,69274,2,0,B|472:120,2,120,8|0|0
392,240,70737,2,0,B|392:360,2,120,8|0|0
312,240,72200,2,0,B|232:240,1,79.9999999999999,8|0
232,320,72932,2,4,B|152:320,1,79.9999999999999,8|4
72,320,73664,6,0,B|48:280|48:256|48:256|48:232|64:200,2,120,8|0|0
128,256,75127,2,0,B|140:230|140:206|140:206|140:182|116:142,2,120,8|0|0
128,336,76591,6,0,B|248:336,1,120,8|0
328,336,77505,1,0
328,336,77688,1,0
408,336,78054,2,0,B|464:272|400:184|464:96,1,240,8|4
392,56,79517,6,0,B|272:56,2,120,8|0|0
392,136,80981,2,0,B|392:264,2,120,8|0|0
312,136,82444,2,0,B|192:136,2,120,8|0|0
312,216,83908,6,0,B|248:272|168:200|152:240,1,160,8|0
128,304,85005,1,4
80,232,85371,6,0,B|48:200|48:120,2,120,8|0|0
160,232,86835,2,0,B|192:264|192:344,2,120,8|0|0
160,152,88298,6,0,B|256:80,1,120,8|0
336,56,89213,1,0
336,56,89396,1,0
416,56,89761,2,0,B|472:120|408:208|472:296,1,240,8|4
400,336,91225,6,0,B|336:352|280:336,2,120,8|0|0
400,256,92688,2,0,B|400:136,2,120,8|0|0
256,192,94152,12,4,97078
72,336,108786,6,0,B|160:328|176:256|208:256,1,160,8|0
256,320,109883,1,0
304,256,110249,2,0,B|336:256|352:328|440:336,1,160,8|0
437,255,111347,1,0
384,192,111713,6,0,B|384:128|336:128|336:40,1,160,8|0
256,64,112810,1,0
176,64,113176,2,0,B|96:64,1,79.9999999999999,8|0
72,144,113908,2,0,B|152:144,1,79.9999999999999,0|4
184,216,114639,6,0,B|224:248|288:248|336:216,1,160,8|0
408,192,115737,1,0
408,112,116103,1,8
408,192,116469,2,0,B|408:280|480:280|480:344,1,160,0|4
400,344,117566,6,0,B|240:344,2,160,8|0|8
400,264,119396,1,0
328,224,119761,1,8
256,192,120127,1,4
256,112,120493,6,4,B|192:88|160:152|160:152|64:112|8:176|24:240,3,320
184,232,125615,1,4
256,192,125981,1,0
256,272,126347,6,4,B|320:296|352:232|352:232|448:272|504:208|488:144,3,320
328,152,131469,1,4
256,192,131835,1,0
184,232,132200,6,0,B|128:288|48:320,1,160,8|0
8,248,133298,1,0
80,208,133664,2,0,B|72:128|80:48,1,160,8|0
160,48,134761,1,0
160,128,135127,6,0,B|240:136|320:128,1,160,8|0
320,48,136225,1,0
400,48,136591,2,0,B|464:72|464:144,2,120,8|0|4
384,128,138054,6,0,B|392:200|384:288,1,160,8|0
312,328,139152,1,0
232,328,139517,2,0,B|160:328|112:296,2,120,8|0|0
232,248,140981,2,0,B|304:248|352:280,2,120,8|0|0
152,248,142444,2,0,B|72:224,1,79.9999999999999,8|0
112,152,143176,2,0,B|24:128,1,79.9999999999999,8|4
64,56,143908,6,0,B|184:56,2,120,8|0|0
64,136,145371,2,0,B|64:256,2,120,8|0|0
144,136,146835,6,0,B|264:136,2,120,8|0|0
144,216,148298,2,8,B|200:264|312:264|368:216,1,240,8|4
448,216,149761,6,0,B|472:160|456:128|456:96,2,120,8|0|0
368,216,151225,2,0,B|344:272|360:304|360:336,2,120,8|0|0
368,136,152688,6,0,B|336:72|272:72,2,120,8|0|0
312,192,154152,2,0,B|304:280|216:328,1,160,8|0
184,256,155249,1,4
135,315,155615,6,0,B|61:315|32:264,2,120,8|0|0
215,315,157078,2,0,B|289:315|318:264,2,120,8|0|0
176,248,158542,6,0,B|176:128,1,120,8|0
176,48,159456,1,0
176,48,159639,1,0
96,48,160005,2,0,B|48:120|104:208|48:280,1,240,8|4
112,328,161469,6,0,B|200:344|240:328,2,120,8|0|0
152,256,162932,2,0,B|64:240|24:256,2,120,8|0|0
232,256,164396,6,0,B|320:240|360:256,2,120,8|0|0
232,336,165859,2,0,B|288:320|368:352|400:336,1,160,8|0
391,339,166956,1,4
391,339,167322,1,4
160,320,179030,6,0,B|128:264|168:200|168:200|96:192|96:128,1,240,4|0
144,64,180493,2,0,B|200:48|248:80|264:80,2,120,4|0|0
144,144,181956,2,0,B|88:160|40:128|24:128,2,120,4|0|0
224,144,183420,2,0,B|240:208|304:208|344:240,1,160,4|0
424,240,184517,1,0
424,160,184883,6,0,B|424:112|384:80|384:80|320:104|320:104|312:56|264:40,1,240,4|0
240,120,186347,2,0,B|120:120,2,120,4|0|0
256,192,187810,12,0,189274
304,336,190737,6,0,B|416:336|416:232,1,160,8|0
352,192,191835,1,0
416,136,192200,2,0,B|416:47|304:47,1,160,8|0
256,112,193298,5,0
200,48,193664,2,0,B|90:47|91:136,1,160,8|0
152,192,194761,1,0
96,248,195127,2,0,B|80:304|32:352,2,120,8|0|4
40,192,196591,6,0,B|32:112|40:32,1,160,8|0
120,32,197688,1,0
120,112,198054,2,0,B|128:192|120:272,1,160,8|0
40,272,199152,1,0
40,352,199517,6,0,B|112:368|168:336,2,120,8|0|0
40,272,200981,2,0,B|88:208,1,79.9999999999999,8|0
152,256,201713,2,0,B|200:192,1,79.9999999999999,0|4
256,248,202444,6,0,B|296:320|344:320,2,120,4|0|0
256,168,203908,2,0,B|296:96|344:96,2,120,8|0|0
320,216,205371,6,0,B|384:224|440:216,1,120,8|0
440,136,206286,1,0
440,136,206469,1,0
440,56,206835,2,0,B|360:40|280:96|200:56,1,240,8|4
120,48,208298,6,0,B|40:96|56:144,2,120,8|0|0
152,120,209761,2,0,B|232:168|216:216,2,120,8|0|0
120,192,211225,6,0,B|40:240|56:288,2,120,8|0|0
144,272,212688,2,0,B|216:296|272:264|304:264,1,160,8|0
301,264,213786,1,4
376,296,214152,6,0,B|448:288|464:232|480:232,2,120,8|0|0
296,296,215615,2,0,B|224:304|208:360|192:360,2,120,8|0|0
376,296,217078,6,0,B|368:232|376:176,1,120,8|0
456,176,217993,1,0
456,176,218176,1,0
456,96,218542,2,0,B|376:80|296:112|216:96,1,240,8|4
216,176,220005,6,0,B|224:240|160:224|160:272,2,120,8|0|0
288,208,221469,2,0,B|280:144|344:160|344:112,2,120,8|0|0
256,192,222932,12,4,225493
