osu file format v14

[General]
AudioFilename: Crazy Hot.mp3
AudioLeadIn: 0
PreviewTime: 241055
Countdown: 0
SampleSet: Normal
StackLeniency: 0.7
Mode: 0
LetterboxInBreaks: 0
WidescreenStoryboard: 0

[Editor]
DistanceSpacing: 0.7
BeatDivisor: 4
GridSize: 4
TimelineZoom: 3.400001

[Metadata]
Title:Crazy Hot
TitleUnicode:Crazy Hot
Artist:Sakaue Nachi
ArtistUnicode:坂上なち
Creator:Sakaue Nachi
Version:Crazy Night
Source:東方Project
Tags:TOHO EURO FLASH Vol. 2 magus night TH12.8 great fairy wars Marisa Kirisame eurobeat NJK record sjoy kawaiwkyik rizia
BeatmapID:703584
BeatmapSetID:175671

[Difficulty]
HPDrainRate:6.5
CircleSize:4
OverallDifficulty:8
ApproachRate:9.2
SliderMultiplier:1.8
SliderTickRate:1

[Events]
//Background and Video events
0,0,"bg.jpg",0,0
//Break Periods
//Storyboard Layer 0 (Background)
//Storyboard Layer 1 (Fail)
//Storyboard Layer 2 (Pass)
//Storyboard Layer 3 (Foreground)
//Storyboard Sound Samples

[TimingPoints]
1056,370.37037037037,4,1,2,60,1,0
2537,-125,4,1,2,60,0,0
8463,-100,4,1,1,65,0,0
26241,-100,4,1,1,60,0,0
61796,-100,4,1,1,70,0,1
85500,-100,4,1,1,65,0,0
97352,-100,4,1,1,60,0,0
132907,-100,4,1,1,70,0,1
156611,-100,4,1,1,65,0,0
180870,-100,4,1,2,65,0,0
186981,-133.333333333333,4,1,2,65,0,0
187259,-66.6666666666667,4,1,2,65,0,0
187537,-100,4,1,2,65,0,0
204667,-133.333333333333,4,1,2,65,0,0
205130,-66.6666666666667,4,1,2,65,0,0
205500,-100,4,1,1,60,0,0
216611,-100,4,1,2,70,0,0
217352,-100,4,1,1,60,0,0
229204,-100,4,1,2,80,0,0
241055,-100,4,1,1,70,0,1
264018,-66.6666666666667,4,1,1,85,0,0
264759,-76.9230769230769,4,1,1,75,0,1
287907,-62.5,4,1,1,75,0,1
288463,-100,4,1,1,65,0,0
313741,-100,4,1,2,25,0,0

[Colours]
Combo1 : 245,126,130
Combo2 : 242,210,102
Combo3 : 39,216,66

[HitObjects]
64,104,1056,5,0,0:0:0:0:
100,196,1241,1,2,0:0:0:0:
100,196,1333,1,2,0:0:0:0:
100,196,1426,1,10,0:0:0:0:
160,120,1611,1,2,0:0:0:0:
160,120,1704,1,2,0:0:0:0:
160,120,1796,5,10,0:0:0:0:
191,102,1889,1,2,0:0:0:0:
226,96,1981,1,2,0:0:0:0:
261,101,2074,1,2,0:0:0:0:
292,119,2167,1,10,0:0:0:0:
316,146,2259,1,2,0:0:0:0:
329,179,2352,1,2,0:0:0:0:
330,215,2444,1,2,0:0:0:0:
319,249,2537,6,0,P|264:248|220:240,1,72,4|0,0:0|0:0,0:0:0:0:
100,196,2907,2,0,P|135:192|171:192,1,72,8|0,0:0|0:0,0:0:0:0:
340,240,3278,2,0,P|333:288|313:384,1,144,8|8,0:0|0:0,0:0:0:0:
313,381,3833,1,2,0:0:0:0:
448,280,4018,5,8,0:0:0:0:
447,280,4204,2,0,P|431:209|420:138,1,144,8|2,0:0|0:0,0:0:0:0:
460,44,4759,1,8,0:0:0:0:
344,112,4944,1,0,0:0:0:0:
344,112,5037,1,0,0:0:0:0:
344,112,5130,1,8,0:0:0:0:
212,76,5315,1,2,0:0:0:0:
104,160,5500,6,0,L|112:252,1,72,8|0,0:0|0:0,0:0:0:0:
208,184,5870,2,0,L|216:276,1,72,8|0,0:0|0:0,0:0:0:0:
312,208,6241,2,0,P|360:184|436:200,1,108,8|2,0:0|0:0,0:0:0:0:
432,200,6611,2,0,L|448:116,1,72,8|2,0:0|0:0,0:0:0:0:
408,296,6981,5,8,0:0:0:0:
344,356,7167,1,0,0:0:0:0:
344,356,7259,2,0,P|292:348|204:356,1,108,8|0,0:0|0:0,0:0:0:0:
216,356,7630,1,0,0:0:0:0:
196,364,7722,1,8,0:0:0:0:
96,316,7907,1,2,0:0:0:0:
100,288,8000,1,2,0:0:0:0:
104,260,8093,1,10,0:0:0:0:
108,232,8185,1,2,0:0:0:0:
112,204,8278,1,2,0:0:0:0:
208,160,8463,6,0,P|252:176|320:172,1,90,6|0,0:0|0:0,0:0:0:0:
356,64,8833,2,0,P|311:65|269:81,1,90,8|0,0:0|0:0,0:0:0:0:
324,264,9204,1,2,0:0:0:0:
408,192,9389,1,0,0:0:0:0:
208,160,9574,1,8,0:0:0:0:
336,240,9759,1,0,0:0:0:0:
336,240,9852,1,0,0:0:0:0:
336,240,9944,6,0,L|328:356,1,90,2|0,0:0|0:0,0:0:0:0:
208,160,10315,2,0,L|200:276,1,90,8|0,0:0|0:0,0:0:0:0:
392,164,10685,1,2,0:0:0:0:
392,164,10778,1,0,0:0:0:0:
392,164,10870,1,0,0:0:0:0:
272,96,11055,1,8,0:0:0:0:
456,64,11241,1,0,0:0:0:0:
304,168,11426,5,6,0:0:0:0:
432,256,11611,1,2,0:0:0:0:
432,88,11796,1,8,0:0:0:0:
276,192,11981,1,0,0:0:0:0:
484,184,12167,5,6,0:0:0:0:
256,336,12444,1,6,0:0:0:0:
28,184,12722,1,2,0:0:0:0:
28,184,12815,1,0,0:0:0:0:
28,184,12907,5,4,0:0:0:0:
128,272,13093,1,2,0:0:0:0:
252,164,13278,1,8,0:0:0:0:
44,208,13463,1,2,0:0:0:0:
104,56,13648,1,8,0:0:0:0:
204,224,13833,6,0,L|200:292,1,45,2|0,0:0|0:0,0:0:0:0:
108,304,14018,2,0,L|112:372,1,45,10|0,0:0|0:0,0:0:0:0:
248,360,14204,1,0,0:0:0:0:
248,360,14296,1,0,0:0:0:0:
248,360,14389,6,0,L|352:344,1,90,4|2,0:0|0:0,0:0:0:0:
456,280,14759,1,8,0:0:0:0:
460,252,14852,1,0,0:0:0:0:
464,224,14944,2,0,L|476:148,1,45,2|0,0:3|0:0,0:0:0:0:
399,115,15130,2,0,L|392:160,1,45,2|0,0:0|0:0,0:0:0:0:
488,104,15315,2,0,L|500:28,1,45
304,124,15500,2,0,P|256:132|192:124,1,90,8|2,0:0|0:0,0:0:0:0:
64,96,15870,5,2,0:0:0:0:
156,36,16055,1,0,0:0:0:0:
156,36,16148,1,0,0:0:0:0:
156,36,16241,2,0,L|144:116,1,45,8|0,0:0|0:0,0:0:0:0:
80,184,16426,1,2,0:3:0:0:
80,184,16518,1,0,0:0:0:0:
80,184,16611,5,0,0:0:0:0:
124,172,16704,1,0,0:0:0:0:
168,184,16796,1,2,0:0:0:0:
204,212,16889,1,0,0:0:0:0:
216,256,16981,1,10,0:0:0:0:
120,280,17167,1,2,0:3:0:0:
304,348,17352,5,6,0:0:0:0:
280,196,17537,1,2,0:0:0:0:
184,352,17722,2,0,L|128:344,1,45,8|0,0:0|0:0,0:0:0:0:
216,256,17907,2,0,L|272:264,1,45,2|0,0:3|0:0,0:0:0:0:
384,360,18093,1,2,0:0:0:0:
416,328,18185,1,0,0:0:0:0:
428,284,18278,1,2,0:3:0:0:
424,240,18370,1,0,0:0:0:0:
400,200,18463,2,0,L|284:216,1,90,8|2,0:0|0:0,0:0:0:0:
90,138,18833,6,0,P|134:114|202:118,1,90,2|8,0:0|0:0,0:0:0:0:
234,170,19111,2,0,P|232:220|195:276,1,90,2|0,0:0|0:0,0:0:0:0:
134,282,19389,2,0,P|91:255|60:195,1,90,10|8,0:0|0:0,0:0:0:0:
56,180,19667,1,0,0:0:0:0:
76,140,19759,1,2,0:3:0:0:
84,96,19852,1,0,0:0:0:0:
72,52,19944,5,8,0:0:0:0:
108,80,20037,1,0,0:0:0:0:
152,92,20130,1,2,0:3:0:0:
196,92,20222,1,0,0:0:0:0:
236,72,20315,6,0,L|328:60,1,90,4|2,0:0|0:0,0:0:0:0:
448,104,20685,1,8,0:0:0:0:
448,104,20778,2,0,L|432:200,1,90,2|0,0:0|0:0,0:0:0:0:
364,236,21055,1,2,0:3:0:0:
364,236,21148,1,0,0:0:0:0:
364,236,21241,2,0,L|376:316,1,45,2|0,0:0|0:0,0:0:0:0:
276,184,21426,2,0,L|282:139,1,45,8|0,0:0|0:0,0:0:0:0:
216,284,21611,1,2,0:0:0:0:
352,360,21796,5,6,0:0:0:0:
216,284,21981,1,2,0:3:0:0:
216,284,22074,1,0,0:0:0:0:
216,284,22167,1,8,0:0:0:0:
184,268,22259,1,0,0:0:0:0:
148,268,22352,1,2,0:3:0:0:
116,280,22444,1,0,0:0:0:0:
96,308,22537,5,2,0:0:0:0:
100,264,22630,1,0,0:0:0:0:
104,220,22722,1,2,0:0:0:0:
112,176,22815,1,0,0:0:0:0:
116,132,22907,2,0,L|132:0,1,90,10|0,0:0|0:0,0:0:0:0:
288,16,23278,5,6,0:0:0:0:
272,140,23463,1,2,0:0:0:0:
168,68,23648,1,8,0:0:0:0:
168,68,23741,2,0,P|112:52|68:64,1,90
28,124,24018,2,0,L|36:172,1,45,2|0,0:3|0:0,0:0:0:0:
104,220,24204,2,0,L|69:248,1,45,2|0,0:0|0:0,0:0:0:0:
16,352,24389,2,0,L|72:340,1,45,8|0,0:0|0:0,0:0:0:0:
168,276,24574,2,0,L|212:285,1,45,2|0,0:0|0:0,0:0:0:0:
272,344,24759,5,6,0:0:0:0:
436,292,24944,1,0,0:0:0:0:
436,292,25037,1,2,0:0:0:0:
312,176,25222,1,0,0:0:0:0:
312,176,25315,1,2,0:0:0:0:
336,272,25500,1,2,0:0:0:0:
336,272,25593,1,0,0:0:0:0:
336,272,25685,1,0,0:0:0:0:
336,272,25778,1,0,0:0:0:0:
336,272,25870,2,2,L|384:224,1,45,0|2,0:0|0:0,0:0:0:0:
284,80,26055,2,0,L|236:128,1,45
197,178,26241,6,0,B|152:164|152:164|57:185,1,135,4|0,0:0|0:0,0:0:0:0:
59,230,26611,2,0,L|71:323,1,90,8|0,0:0|0:0,0:0:0:0:
369,198,26981,2,0,P|317:189|259:178,1,90,2|0,0:3|0:0,0:0:0:0:
231,250,27259,1,0,0:0:0:0:
231,250,27352,2,0,L|243:343,1,90,8|0,0:0|0:0,0:0:0:0:
280,113,27722,5,0,0:0:0:0:
147,224,27907,1,0,0:0:0:0:
320,282,28093,1,8,0:0:0:0:
165,313,28278,1,0,0:0:0:0:
165,313,28370,1,0,0:0:0:0:
165,313,28463,2,0,P|121:301|54:270,1,90,2|0,0:3|0:0,0:0:0:0:
273,86,28833,1,8,0:0:0:0:
273,86,28926,1,0,0:0:0:0:
273,86,29019,1,0,0:0:0:0:
273,86,29111,1,0,0:0:0:0:
273,86,29204,6,0,P|263:158|258:232,2,135
312,285,29944,1,2,0:3:0:0:
180,181,30130,1,0,0:0:0:0:
340,243,30315,1,8,0:0:0:0:
140,288,30500,1,2,0:3:0:0:
306,161,30685,6,0,P|355:151|409:145,1,90
140,288,31055,1,8,0:0:0:0:
306,161,31241,1,0,0:0:0:0:
140,288,31426,2,0,P|95:282|51:273,1,90,2|0,0:3|0:0,0:0:0:0:
239,93,31796,1,8,0:0:0:0:
335,280,31981,1,0,0:0:0:0:
335,280,32074,1,0,0:0:0:0:
335,280,32167,6,0,P|418:261|489:248,2,135,4|0|0,0:0|0:0|0:0,0:0:0:0:
169,191,32907,2,0,P|166:148|157:86,1,90,2|0,0:3|0:0,0:0:0:0:
109,306,33278,1,8,0:0:0:0:
269,177,33463,1,0,0:0:0:0:
76,137,33648,5,0,0:0:0:0:
222,265,33833,1,0,0:0:0:0:
185,30,34018,1,8,0:0:0:0:
125,204,34204,1,0,0:0:0:0:
125,204,34296,1,0,0:0:0:0:
125,204,34389,1,2,0:3:0:0:
185,30,34574,1,0,0:0:0:0:
338,204,34759,1,8,0:0:0:0:
155,117,34944,1,0,0:0:0:0:
305,277,35130,6,0,P|395:263|414:222,2,135
125,204,35870,2,0,P|132:162|145:116,1,90,2|0,0:3|0:0,0:0:0:0:
367,91,36241,1,8,0:0:0:0:
214,299,36426,1,0,0:0:0:0:
214,299,36518,1,0,0:0:0:0:
214,299,36611,6,0,B|158:288|158:288|98:300|98:300|34:289,1,180,4|8,0:0|0:0,0:0:0:0:
242,139,37167,1,0,0:0:0:0:
304,314,37352,1,2,0:3:0:0:
346,327,37444,1,0,0:0:0:0:
382,300,37537,1,2,0:3:0:0:
392,256,37630,1,0,0:0:0:0:
361,223,37722,1,10,0:3:0:0:
317,211,37815,1,0,0:0:0:0:
272,218,37907,1,2,0:3:0:0:
232,240,38000,1,0,0:0:0:0:
206,276,38093,6,0,P|164:268|111:240,1,90,4|0,0:0|0:0,0:0:0:0:
67,77,38463,2,0,P|109:91|146:116,1,90,8|0,0:0|0:0,0:0:0:0:
197,320,38833,1,2,0:3:0:0:
108,213,39018,1,0,0:0:0:0:
108,213,39111,1,0,0:0:0:0:
108,213,39204,1,8,0:0:0:0:
304,94,39389,1,0,0:0:0:0:
206,276,39574,6,0,P|143:271|110:196,1,135
92,174,39944,2,0,L|109:67,1,90,8|0,0:0|0:0,0:0:0:0:
296,221,40315,2,0,L|308:311,1,90,2|0,0:3|0:0,0:0:0:0:
307,310,40593,1,0,0:0:0:0:
307,310,40685,1,8,0:0:0:0:
129,246,40870,1,0,0:0:0:0:
381,231,41055,5,0,0:0:0:0:
206,179,41241,1,0,0:0:0:0:
365,127,41426,1,8,0:0:0:0:
222,280,41611,1,0,0:0:0:0:
153,78,41796,1,2,0:3:0:0:
282,210,41981,1,0,0:0:0:0:
339,22,42167,1,8,0:0:0:0:
196,196,42352,1,2,0:3:0:0:
196,196,42444,1,0,0:0:0:0:
196,196,42537,6,0,P|150:186|99:172,1,90
351,259,42907,1,8,0:0:0:0:
214,364,43093,1,0,0:0:0:0:
108,174,43278,2,0,P|115:130|127:86,1,90,2|0,0:3|0:0,0:0:0:0:
266,274,43648,1,8,0:0:0:0:
266,274,43741,1,0,0:0:0:0:
266,274,43833,1,0,0:0:0:0:
266,274,43926,1,0,0:0:0:0:
266,274,44018,6,0,P|341:264|424:260,2,135,4|0|0,0:0|0:0|0:0,0:0:0:0:
156,81,44759,1,2,0:3:0:0:
74,312,44944,1,0,0:0:0:0:
74,312,45037,1,0,0:0:0:0:
74,312,45130,1,8,0:0:0:0:
213,210,45315,1,0,0:0:0:0:
19,122,45500,5,0,0:0:0:0:
172,320,45685,1,0,0:0:0:0:
323,67,45870,1,8,0:0:0:0:
138,168,46055,1,0,0:0:0:0:
138,168,46148,1,0,0:0:0:0:
138,168,46241,1,2,0:3:0:0:
81,19,46426,1,0,0:0:0:0:
170,249,46611,1,8,0:0:0:0:
242,56,46796,1,0,0:0:0:0:
101,293,46981,6,0,P|162:334|227:309,2,135
355,111,47722,2,0,P|343:154|336:199,1,90,2|0,0:3|0:0,0:0:0:0:
170,249,48093,1,8,0:0:0:0:
147,47,48278,1,0,0:0:0:0:
147,47,48370,1,0,0:0:0:0:
147,47,48463,5,4,0:0:0:0:
40,224,48648,1,0,0:0:0:0:
147,47,48833,1,8,0:0:0:0:
203,277,49018,1,0,0:0:0:0:
351,61,49204,1,2,0:3:0:0:
351,61,49296,1,0,0:0:0:0:
351,61,49389,2,0,L|330:129,1,45,2|0,0:3|0:0,0:0:0:0:
351,323,49574,2,0,L|330:255,1,45,10|0,0:3|0:0,0:0:0:0:
228,192,49759,2,0,L|175:192,1,45,2|0,0:3|0:0,0:0:0:0:
81,191,49944,5,4,0:0:0:0:
182,318,50130,1,0,0:0:0:0:
350,192,50315,1,8,0:0:0:0:
182,66,50500,1,0,0:0:0:0:
368,203,50685,2,0,P|411:183|451:160,1,90,2|0,0:3|0:0,0:0:0:0:
144,203,51055,2,0,P|101:183|61:160,1,90,8|0,0:0|0:0,0:0:0:0:
268,32,51426,5,0,0:0:0:0:
386,212,51611,1,0,0:0:0:0:
386,212,51704,1,0,0:0:0:0:
386,212,51796,2,0,P|394:263|367:319,1,90,8|0,0:0|0:0,0:0:0:0:
187,130,52167,2,0,P|178:78|205:22,1,90,2|0,0:3|0:0,0:0:0:0:
337,93,52537,1,8,0:0:0:0:
200,239,52722,1,0,0:0:0:0:
200,239,52815,1,0,0:0:0:0:
200,239,52907,5,0,0:0:0:0:
337,93,53093,1,0,0:0:0:0:
409,260,53278,1,8,0:0:0:0:
254,74,53463,1,0,0:0:0:0:
291,271,53648,1,2,0:3:0:0:
415,46,53833,1,0,0:0:0:0:
415,46,53926,1,0,0:0:0:0:
415,46,54018,2,0,L|401:153,1,90,8|0,0:0|0:0,0:0:0:0:
291,271,54389,5,0,0:0:0:0:
478,148,54574,2,0,L|464:255,1,90,0|8,0:0|0:0,0:0:0:0:
254,92,54944,1,0,0:0:0:0:
254,92,55037,1,0,0:0:0:0:
254,92,55130,2,0,L|192:66,1,45,10|0,0:3|0:0,0:0:0:0:
276,187,55315,5,2,0:3:0:0:
276,187,55407,1,0,0:0:0:0:
276,187,55500,2,0,L|234:213,1,45,10|0,0:3|0:0,0:0:0:0:
364,213,55685,6,0,L|368:278,1,45,2|0,0:3|0:0,0:0:0:0:
342,124,55870,5,4,0:0:0:0:
192,156,56055,1,0,0:0:0:0:
281,51,56241,1,8,0:0:0:0:
351,252,56426,1,0,0:0:0:0:
151,200,56611,1,2,0:3:0:0:
342,124,56796,1,0,0:0:0:0:
133,48,56981,1,8,0:0:0:0:
360,8,57167,6,0,P|439:50|414:141,1,180
239,215,57722,2,0,P|194:206|150:199,1,90,8|0,0:0|0:0,0:0:0:0:
26,65,58093,1,2,0:3:0:0:
34,108,58185,1,0,0:0:0:0:
43,152,58278,1,0,0:0:0:0:
208,62,58463,1,8,0:0:0:0:
120,215,58648,1,0,0:0:0:0:
287,141,58833,6,0,P|322:186|296:278,1,135
282,302,59204,2,0,L|192:293,1,90,8|0,0:0|0:0,0:0:0:0:
43,152,59574,1,2,0:3:0:0:
43,152,59759,1,0,0:0:0:0:
219,42,59944,1,8,0:0:0:0:
120,215,60130,1,0,0:0:0:0:
287,141,60315,5,2,0:3:0:0:
51,53,60500,1,2,0:3:0:0:
203,325,60685,1,2,0:3:0:0:
302,57,60870,1,2,0:3:0:0:
32,245,61055,1,12,0:0:0:0:
311,282,61426,6,0,L|366:318,1,45,2|0,0:3|0:0,0:0:0:0:
132,288,61611,2,0,L|77:324,1,45,2|0,0:3|0:0,0:0:0:0:
238,144,61796,6,0,P|306:190|304:293,1,180,6|8,0:0|0:0,0:0:0:0:
311,282,62352,1,2,0:3:0:0:
124,228,62537,2,0,P|119:171|113:119,1,90,2|0,0:0|0:0,0:0:0:0:
112,102,62815,1,0,0:0:0:0:
108,66,62907,1,8,0:0:0:0:
14,162,63093,1,0,0:0:0:0:
240,92,63278,6,0,L|248:191,1,90,2|0,0:0|0:0,0:0:0:0:
159,315,63648,1,8,0:0:0:0:
352,157,63833,1,2,0:3:0:0:
352,157,63926,1,0,0:0:0:0:
352,157,64018,1,0,0:0:0:0:
180,197,64204,1,2,0:0:0:0:
288,313,64389,1,8,0:0:0:0:
387,75,64574,1,2,0:0:0:0:
180,197,64759,6,0,P|132:182|93:161,1,90,6|2,0:0|0:3,0:0:0:0:
332,196,65130,2,0,P|375:184|415:163,1,90,10|2,0:0|0:3,0:0:0:0:
146,99,65500,2,0,P|103:71|72:40,1,90,2|0,0:0|0:0,0:0:0:0:
366,99,65870,2,0,P|408:71|439:40,1,90,10|0,0:0|0:0,0:0:0:0:
483,124,66148,1,0,0:0:0:0:
483,124,66241,6,0,L|501:190,1,45,2|0,0:3|0:0,0:0:0:0:
425,219,66426,2,0,L|415:279,1,45,2|0,0:3|0:0,0:0:0:0:
327,276,66611,2,0,L|266:258,1,45,10|0,0:3|0:0,0:0:0:0:
223,333,66796,2,0,L|151:346,1,45,2|0,0:3|0:0,0:0:0:0:
49,210,66981,5,2,0:3:0:0:
49,210,67074,1,0,0:0:0:0:
49,210,67167,1,2,0:0:0:0:
49,210,67259,1,0,0:0:0:0:
49,210,67352,2,0,L|121:223,1,45,10|0,0:3|0:0,0:0:0:0:
242,151,67537,2,0,L|232:99,1,45,2|0,0:0|0:0,0:0:0:0:
120,28,67722,6,0,L|137:117,1,90,6|0,0:0|0:0,0:0:0:0:
327,276,68093,2,0,L|344:180,1,90,8|2,0:0|0:3,0:0:0:0:
156,274,68463,1,0,0:0:0:0:
231,55,68648,1,0,0:0:0:0:
231,55,68741,1,0,0:0:0:0:
231,55,68833,1,8,0:0:0:0:
411,117,69018,1,0,0:0:0:0:
226,217,69204,6,0,P|179:210|121:198,1,90,2|0,0:0|0:0,0:0:0:0:
105,73,69574,1,8,0:0:0:0:
321,167,69759,1,0,0:0:0:0:
321,167,69852,1,0,0:0:0:0:
321,167,69944,1,0,0:0:0:0:
91,300,70130,1,0,0:0:0:0:
91,300,70222,1,0,0:0:0:0:
91,300,70315,2,0,L|137:277,1,45,8|0,0:0|0:0,0:0:0:0:
184,132,70500,2,0,L|138:155,1,45,2|0,0:0|0:0,0:0:0:0:
234,54,70685,5,2,0:0:0:0:
264,86,70778,1,0,0:0:0:0:
277,128,70870,1,2,0:3:0:0:
265,171,70963,1,0,0:0:0:0:
238,207,71055,2,0,L|258:247,1,45,10|0,0:0|0:0,0:0:0:0:
242,337,71241,2,0,L|298:346,1,45,2|0,0:3|0:0,0:0:0:0:
329,329,71426,1,2,0:0:0:0:
363,300,71518,1,0,0:0:0:0:
376,256,71611,1,2,0:3:0:0:
366,211,71704,1,0,0:0:0:0:
334,178,71796,1,10,0:0:0:0:
289,168,71889,1,0,0:0:0:0:
248,187,71981,1,2,0:3:0:0:
220,222,72074,1,0,0:0:0:0:
207,265,72167,6,0,L|105:243,1,90,6|0,0:0|0:0,0:0:0:0:
0,287,72537,1,8,0:0:0:0:
109,62,72722,1,2,0:3:0:0:
268,291,72907,1,6,0:0:0:0:
294,256,73000,1,0,0:0:0:0:
303,211,73093,1,0,0:0:0:0:
289,168,73185,1,0,0:0:0:0:
259,132,73278,2,0,L|203:114,1,45,10|0,0:3|0:0,0:0:0:0:
384,195,73463,2,0,L|432:181,1,45,2|0,0:3|0:0,0:0:0:0:
331,37,73648,6,0,P|284:25|218:127,1,180,6|8,0:0|0:0,0:0:0:0:
358,284,74204,1,2,0:3:0:0:
431,102,74389,1,2,0:0:0:0:
207,213,74574,1,0,0:0:0:0:
207,213,74667,1,0,0:0:0:0:
207,213,74759,1,8,0:0:0:0:
358,284,74944,1,0,0:0:0:0:
309,97,75130,6,0,L|320:8,1,90,2|0,0:0|0:0,0:0:0:0:
136,310,75500,2,0,L|254:283,1,90,8|2,0:0|0:3,0:0:0:0:
258,279,75778,1,0,0:0:0:0:
292,271,75870,1,0,0:0:0:0:
342,167,76055,1,0,0:0:0:0:
220,370,76241,1,8,0:0:0:0:
333,145,76426,1,0,0:0:0:0:
172,318,76611,6,0,P|126:309|62:300,1,90,6|2,0:0|0:3,0:0:0:0:
302,136,76981,2,0,P|347:129|411:116,1,90,10|2,0:0|0:3,0:0:0:0:
150,89,77352,1,2,0:0:0:0:
258,279,77537,1,2,0:3:0:0:
333,32,77722,1,10,0:0:0:0:
74,118,77907,1,2,0:3:0:0:
74,118,78000,1,0,0:0:0:0:
74,118,78093,6,0,L|79:175,1,45,2|0,0:0|0:0,0:0:0:0:
181,225,78278,2,0,L|175:150,1,45
41,95,78463,2,0,L|46:147,1,45,10|0,0:0|0:0,0:0:0:0:
222,251,78648,2,0,L|218:189,1,45,2|0,0:0|0:0,0:0:0:0:
282,334,78833,5,2,0:3:0:0:
282,334,78926,1,0,0:0:0:0:
282,334,79018,1,2,0:3:0:0:
282,334,79111,1,0,0:0:0:0:
282,334,79204,2,0,L|345:318,1,45,10|0,0:3|0:3,0:3:0:0:
111,185,79389,2,0,L|115:236,1,45,2|0,0:3|0:3,0:3:0:0:
255,189,79574,6,0,L|241:9,1,180,6|8,0:0|0:0,0:0:0:0:
149,269,80130,1,2,0:3:0:0:
347,145,80315,1,0,0:0:0:0:
195,354,80500,1,0,0:0:0:0:
266,105,80685,1,8,0:0:0:0:
77,311,80870,1,0,0:0:0:0:
339,240,81055,5,2,0:0:0:0:
339,240,81148,1,0,0:0:0:0:
339,240,81241,2,0,L|450:215,1,90,0|8,0:0|0:0,0:0:0:0:
353,35,81611,1,2,0:3:0:0:
222,220,81796,2,0,P|182:213|124:187,1,90,0|0,0:0|0:0,0:0:0:0:
159,352,82167,1,8,0:0:0:0:
291,159,82352,1,0,0:0:0:0:
81,306,82537,5,6,0:0:0:0:
62,264,82630,1,0,0:0:0:0:
65,219,82722,1,2,0:3:0:0:
89,180,82815,1,0,0:0:0:0:
125,154,82907,2,0,L|170:169,1,45,10|0,0:0|0:0,0:0:0:0:
237,302,83093,2,0,L|287:286,1,45,2|0,0:3|0:0,0:0:0:0:
433,181,83278,5,2,0:0:0:0:
433,181,83370,1,0,0:0:0:0:
433,181,83463,1,0,0:0:0:0:
433,181,83555,1,0,0:0:0:0:
433,181,83648,2,0,L|365:169,1,45,10|0,0:0|0:0,0:0:0:0:
163,251,83833,2,0,L|231:263,1,45,0|0,0:0|0:0,0:0:0:0:
291,159,84018,5,4,0:0:0:0:
350,325,84204,1,2,0:0:0:0:
263,83,84389,1,8,0:0:0:0:
159,352,84574,1,2,0:0:0:0:
374,115,84759,1,2,0:3:0:0:
374,115,84852,1,0,0:0:0:0:
374,115,84944,1,2,0:3:0:0:
374,115,85037,1,0,0:0:0:0:
374,115,85130,1,10,0:3:0:0:
374,115,85222,1,0,0:0:0:0:
374,115,85315,1,2,0:3:0:0:
374,115,85407,1,0,0:0:0:0:
374,115,85500,6,0,L|472:103,1,90,4|2,0:0|0:0,0:0:0:0:
314,272,85870,1,8,0:0:0:0:
314,272,85963,2,0,P|265:263|190:255,1,90,2|0,0:0|0:0,0:0:0:0:
187,282,86241,1,2,0:3:0:0:
143,290,86333,1,0,0:0:0:0:
103,267,86426,1,2,0:0:0:0:
80,222,86518,1,0,0:0:0:0:
88,177,86611,2,0,P|104:135|128:96,1,90,8|2,0:0|0:0,0:0:0:0:
314,28,86981,5,2,0:0:0:0:
166,206,87167,1,0,0:0:0:0:
166,206,87259,1,0,0:0:0:0:
166,206,87352,2,0,L|219:192,1,45,8|0,0:0|0:0,0:0:0:0:
314,272,87537,2,0,L|374:280,1,45,2|0,0:3|0:0,0:0:0:0:
402,266,87722,1,2,0:0:0:0:
429,230,87815,1,0,0:0:0:0:
429,185,87907,1,2,0:0:0:0:
407,145,88000,1,0,0:0:0:0:
365,126,88093,2,0,L|248:148,1,90,10|0,0:0|0:0,0:0:0:0:
185,295,88463,5,6,0:0:0:0:
64,110,88648,1,2,0:0:0:0:
274,309,88833,1,8,0:0:0:0:
274,309,88926,2,0,L|370:280,1,90,2|0,0:0|0:0,0:0:0:0:
402,266,89204,1,0,0:0:0:0:
357,260,89296,1,0,0:0:0:0:
317,237,89389,1,2,0:0:0:0:
304,193,89481,1,0,0:0:0:0:
306,147,89574,2,0,L|332:57,1,90,8|2,0:0|0:0,0:0:0:0:
64,110,89944,6,0,L|91:255,1,135,2|2,0:0|0:0,0:0:0:0:
185,322,90315,2,0,L|304:304,1,90,8|0,0:0|0:0,0:0:0:0:
176,67,90685,2,0,L|164:114,1,45,2|0,0:3|0:0,0:0:0:0:
336,67,90870,2,0,L|348:114,1,45,2|0,0:3|0:0,0:0:0:0:
348,155,91055,1,10,0:3:0:0:
335,198,91148,1,0,0:0:0:0:
307,233,91241,1,2,0:3:0:0:
265,249,91333,1,0,0:0:0:0:
220,244,91426,6,0,L|105:201,1,90,4|2,0:0|0:0,0:0:0:0:
417,102,91796,1,8,0:0:0:0:
417,102,91889,2,0,L|427:211,1,90,2|0,0:0|0:0,0:0:0:0:
401,230,92167,1,0,0:0:0:0:
361,250,92259,1,0,0:0:0:0:
316,240,92352,1,2,0:0:0:0:
288,204,92444,1,0,0:0:0:0:
287,158,92537,1,8,0:0:0:0:
483,256,92722,1,2,0:0:0:0:
324,67,92907,5,6,0:0:0:0:
361,250,93093,1,2,0:3:0:0:
327,279,93185,1,0,0:0:0:0:
283,289,93278,1,8,0:0:0:0:
238,283,93370,1,0,0:0:0:0:
200,258,93463,1,2,0:3:0:0:
182,216,93555,1,0,0:0:0:0:
176,171,93648,2,0,L|126:179,1,45,2|0,0:0|0:0,0:0:0:0:
14,254,93833,2,0,L|95:275,1,45,2|0,0:0|0:0,0:0:0:0:
184,346,94018,2,0,P|191:301|204:240,1,90,10|0,0:0|0:0,0:0:0:0:
385,120,94389,5,6,0:0:0:0:
283,289,94574,1,2,0:0:0:0:
230,45,94759,1,8,0:0:0:0:
230,45,94852,2,0,L|255:173,1,90,2|0,0:0|0:0,0:0:0:0:
266,174,95130,1,0,0:0:0:0:
306,192,95222,1,0,0:0:0:0:
351,194,95315,1,2,0:0:0:0:
392,177,95407,1,0,0:0:0:0:
415,138,95500,1,8,0:0:0:0:
369,329,95685,1,2,0:0:0:0:
326,96,95870,5,6,0:0:0:0:
218,304,96055,1,0,0:0:0:0:
218,304,96148,1,2,0:0:0:0:
218,304,96241,1,8,0:0:0:0:
351,194,96426,1,2,0:0:0:0:
196,143,96611,6,0,L|251:134,3,45,2|0|0|0,0:0|0:0|0:0|0:0,0:0:0:0:
351,194,96981,2,0,L|301:247,1,45,10|0,0:0|0:0,0:0:0:0:
124,252,97167,1,0,0:0:0:0:
124,252,97259,1,0,0:0:0:0:
124,252,97352,6,0,P|70:266|23:188,1,135,4|0,0:0|0:0,0:0:0:0:
17,168,97722,2,0,P|25:121|35:76,1,90,8|0,0:0|0:0,0:0:0:0:
220,209,98093,1,2,0:3:0:0:
182,72,98278,1,0,0:0:0:0:
124,252,98463,1,8,0:0:0:0:
283,130,98648,1,0,0:0:0:0:
86,51,98833,5,0,0:0:0:0:
176,239,99018,1,0,0:0:0:0:
176,239,99111,1,0,0:0:0:0:
176,239,99204,2,0,L|301:222,1,90,8|0,0:0|0:0,0:0:0:0:
457,109,99574,2,0,L|362:93,1,90,2|0,0:3|0:0,0:0:0:0:
323,86,99852,1,0,0:0:0:0:
323,86,99944,1,8,0:0:0:0:
176,239,100130,1,0,0:0:0:0:
267,7,100315,6,0,P|274:49|278:96,1,90
92,293,100685,2,0,P|98:251|109:191,1,90,8|0,0:0|0:0,0:0:0:0:
323,86,101055,1,2,0:3:0:0:
176,239,101241,1,0,0:0:0:0:
407,185,101426,1,8,0:0:0:0:
189,56,101611,1,0,0:0:0:0:
308,260,101796,6,0,L|314:357,1,90
176,239,102167,1,8,0:0:0:0:
323,86,102352,1,0,0:0:0:0:
176,239,102537,1,2,0:3:0:0:
130,235,102630,1,0,0:0:0:0:
90,215,102722,1,2,0:3:0:0:
70,174,102815,1,0,0:0:0:0:
69,129,102907,2,0,L|14:151,1,45,10|0,0:3|0:0,0:0:0:0:
189,56,103093,2,0,L|250:77,1,45,10|0,0:3|0:0,0:0:0:0:
211,167,103278,6,0,P|179:208|199:288,2,135,4|0|0,0:0|0:0|0:0,0:0:0:0:
345,334,104018,2,0,P|377:293|357:213,2,135,2|0|0,0:3|0:0|0:0,0:0:0:0:
154,371,104759,5,0,0:0:0:0:
304,268,104944,1,0,0:0:0:0:
142,130,105130,1,8,0:0:0:0:
190,277,105315,1,0,0:0:0:0:
190,277,105407,1,0,0:0:0:0:
190,277,105500,1,2,0:3:0:0:
303,161,105685,1,0,0:0:0:0:
88,235,105870,1,8,0:0:0:0:
329,150,106055,1,0,0:0:0:0:
189,363,106241,6,0,P|182:288|174:223,1,135
128,193,106611,2,0,P|90:205|30:230,1,90,8|0,0:0|0:0,0:0:0:0:
208,66,106981,1,2,0:3:0:0:
301,230,107167,1,0,0:0:0:0:
301,230,107259,1,0,0:0:0:0:
301,230,107352,2,0,P|309:283|313:335,1,90,8|0,0:0|0:0,0:0:0:0:
195,236,107722,5,4,0:0:0:0:
330,80,107907,1,0,0:0:0:0:
153,240,108093,1,8,0:0:0:0:
364,70,108278,1,0,0:0:0:0:
250,325,108463,1,2,0:3:0:0:
250,325,108555,1,0,0:0:0:0:
250,325,108648,1,2,0:3:0:0:
250,325,108741,1,0,0:0:0:0:
250,325,108833,1,10,0:3:0:0:
250,325,108926,1,0,0:0:0:0:
250,325,109018,1,2,0:3:0:0:
250,325,109111,1,0,0:0:0:0:
250,325,109204,6,0,L|128:313,1,90,4|0,0:0|0:0,0:0:0:0:
31,177,109574,2,0,P|47:134|66:94,1,90,8|0,0:0|0:0,0:0:0:0:
273,225,109944,1,2,0:3:0:0:
234,39,110130,1,0,0:0:0:0:
149,240,110315,1,8,0:0:0:0:
323,132,110500,1,0,0:0:0:0:
122,32,110685,5,0,0:0:0:0:
273,225,110870,1,0,0:0:0:0:
273,225,110963,1,0,0:0:0:0:
273,225,111055,2,0,P|326:213|391:200,1,90,8|0,0:0|0:0,0:0:0:0:
437,83,111426,1,2,0:3:0:0:
197,287,111611,1,0,0:0:0:0:
197,287,111704,1,0,0:0:0:0:
197,287,111796,2,0,L|92:268,1,90,8|0,0:0|0:0,0:0:0:0:
300,93,112167,5,0,0:0:0:0:
346,293,112352,1,0,0:0:0:0:
346,293,112444,1,0,0:0:0:0:
346,293,112537,1,8,0:0:0:0:
184,171,112722,1,0,0:0:0:0:
326,325,112907,1,2,0:3:0:0:
452,141,113093,1,0,0:0:0:0:
311,352,113278,1,8,0:0:0:0:
218,95,113463,1,2,0:3:0:0:
362,259,113648,6,0,P|410:242|452:229,1,90
136,239,114018,1,8,0:0:0:0:
347,100,114204,1,0,0:0:0:0:
119,249,114389,2,0,L|11:217,1,90,2|0,0:3|0:0,0:0:0:0:
313,290,114759,1,8,0:0:0:0:
350,264,114852,1,0,0:0:0:0:
368,223,114944,1,0,0:0:0:0:
370,177,115037,1,0,0:0:0:0:
351,135,115130,6,0,L|494:163,2,135,4|0|0,0:0|0:0|0:0,0:0:0:0:
165,251,115870,2,0,L|25:268,2,135,2|0|0,0:3|0:0|0:0,0:0:0:0:
344,58,116611,5,0,0:0:0:0:
344,58,116796,1,0,0:0:0:0:
403,280,116981,1,8,0:0:0:0:
261,160,117167,1,0,0:0:0:0:
261,160,117259,1,0,0:0:0:0:
261,160,117352,1,2,0:3:0:0:
165,280,117537,1,0,0:0:0:0:
363,183,117722,1,8,0:0:0:0:
103,97,117907,1,0,0:0:0:0:
103,97,118000,1,0,0:0:0:0:
103,97,118093,6,0,B|116:146|116:146|100:229,1,135
89,269,118463,2,0,L|0:252,1,90,8|0,0:0|0:0,0:0:0:0:
261,160,118833,1,2,0:3:0:0:
239,348,119018,1,0,0:0:0:0:
239,348,119111,1,0,0:0:0:0:
239,348,119204,1,0,0:0:0:0:
363,183,119389,1,0,0:0:0:0:
169,38,119574,5,4,0:0:0:0:
253,216,119759,1,0,0:0:0:0:
70,220,119944,1,8,0:0:0:0:
254,106,120130,1,0,0:0:0:0:
306,308,120315,1,2,0:3:0:0:
306,308,120407,1,0,0:0:0:0:
306,308,120500,2,0,L|241:296,1,45,2|0,0:3|0:0,0:0:0:0:
408,135,120685,2,0,L|392:177,1,45,10|0,0:3|0:0,0:0:0:0:
297,224,120870,2,0,L|232:212,1,45,2|0,0:3|0:0,0:0:0:0:
143,194,121055,5,4,0:0:0:0:
289,70,121241,1,0,0:0:0:0:
389,222,121426,1,8,0:0:0:0:
170,278,121611,1,0,0:0:0:0:
117,92,121796,1,2,0:3:0:0:
176,299,121981,1,0,0:0:0:0:
353,137,122167,1,8,0:0:0:0:
161,188,122352,1,0,0:0:0:0:
161,188,122444,1,0,0:0:0:0:
161,188,122537,6,0,L|170:284,1,90
239,86,122907,1,8,0:0:0:0:
89,253,123093,1,0,0:0:0:0:
289,161,123278,1,2,0:3:0:0:
328,182,123370,1,0,0:0:0:0:
350,221,123463,1,0,0:0:0:0:
357,265,123555,1,0,0:0:0:0:
349,309,123648,1,8,0:0:0:0:
246,262,123833,1,0,0:0:0:0:
408,101,124018,5,0,0:0:0:0:
183,190,124204,1,0,0:0:0:0:
357,265,124389,1,8,0:0:0:0:
183,190,124574,1,0,0:0:0:0:
386,23,124759,1,2,0:3:0:0:
183,190,124944,1,0,0:0:0:0:
183,190,125037,1,0,0:0:0:0:
183,190,125130,2,0,L|191:289,1,90,8|0,0:0|0:0,0:0:0:0:
391,128,125500,5,4,0:0:0:0:
391,128,125685,2,0,L|324:112,1,45
237,216,125870,1,8,0:0:0:0:
142,40,126055,2,0,L|150:85,1,45
90,174,126241,2,0,L|0:167,1,90,2|0,0:3|0:0,0:0:0:0:
288,243,126611,2,0,L|416:252,1,90,8|0,0:0|0:0,0:0:0:0:
225,38,126981,5,4,0:0:0:0:
391,128,127167,1,0,0:0:0:0:
204,180,127352,1,8,0:0:0:0:
386,156,127537,1,0,0:0:0:0:
230,309,127722,1,2,0:3:0:0:
392,178,127907,1,0,0:0:0:0:
170,102,128093,1,8,0:0:0:0:
281,333,128278,6,0,P|371:337|407:257,1,180
170,102,128833,1,8,0:0:0:0:
330,270,129018,2,0,L|310:209,1,45
145,229,129204,1,2,0:3:0:0:
145,229,129389,2,0,L|163:164,1,45
39,295,129574,2,0,L|73:185,1,90,8|0,0:0|0:0,0:0:0:0:
383,40,129944,6,0,P|394:80|403:152,1,90
213,306,130315,2,0,P|219:261|231:218,1,90,8|0,0:0|0:0,0:0:0:0:
395,279,130685,1,2,0:3:0:0:
223,56,130870,1,0,0:0:0:0:
145,229,131055,1,8,0:0:0:0:
343,147,131241,1,0,0:0:0:0:
343,147,131333,1,0,0:0:0:0:
343,147,131426,5,6,0:3:0:0:
128,53,131611,1,10,0:3:0:0:
325,242,131796,1,10,0:3:0:0:
54,299,131981,1,10,0:3:0:0:
249,81,132167,2,0,L|231:133,1,45,8|0,0:0|0:0,0:0:0:0:
109,191,132352,2,0,L|128:265,1,45,8|0,0:0|0:0,0:0:0:0:
208,219,132537,1,8,0:0:0:0:
252,214,132630,1,0,0:0:0:0:
294,229,132722,1,0,0:0:0:0:
326,260,132815,1,0,0:0:0:0:
342,302,132907,6,0,L|445:281,1,90,6|0,0:0|0:0,0:0:0:0:
510,41,133278,2,0,P|498:81|478:161,1,90,8|2,0:0|0:3,0:0:0:0:
326,260,133648,1,2,0:0:0:0:
310,94,133833,1,0,0:0:0:0:
310,94,133926,1,0,0:0:0:0:
310,94,134018,1,8,0:0:0:0:
330,286,134204,1,0,0:0:0:0:
162,208,134389,5,2,0:0:0:0:
123,185,134481,1,0,0:0:0:0:
77,185,134574,1,0,0:0:0:0:
36,204,134667,1,0,0:0:0:0:
9,239,134759,1,8,0:0:0:0:
139,56,134944,1,2,0:3:0:0:
193,240,135130,2,0,P|236:226|296:216,1,90
417,76,135500,1,8,0:0:0:0:
330,286,135685,1,0,0:0:0:0:
496,149,135870,6,0,L|506:239,1,90,6|2,0:0|0:3,0:0:0:0:
280,94,136241,2,0,L|296:5,1,90,10|2,0:0|0:3,0:0:0:0:
123,286,136611,1,2,0:0:0:0:
287,174,136796,1,0,0:0:0:0:
74,88,136981,1,8,0:0:0:0:
219,278,137167,1,2,0:0:0:0:
219,278,137259,1,0,0:0:0:0:
219,278,137352,6,0,L|276:258,1,45
280,94,137537,2,0,L|336:110,1,45,2|0,0:0|0:0,0:0:0:0:
364,124,137722,1,8,0:0:0:0:
386,162,137815,1,0,0:0:0:0:
388,206,137907,1,2,0:0:0:0:
373,248,138000,1,0,0:0:0:0:
333,270,138093,1,2,0:3:0:0:
288,264,138185,1,0,0:0:0:0:
256,231,138278,1,2,0:3:0:0:
253,186,138370,1,0,0:0:0:0:
272,144,138463,2,0,L|258:97,1,45,10|0,0:3|0:0,0:0:0:0:
145,35,138648,2,0,L|159:82,1,45,2|0,0:3|0:0,0:0:0:0:
234,215,138833,6,0,P|332:199|348:122,1,180,6|8,0:0|0:0,0:0:0:0:
145,35,139389,1,2,0:3:0:0:
183,292,139574,1,0,0:0:0:0:
272,144,139759,1,0,0:0:0:0:
272,144,139852,1,0,0:0:0:0:
272,144,139944,1,8,0:0:0:0:
86,207,140130,1,0,0:0:0:0:
301,325,140315,6,0,L|286:215,1,90,2|0,0:0|0:0,0:0:0:0:
204,93,140685,1,8,0:0:0:0:
400,347,140870,2,0,L|385:237,1,90
184,357,141241,1,0,0:0:0:0:
250,104,141426,2,0,L|277:155,1,45,2|0,0:3|0:0,0:0:0:0:
354,260,141611,2,0,L|293:279,1,45,2|0,0:3|0:0,0:0:0:0:
369,154,141796,6,0,P|389:119|415:77,1,90,6|2,0:0|0:3,0:0:0:0:
474,141,142074,1,0,0:0:0:0:
474,141,142167,2,0,P|480:159|485:186,1,45,10|0,0:0|0:0,0:0:0:0:
397,272,142352,2,0,L|334:254,1,45,2|0,0:3|0:0,0:0:0:0:
311,273,142537,1,2,0:0:0:0:
277,303,142630,1,0,0:0:0:0:
238,326,142722,1,0,0:0:0:0:
192,323,142815,1,0,0:0:0:0:
154,298,142907,1,10,0:0:0:0:
138,255,143000,1,0,0:0:0:0:
151,211,143093,1,0,0:0:0:0:
187,185,143185,1,0,0:0:0:0:
232,181,143278,5,6,0:0:0:0:
344,349,143463,1,0,0:0:0:0:
415,128,143648,1,8,0:0:0:0:
219,253,143833,1,0,0:0:0:0:
415,333,144018,1,6,0:0:0:0:
440,296,144111,1,0,0:0:0:0:
454,253,144204,1,2,0:3:0:0:
454,208,144296,1,0,0:0:0:0:
441,165,144389,1,10,0:3:0:0:
415,128,144481,1,0,0:0:0:0:
380,101,144574,1,2,0:3:0:0:
338,85,144667,1,0,0:0:0:0:
294,94,144759,6,0,L|180:122,1,90,6|0,0:0|0:0,0:0:0:0:
57,269,145130,2,0,P|46:225|33:182,1,90,8|2,0:0|0:3,0:0:0:0:
153,317,145500,1,2,0:0:0:0:
239,125,145685,1,0,0:0:0:0:
239,125,145778,1,0,0:0:0:0:
239,125,145870,1,8,0:0:0:0:
306,275,146055,1,0,0:0:0:0:
111,185,146241,6,0,L|126:96,1,90,2|0,0:0|0:0,0:0:0:0:
358,66,146611,1,8,0:0:0:0:
200,213,146796,1,2,0:3:0:0:
200,213,146889,1,0,0:0:0:0:
200,213,146981,1,0,0:0:0:0:
431,223,147167,2,0,L|378:207,1,45
467,117,147352,2,0,L|511:110,1,45,8|0,0:0|0:0,0:0:0:0:
358,66,147537,2,0,L|327:104,1,45
200,213,147722,6,0,L|184:122,1,90,6|2,0:0|0:3,0:0:0:0:
343,272,148093,2,0,L|326:397,1,90,10|2,0:0|0:3,0:0:0:0:
263,113,148463,1,2,0:0:0:0:
431,223,148648,1,0,0:0:0:0:
190,312,148833,1,8,0:0:0:0:
351,121,149018,1,2,0:0:0:0:
351,121,149111,1,0,0:0:0:0:
351,121,149204,6,0,L|359:166,1,45
259,259,149389,2,0,L|251:214,1,45,2|0,0:0|0:0,0:0:0:0:
230,174,149574,1,8,0:0:0:0:
185,164,149667,1,0,0:0:0:0:
141,176,149759,1,2,0:0:0:0:
106,205,149852,1,0,0:0:0:0:
94,248,149944,1,2,0:3:0:0:
102,292,150037,1,0,0:0:0:0:
132,325,150130,1,2,0:3:0:0:
173,340,150222,1,0,0:0:0:0:
217,334,150315,2,0,L|278:319,1,45,10|0,0:0|0:0,0:0:0:0:
388,263,150500,2,0,L|330:249,1,45
215,109,150685,6,0,P|208:153|202:204,1,90,6|0,0:0|0:0,0:0:0:0:
326,363,151055,1,8,0:0:0:0:
391,125,151241,1,2,0:3:0:0:
203,199,151426,1,0,0:0:0:0:
388,263,151611,1,0,0:0:0:0:
388,263,151704,1,0,0:0:0:0:
388,263,151796,1,8,0:0:0:0:
301,37,151981,1,0,0:0:0:0:
203,199,152167,6,0,L|159:187,1,45,2|0,0:0|0:0,0:0:0:0:
285,296,152352,2,0,L|302:251,1,45
255,117,152537,1,8,0:0:0:0:
117,292,152722,2,0,L|127:381,1,90,2|0,0:3|0:0,0:0:0:0:
285,296,153093,1,0,0:0:0:0:
113,163,153278,1,8,0:0:0:0:
202,352,153463,1,0,0:0:0:0:
426,247,153648,5,2,0:0:0:0:
390,220,153741,1,0,0:0:0:0:
346,211,153833,1,2,0:3:0:0:
303,221,153926,1,0,0:0:0:0:
267,248,154018,1,10,0:0:0:0:
247,288,154111,1,0,0:0:0:0:
244,333,154204,1,2,0:3:0:0:
262,373,154296,1,0,0:0:0:0:
303,388,154389,1,2,0:0:0:0:
346,377,154481,1,0,0:0:0:0:
375,344,154574,1,2,0:3:0:0:
380,299,154667,1,0,0:0:0:0:
359,260,154759,1,10,0:0:0:0:
337,221,154852,1,0,0:0:0:0:
337,177,154944,1,2,0:3:0:0:
359,137,155037,1,0,0:0:0:0:
399,118,155130,5,6,0:0:0:0:
501,256,155315,1,0,0:0:0:0:
247,173,155500,1,8,0:0:0:0:
477,47,155685,1,0,0:0:0:0:
296,315,155870,1,6,0:0:0:0:
255,334,155963,1,0,0:0:0:0:
210,336,156055,1,2,0:3:0:0:
168,321,156148,1,0,0:0:0:0:
135,291,156241,1,10,0:3:0:0:
116,251,156333,1,0,0:0:0:0:
113,206,156426,1,2,0:3:0:0:
128,164,156518,1,0,0:0:0:0:
160,132,156611,6,0,L|38:148,1,90,6|0,0:0|0:0,0:0:0:0:
344,94,156981,1,8,0:0:0:0:
344,94,157074,1,0,0:0:0:0:
344,94,157167,2,0,L|243:82,1,90,2|2,3:0|0:0,0:0:0:0:
383,233,157537,1,2,0:3:0:0:
383,233,157630,1,0,0:0:0:0:
383,233,157722,2,0,L|478:218,1,90,8|0,0:0|0:0,0:0:0:0:
227,297,158093,5,2,0:0:0:0:
233,318,158185,1,0,0:0:0:0:
238,339,158278,1,2,0:3:0:0:
125,260,158463,1,8,0:0:0:0:
131,281,158555,1,0,0:0:0:0:
136,302,158648,1,2,0:3:0:0:
16,212,158833,1,0,0:0:0:0:
22,233,158926,1,0,0:0:0:0:
30,257,159018,2,0,L|44:308,1,45,2|0,0:3|0:0,0:0:0:0:
136,302,159204,2,0,L|150:353,1,45,2|0,0:3|0:0,0:0:0:0:
238,339,159389,2,0,L|252:390,1,45,2|0,0:3|0:0,0:0:0:0:
332,286,159574,6,0,P|379:272|430:230,1,90,2|2,0:0|3:0,0:0:0:0:
274,135,159944,2,0,P|238:101|176:78,1,90,10|2,0:0|3:0,0:0:0:0:
144,213,160315,2,0,P|132:260|143:325,1,90,2|2,0:0|3:0,0:0:0:0:
55,192,160685,2,0,L|18:141,1,45,10|0,0:0|2:0,0:0:0:0:
90,98,160870,2,0,L|127:149,1,45,2|0,0:0|2:0,0:0:0:0:
196,94,161055,5,0,0:0:0:0:
236,73,161148,1,0,0:0:0:0:
280,68,161241,2,0,L|351:68,1,45,2|0,0:3|0:0,0:0:0:0:
335,187,161426,5,0,0:0:0:0:
375,207,161518,1,0,0:0:0:0:
399,245,161611,2,0,L|431:303,1,45,2|0,0:3|0:0,0:0:0:0:
223,228,161796,5,0,0:0:0:0:
218,272,161889,1,0,0:0:0:0:
194,310,161981,2,0,L|162:371,1,45,2|0,0:3|2:0,0:0:0:0:
111,245,162167,2,0,L|74:194,1,45,10|0,0:0|2:0,0:0:0:0:
223,228,162352,2,0,L|260:279,1,45,2|0,0:0|2:0,0:0:0:0:
335,187,162537,6,0,L|274:98,1,90,4|0,0:0|0:0,0:0:0:0:
472,109,162907,2,0,L|506:25,1,90,10|2,0:0|0:3,0:0:0:0:
342,101,163278,2,0,P|327:145|353:213,1,90,2|2,0:0|0:3,0:0:0:0:
348,229,163555,1,0,0:0:0:0:
368,269,163648,2,0,L|422:274,1,45,10|0,0:0|0:0,0:0:0:0:
268,296,163833,2,0,L|215:287,1,45,2|0,0:3|0:0,0:0:0:0:
114,269,164018,6,0,P|121:312|101:378,1,90,2|0,0:0|0:0,0:0:0:0:
212,350,164296,2,0,P|254:341|322:363,1,90,2|0,0:0|0:0,0:0:0:0:
400,357,164574,2,0,P|391:313|398:269,1,90,2|2,0:0|0:0,0:0:0:0:
316,127,164944,2,0,L|356:61,2,45
182,163,165315,1,2,0:3:0:0:
139,175,165407,1,0,0:0:0:0:
94,170,165500,6,0,P|40:160|-8:169,1,90,2|0,0:0|0:0,0:0:0:0:
139,47,165870,2,0,P|193:57|241:48,1,90,10|0,0:0|0:0,0:0:0:0:
384,101,166241,1,2,0:0:0:0:
422,78,166333,1,0,0:0:0:0:
467,81,166426,1,2,0:3:0:0:
501,109,166518,1,0,0:0:0:0:
508,153,166611,1,10,0:0:0:0:
487,193,166704,1,0,0:0:0:0:
446,212,166796,1,2,0:3:0:0:
401,202,166889,1,0,0:0:0:0:
364,175,166981,6,0,P|317:165|254:180,1,90,6|2,0:0|0:3,0:0:0:0:
231,181,167259,1,0,0:0:0:0:
190,200,167352,2,0,P|142:211|88:206,1,90,0|2,0:0|0:3,0:0:0:0:
58,195,167630,1,0,0:0:0:0:
19,172,167722,2,0,P|6:223|11:289,1,90,2|2,0:0|0:3,0:0:0:0:
25,300,168000,1,0,0:0:0:0:
62,324,168093,1,0,0:0:0:0:
105,332,168185,1,0,0:0:0:0:
149,325,168278,1,0,0:0:0:0:
189,306,168370,1,0,0:0:0:0:
232,293,168463,6,0,P|278:289|350:314,1,90,6|4,0:0|0:0,0:0:0:0:
366,175,168833,2,0,L|379:120,1,45,2|2,0:0|0:0,0:0:0:0:
292,129,169018,2,0,L|268:26,1,90,2|2,0:3|0:0,0:0:0:0:
177,138,169389,1,2,0:3:0:0:
154,165,169481,1,0,0:0:0:0:
131,193,169574,2,0,L|56:283,1,90,10|0,0:0|0:0,0:0:0:0:
248,236,169944,6,0,P|287:221|351:222,1,90,2|0,0:0|0:0,0:0:0:0:
379,222,170222,1,0,0:0:0:0:
419,241,170315,1,2,0:0:0:0:
438,281,170407,1,0,0:0:0:0:
442,325,170500,2,0,L|403:364,1,45,2|0,0:3|0:0,0:0:0:0:
286,372,170685,5,2,0:0:0:0:
243,356,170778,1,0,0:0:0:0:
219,317,170870,1,2,0:3:0:0:
223,272,170963,1,0,0:0:0:0:
248,236,171055,2,0,L|235:163,1,45,2|0,0:0|0:0,0:0:0:0:
207,67,171241,5,2,0:3:0:0:
180,91,171333,1,0,0:0:0:0:
157,118,171426,2,0,L|86:191,1,90,2|2,0:0|0:0,0:0:0:0:
279,128,171796,1,10,0:0:0:0:
324,126,171889,2,0,L|378:124,1,45,2|2,0:0|0:3,0:0:0:0:
348,213,172074,1,2,0:0:0:0:
393,212,172167,2,0,L|494:209,1,90,2|2,0:0|0:3,0:0:0:0:
512,294,172444,1,2,0:0:0:0:
466,296,172537,2,0,L|365:299,1,90,10|2,0:0|0:3,0:0:0:0:
191,271,172907,6,0,P|238:264|280:269,1,90,2|0,0:0|0:0,0:0:0:0:
189,186,173185,2,0,P|152:198|101:257,1,90,2|0,0:0|0:0,0:0:0:0:
199,101,173463,2,0,P|234:117|273:168,1,90,2|0,0:0|0:0,0:0:0:0:
360,186,173741,1,0,0:0:0:0:
372,143,173833,1,2,0:3:0:0:
413,124,173926,1,0,0:0:0:0:
459,132,174018,2,0,P|490:178|465:228,1,90,2|2,0:0|0:0,0:0:0:0:
366,233,174296,1,0,0:0:0:0:
366,233,174389,6,0,P|322:254|253:239,1,90,6|2,0:0|0:0,0:0:0:0:
126,277,174759,2,0,L|136:220,1,45,10|2,0:0|0:0,0:0:0:0:
216,279,174944,1,2,0:3:0:0:
216,279,175037,2,0,L|201:341,1,45,2|2,0:0|0:0,0:0:0:0:
296,321,175222,2,0,L|281:383,1,45,2|2,0:0|0:3,0:0:0:0:
384,321,175407,1,2,0:0:0:0:
384,321,175500,2,0,L|397:271,1,45,10|0,0:0|2:0,0:0:0:0:
484,232,175685,2,0,L|473:180,1,45,2|0,0:3|2:0,0:0:0:0:
364,138,175870,6,2,P|324:126|252:146,1,90
237,155,176148,1,0,0:0:0:0:
199,179,176241,1,2,0:0:0:0:
155,189,176333,1,0,0:0:0:0:
110,181,176426,1,2,0:3:0:0:
72,156,176518,1,0,0:0:0:0:
52,115,176611,5,2,0:0:0:0:
72,156,176704,1,0,0:0:0:0:
71,200,176796,1,2,0:0:0:0:
45,237,176889,1,0,0:0:0:0:
18,272,176981,1,2,0:0:0:0:
170,255,177167,5,2,0:3:0:0:
214,249,177259,1,0,0:0:0:0:
258,256,177352,2,0,P|301:267|379:268,1,90,2|2,0:0|0:0,0:0:0:0:
161,333,177722,1,2,0:0:0:0:
125,328,177815,2,0,L|70:320,1,45,2|2,0:0|0:3,0:0:0:0:
45,237,178000,2,0,L|28:158,1,45,2|0,0:0|2:0,0:0:0:0:
155,169,178185,2,0,L|172:90,1,45,2|2,0:0|2:3,0:0:0:0:
289,166,178370,1,2,0:0:0:0:
299,200,178463,2,0,L|327:315,1,90,2|2,0:0|0:3,0:0:0:0:
378,156,178833,6,0,B|358:106|358:106|292:69,1,90,2|2,0:0|0:3,0:0:0:0:
439,104,179111,2,0,B|458:153|458:153|490:171,1,90,2|2,0:0|0:3,0:0:0:0:
420,239,179389,2,0,B|400:288|400:288|334:326,1,90,2|0,0:0|0:0,0:0:0:0:
328,327,179667,1,0,0:0:0:0:
283,323,179759,2,0,B|236:314|236:314|169:337,1,90,2|2,0:3|0:0,0:3:0:0:
36,248,180130,5,0,0:0:0:0:
33,221,180222,1,0,0:0:0:0:
30,193,180315,1,0,0:0:0:0:
139,191,180500,1,0,0:0:0:0:
136,164,180593,1,0,0:0:0:0:
133,136,180685,1,0,0:0:0:0:
247,134,180870,5,8,0:0:0:0:
244,107,180963,1,8,0:0:0:0:
241,79,181055,1,8,0:0:0:0:
238,51,181148,1,8,0:0:0:0:
304,45,181241,5,8,0:0:0:0:
307,73,181333,1,8,0:0:0:0:
310,101,181426,1,8,0:0:0:0:
313,128,181518,1,8,0:0:0:0:
382,129,181611,5,8,0:0:0:0:
378,102,181704,1,8,0:0:0:0:
374,70,181796,6,0,L|391:278,1,180,12|2,0:0|0:0,0:0:0:0:
392,340,182352,1,2,0:0:0:0:
296,325,182537,2,0,L|116:298,1,180,2|0,0:0|0:0,0:0:0:0:
28,286,183093,1,2,0:2:0:0:
61,96,183278,6,0,L|259:124,1,180,2|0,0:0|0:0,0:0:0:0:
328,134,183833,1,2,0:2:0:0:
296,325,184018,2,0,L|116:298,1,180,2|0,0:0|0:0,0:0:0:0:
28,286,184574,1,2,0:2:0:0:
50,198,184759,1,2,0:0:0:0:
144,213,184944,1,2,0:0:0:0:
171,126,185130,6,0,L|199:28,1,90,2|0,0:0|0:0,0:0:0:0:
327,140,185500,2,0,L|291:262,1,90,2|0,0:0|0:0,0:0:0:0:
392,104,185778,2,0,L|356:226,1,90,2|0,0:0|0:0,0:0:0:0:
456,67,186055,2,0,L|420:189,1,90,2|0,0:0|0:0,0:0:0:0:
389,271,186426,5,2,0:0:0:0:
389,271,186518,1,0,0:0:0:0:
389,271,186611,2,0,P|343:289|287:284,1,90,2|0,0:0|0:0,0:0:0:0:
115,247,186981,6,2,P|150:233|202:232,1,67.5000025749208,2|0,0:1|0:2,0:2:0:0:
115,247,187259,6,2,P|186:230|262:260,1,135.000005149842
246,337,187537,5,0,0:0:0:0:
246,337,187630,1,0,0:0:0:0:
246,337,187722,2,0,P|200:349|153:343,1,90,8|0,0:0|0:0,0:0:0:0:
27,254,188093,2,0,P|73:242|120:248,1,90,8|0,0:0|0:0,0:0:0:0:
134,63,188463,2,0,L|123:177,1,90,8|0,0:0|0:0,0:0:0:0:
244,248,188833,2,0,L|255:134,1,90,8|0,0:0|0:0,0:0:0:0:
262,68,189204,5,10,0:0:0:0:
425,78,189389,1,0,0:0:0:0:
425,78,189481,1,0,0:0:0:0:
425,78,189574,2,0,L|416:196,1,90,8|0,0:0|0:0,0:0:0:0:
244,248,189944,1,10,0:0:0:0:
407,258,190130,1,0,0:0:0:0:
407,258,190222,1,0,0:0:0:0:
407,258,190315,2,0,L|398:376,1,90,8|0,0:0|0:0,0:0:0:0:
228,324,190685,6,0,P|184:316|116:332,1,90,14|0,0:0|0:0,0:0:0:0:
19,226,191055,1,10,0:0:0:0:
25,335,191241,1,2,0:0:0:0:
115,189,191426,2,0,L|176:83,1,90,10|0,0:0|0:0,0:0:0:0:
180,212,191704,2,0,L|302:211,1,90,10|0,0:0|0:0,0:0:0:0:
154,272,191981,2,0,L|161:306,3,22.5,2|0|0|2,0:0|0:0|0:0|0:0,0:0:0:0:
90,252,192167,6,0,L|86:358,1,90,10|0,0:0|0:0,0:0:0:0:
154,272,192444,2,0,L|158:166,1,90,10|0,0:0|0:0,0:0:0:0:
224,257,192722,2,0,L|220:363,1,90,10|0,0:0|0:0,0:0:0:0:
264,334,193000,5,2,0:0:0:0:
308,324,193093,1,10,0:0:0:0:
352,328,193185,1,2,0:0:0:0:
394,343,193278,2,0,L|476:349,1,45,8|2,0:0|0:0,0:0:0:0:
367,226,193463,2,0,L|294:218,1,45,0|2,0:0|0:0,0:0:0:0:
230,126,193648,6,0,P|272:121|341:135,1,90,12|2,0:0|0:0,0:0:0:0:
363,137,193926,1,0,0:0:0:0:
403,155,194018,2,0,P|448:172|503:176,1,90,8|2,0:0|0:0,0:0:0:0:
279,217,194389,2,0,L|192:245,1,90,10|2,0:0|0:0,0:0:0:0:
150,258,194667,1,0,0:0:0:0:
107,272,194759,2,0,L|83:206,1,45,8|0,0:0|0:0,0:0:0:0:
0,115,194944,2,0,L|24:181,1,45,10|0,0:0|0:0,0:0:0:0:
149,117,195130,6,0,B|197:100|197:100|259:133,1,90,8|2,0:0|0:0,0:0:0:0:
361,218,195500,2,0,B|313:235|313:235|251:202,1,90,8|2,0:0|0:0,0:0:0:0:
239,288,195778,1,0,0:0:0:0:
239,288,195870,2,0,B|290:309|290:309|310:362,1,90,8|2,0:0|0:0,0:0:0:0:
337,332,196148,1,0,0:0:0:0:
372,325,196241,1,8,0:0:0:0:
407,329,196333,1,0,0:0:0:0:
442,337,196426,1,2,0:0:0:0:
474,351,196518,1,0,0:0:0:0:
503,372,196611,6,0,L|481:262,1,90,12|2,0:0|0:0,0:0:0:0:
378,129,196981,2,0,L|356:242,1,90,8|2,0:0|0:0,0:0:0:0:
239,106,197352,2,0,P|196:98|112:115,1,90,12|2,0:0|0:0,0:0:0:0:
102,114,197630,1,0,0:0:0:0:
56,132,197722,2,0,P|61:180|41:238,1,90,8|2,0:0|0:0,0:0:0:0:
183,238,198093,6,0,L|246:256,1,45,8|0,0:0|0:0,0:0:0:0:
287,358,198278,2,0,L|224:340,1,45,8|0,0:0|0:0,0:0:0:0:
393,290,198463,2,0,L|436:302,1,45,8|0,0:0|0:0,0:0:0:0:
331,181,198648,2,0,L|287:168,1,45,8|0,0:0|0:0,0:0:0:0:
187,53,198833,2,0,L|256:41,1,45,8|0,0:0|0:0,0:0:0:0:
280,37,199018,1,2,0:0:0:0:
329,28,199111,1,2,0:0:0:0:
341,76,199204,2,0,L|410:64,1,45,8|0,0:0|0:0,0:0:0:0:
434,60,199389,1,2,0:0:0:0:
481,48,199481,1,2,0:0:0:0:
473,97,199574,6,0,L|455:213,1,90,12|2,0:0|0:0,0:0:0:0:
248,208,199944,2,0,L|268:327,1,90,8|2,0:0|0:0,0:0:0:0:
21,272,200315,2,0,P|69:255|110:266,1,90,8|2,0:0|0:0,0:0:0:0:
152,279,200593,1,0,0:0:0:0:
196,299,200685,1,8,0:0:0:0:
207,348,200778,1,0,0:0:0:0:
254,361,200870,1,2,0:0:0:0:
303,353,200963,1,0,0:0:0:0:
335,316,201055,6,0,L|402:210,1,90,8|2,0:0|0:0,0:0:0:0:
233,87,201426,2,0,L|166:193,1,90,8|2,0:0|0:0,0:0:0:0:
137,178,201704,1,0,0:0:0:0:
88,188,201796,2,0,P|100:236|80:298,1,90,8|2,0:0|0:0,0:0:0:0:
189,250,202074,2,0,P|196:205|184:162,1,90,8|2,0:0|0:0,0:0:0:0:
291,146,202352,1,2,0:0:0:0:
324,181,202444,1,0,0:0:0:0:
321,229,202537,6,0,P|318:272|348:332,1,90,12|2,0:0|0:0,0:0:0:0:
473,353,202907,1,2,0:0:0:0:
430,174,203093,1,2,0:0:0:0:
415,127,203185,1,0,0:0:0:0:
373,99,203278,2,0,P|322:92|257:105,1,90,12|2,0:0|0:0,0:0:0:0:
208,19,203555,2,0,P|249:29|314:14,1,90,8|0,0:0|0:0,0:0:0:0:
219,107,203833,1,2,0:0:0:0:
169,101,203926,1,0,0:0:0:0:
125,96,204018,6,0,P|135:139|125:223,1,90,8|0,0:0|0:0,0:0:0:0:
63,119,204296,2,0,P|73:162|63:246,1,90,8|0,0:0|0:0,0:0:0:0:
0,141,204574,1,2,0:0:0:0:
8,180,204667,1,2,0:0:0:0:
6,215,204759,6,0,P|11:269|47:311,1,101.250003862381,8|0,0:0|0:0,0:0:0:0:
6,215,205130,6,2,P|33:301|123:318,1,135.000005149842,10|2,0:0|0:0,0:0:0:0:
194,194,205500,6,0,L|197:79,1,90,6|0,0:0|2:0,0:0:0:0:
282,155,205778,2,0,L|281:265,1,90,2|0,0:0|2:0,0:0:0:0:
370,189,206055,2,0,L|375:103,1,45,2|0,0:0|2:0,0:0:0:0:
458,176,206241,2,0,L|450:269,1,90,2|0,0:0|2:0,0:0:0:0:
361,315,206518,1,0,0:0:0:0:
361,315,206611,2,0,P|318:307|251:317,1,90
282,155,206981,5,2,0:0:0:0:
233,155,207074,1,0,0:0:0:0:
189,179,207167,1,2,0:0:0:0:
162,220,207259,1,0,0:0:0:0:
153,269,207352,2,0,L|160:341,1,45,2|0,0:0|2:0,0:0:0:0:
310,262,207537,1,2,0:0:0:0:
351,243,207630,1,0,0:0:0:0:
376,205,207722,2,0,P|386:163|365:83,2,90,2|2|2,0:0|0:0|0:0,0:0:0:0:
259,65,208278,1,0,0:0:0:0:
209,61,208370,1,0,0:0:0:0:
159,65,208463,6,0,P|111:85|50:68,1,90,2|0,0:0|0:0,0:0:0:0:
21,161,208741,2,0,P|65:157|105:176,1,90,2|0,0:0|0:0,0:0:0:0:
145,204,209018,1,2,0:0:0:0:
171,246,209111,1,0,0:0:0:0:
165,295,209204,2,0,L|138:365,1,45,2|0,0:0|0:0,0:0:0:0:
261,288,209389,2,0,L|234:358,1,45,2|0,0:0|0:0,0:0:0:0:
302,188,209574,2,0,L|329:118,1,45,2|0,0:0|0:0,0:0:0:0:
209,192,209759,2,0,L|236:122,1,45,2|0,0:0|0:0,0:0:0:0:
356,53,209944,6,0,P|393:45|446:53,1,90,2|0,0:0|0:0,0:0:0:0:
490,136,210222,2,0,P|453:144|400:136,1,90,2|0,0:0|0:0,0:0:0:0:
328,124,210500,1,2,0:0:0:0:
364,334,210685,2,0,L|345:245,1,90,2|2,0:3|0:0,0:0:0:0:
240,62,211055,2,0,L|222:151,1,90,2|2,0:3|0:0,0:0:0:0:
134,121,211333,1,0,0:0:0:0:
134,121,211426,6,0,P|85:113|25:125,1,90,6|0,0:0|0:0,0:0:0:0:
95,196,211704,2,0,P|48:214|3:255,1,90,2|0,0:0|0:0,0:0:0:0:
52,319,211981,1,2,0:0:0:0:
255,277,212167,2,0,P|285:218|251:143,1,135,2|0,0:0|2:0,0:0:0:0:
290,118,212537,1,2,0:0:0:0:
328,95,212630,1,0,0:0:0:0:
372,88,212722,1,2,0:0:0:0:
415,101,212815,1,0,0:0:0:0:
451,126,212907,6,0,L|461:199,1,45,2|0,0:0|0:0,0:0:0:0:
363,191,213093,2,0,L|355:264,1,45,2|0,0:0|0:0,0:0:0:0:
454,326,213278,2,0,B|482:300|482:300|475:249,1,90,2|2,0:3|0:0,0:0:0:0:
285,324,213648,1,2,0:0:0:0:
239,325,213741,1,0,0:0:0:0:
194,326,213833,2,0,L|112:331,1,45,2|0,0:0|2:0,0:0:0:0:
54,261,214018,1,2,0:0:0:0:
64,231,214111,1,0,0:0:0:0:
76,201,214204,1,2,0:0:0:0:
86,171,214296,1,0,0:0:0:0:
97,141,214389,6,0,L|112:93,1,45,2|0,0:0|0:0,0:0:0:0:
164,189,214574,2,0,L|178:238,1,45,2|0,0:0|0:0,0:0:0:0:
190,99,214759,2,0,L|206:49,1,45,2|0,0:0|0:0,0:0:0:0:
251,182,214944,2,0,L|265:231,1,45,2|0,0:0|0:0,0:0:0:0:
285,61,215130,5,2,0:0:0:0:
339,39,215222,1,0,0:0:0:0:
397,36,215315,1,2,0:0:0:0:
454,45,215407,1,0,0:0:0:0:
468,114,215500,1,2,0:0:0:0:
411,105,215593,1,0,0:0:0:0:
353,108,215685,1,2,0:0:0:0:
299,130,215778,1,0,0:0:0:0:
321,198,215870,6,0,L|351:302,1,90,2|0,0:0|0:0,0:0:0:0:
199,273,216241,2,0,L|169:377,1,90,2|0,0:3|0:0,0:0:0:0:
23,317,216611,6,0,L|8:266,1,45,2|2,0:0|0:0,0:0:0:0:
110,268,216796,2,0,L|125:217,1,45,2|2,0:0|0:0,0:0:0:0:
59,140,216981,1,2,0:0:0:0:
62,127,217074,1,2,0:0:0:0:
65,114,217167,1,2,0:0:0:0:
68,101,217259,1,2,0:0:0:0:
72,88,217352,6,0,P|112:68|216:76,1,135,4|0,0:0|0:0,0:0:0:0:
224,84,217722,2,0,L|204:208,1,90,8|0,0:0|0:0,0:0:0:0:
288,300,218093,2,0,L|308:176,1,90,2|0,0:3|0:0,0:0:0:0:
96,160,218463,2,0,P|104:216|116:268,1,90,8|0,0:0|0:0,0:0:0:0:
276,316,218833,5,0,0:0:0:0:
184,192,219018,1,0,0:0:0:0:
316,120,219204,1,8,0:0:0:0:
264,228,219389,1,0,0:0:0:0:
412,280,219574,2,0,P|456:272|504:260,1,90,2|0,0:3|0:0,0:0:0:0:
428,144,219944,1,8,0:0:0:0:
428,144,220037,1,0,0:0:0:0:
428,144,220130,1,0,0:0:0:0:
356,348,220315,6,0,P|308:340|188:332,1,135
196,340,220685,2,0,L|180:240,1,90,8|0,0:0|0:0,0:0:0:0:
292,104,221055,1,2,0:3:0:0:
264,228,221241,1,0,0:0:0:0:
428,144,221426,1,8,0:0:0:0:
300,24,221611,1,0,0:0:0:0:
176,144,221796,6,0,L|232:136,1,45
348,184,221981,1,0,0:0:0:0:
196,340,222167,6,0,L|151:333,1,45,8|0,0:0|0:0,0:0:0:0:
60,356,222352,1,0,0:0:0:0:
36,320,222444,1,0,0:0:0:0:
36,276,222537,1,2,0:3:0:0:
56,236,222630,1,0,0:0:0:0:
96,220,222722,1,0,0:0:0:0:
276,144,222907,5,8,0:3:0:0:
259,88,223000,1,0,0:3:0:0:
214,52,223093,1,0,0:3:0:0:
157,46,223185,1,0,0:3:0:0:
106,74,223278,6,0,P|112:132|132:192,1,90,4|0,0:0|0:0,0:0:0:0:
120,162,223555,1,0,0:0:0:0:
120,162,223648,1,8,0:0:0:0:
220,256,223833,1,0,0:0:0:0:
348,184,224018,2,0,P|358:140|362:95,1,90,2|0,0:3|0:0,0:0:0:0:
356,68,224296,1,0,0:0:0:0:
348,44,224389,1,8,0:0:0:0:
259,88,224574,1,0,0:0:0:0:
448,152,224759,5,0,0:0:0:0:
220,256,224944,1,0,0:0:0:0:
324,344,225130,1,8,0:0:0:0:
348,184,225315,1,0,0:0:0:0:
348,184,225407,1,0,0:0:0:0:
348,184,225500,2,0,L|360:92,1,90,2|0,0:3|0:0,0:0:0:0:
208,166,225870,2,0,L|219:255,1,90,8|0,0:0|0:0,0:0:0:0:
324,344,226241,5,0,0:0:0:0:
424,300,226426,1,0,0:0:0:0:
424,300,226518,1,0,0:0:0:0:
424,300,226611,1,8,0:0:0:0:
340,232,226796,1,0,0:0:0:0:
228,340,226981,2,0,L|176:336,1,45,2|0,0:3|0:0,0:0:0:0:
112,292,227167,2,0,L|95:236,1,45
32,364,227352,1,8,0:0:0:0:
188,248,227537,1,0,0:0:0:0:
68,72,227722,6,0,L|56:132,1,45,4|0,0:0|0:0,0:0:0:0:
76,104,227907,2,0,L|64:164,1,45
188,248,228093,2,0,L|176:188,1,45,8|0,0:0|0:0,0:0:0:0:
196,216,228278,2,0,L|184:156,1,45
296,84,228463,5,2,0:3:0:0:
336,65,228555,1,0,0:0:0:0:
381,64,228648,1,2,0:3:0:0:
423,80,228741,1,0,0:0:0:0:
455,110,228833,1,10,0:3:0:0:
473,151,228926,1,0,0:0:0:0:
474,196,229018,1,2,0:3:0:0:
457,238,229111,1,0,0:0:0:0:
426,269,229204,5,4,0:0:0:0:
85,269,229481,1,0,0:0:0:0:
85,269,229574,1,2,0:0:0:0:
144,204,229759,1,0,0:0:0:0:
176,288,229944,1,2,0:0:0:0:
196,288,230037,1,0,0:0:0:0:
216,288,230130,1,2,0:0:0:0:
232,288,230222,1,0,0:0:0:0:
252,288,230315,1,10,0:0:0:0:
340,288,230500,1,0,0:0:0:0:
340,200,230685,5,2,0:0:0:0:
340,200,230870,1,0,0:0:0:0:
252,200,231055,1,2,0:0:0:0:
252,200,231148,1,0,0:0:0:0:
396,128,231333,1,0,0:0:0:0:
396,128,231426,1,10,0:0:0:0:
340,288,231611,1,0,0:0:0:0:
340,288,231704,1,0,0:0:0:0:
340,288,231796,1,2,0:0:0:0:
256,104,231981,1,0,0:0:0:0:
256,104,232074,1,0,0:0:0:0:
256,104,232167,5,2,0:0:0:0:
72,260,232444,1,0,0:0:0:0:
72,260,232537,1,2,0:0:0:0:
140,320,232722,1,0,0:0:0:0:
160,232,232907,1,2,0:0:0:0:
92,172,233093,1,0,0:0:0:0:
140,320,233278,2,0,L|232:308,1,90,8|0,0:0|0:0,0:0:0:0:
229,308,233648,5,2,0:0:0:0:
144,88,234018,1,2,0:0:0:0:
216,144,234204,1,0,0:0:0:0:
216,144,234296,1,0,0:0:0:0:
216,144,234389,6,0,L|312:132,1,90,8|0,0:0|0:0,0:0:0:0:
324,148,234667,2,0,P|336:100|328:56,1,90
312,48,234944,1,0,0:0:0:0:
288,44,235037,1,0,0:0:0:0:
264,40,235130,5,4,0:0:0:0:
124,188,235407,1,0,0:0:0:0:
124,188,235500,1,2,0:0:0:0:
152,272,235685,1,0,0:0:0:0:
216,208,235870,1,8,0:0:0:0:
244,200,235963,1,0,0:0:0:0:
272,204,236055,1,0,0:0:0:0:
296,216,236148,1,0,0:0:0:0:
312,236,236241,1,2,0:0:0:0:
316,324,236426,1,0,0:0:0:0:
396,280,236611,6,0,P|408:332|408:384,1,90,2|0,0:0|0:0,0:0:0:0:
312,236,236981,2,0,P|314:191|325:147,1,90,2|0,0:0|0:0,0:0:0:0:
380,76,237352,2,0,P|436:84|532:44,2,135,8|2|0,0:0|0:0|0:0,0:0:0:0:
380,76,238000,1,0,0:0:0:0:
380,76,238093,5,2,0:0:0:0:
196,44,238370,1,2,0:0:0:0:
260,224,238648,1,2,0:0:0:0:
276,136,238833,5,10,0:0:0:0:
64,360,239204,2,0,L|164:344,1,90,2|0,0:0|0:0,0:0:0:0:
240,328,239574,1,2,0:0:0:0:
128,188,239944,5,2,0:0:0:0:
336,292,240130,1,2,0:0:0:0:
284,24,240315,5,2,0:0:0:0:
280,52,240407,1,2,0:0:0:0:
276,80,240500,1,2,0:0:0:0:
272,108,240593,1,2,0:0:0:0:
200,152,240685,5,2,0:0:0:0:
220,192,240778,1,2,0:0:0:0:
232,236,240870,1,2,0:0:0:0:
236,280,240963,1,2,0:0:0:0:
336,292,241055,6,0,P|384:280|456:276,1,90,6|0,0:0|0:0,0:0:0:0:
200,152,241426,2,0,P|152:164|80:168,1,90,8|2,0:0|0:3,0:0:0:0:
32,256,241796,1,2,0:0:0:0:
176,340,241981,1,0,0:0:0:0:
213,363,242074,1,0,0:0:0:0:
258,362,242167,1,8,0:0:0:0:
296,339,242259,1,0,0:0:0:0:
315,299,242352,1,0,0:0:0:0:
200,152,242537,5,2,0:0:0:0:
288,188,242722,2,0,P|328:184|384:168,1,90,0|8,0:0|0:0,0:0:0:0:
104,116,243093,1,2,0:3:0:0:
104,116,243185,1,0,0:0:0:0:
104,116,243278,2,0,L|116:224,1,90
276,92,243648,2,0,L|271:47,1,45,10|0,0:3|0:0,0:0:0:0:
200,152,243833,2,0,L|204:196,1,45,2|0,0:3|0:0,0:0:0:0:
287,188,244018,6,0,P|332:180|377:179,1,90,6|2,0:0|0:3,0:0:0:0:
164,276,244389,2,0,P|119:268|74:267,1,90,10|2,0:0|0:3,0:0:0:0:
296,344,244759,1,2,0:0:0:0:
208,204,244944,1,0,0:0:0:0:
376,280,245130,1,10,0:0:0:0:
200,348,245315,1,2,0:0:0:0:
232,120,245500,5,0,0:0:0:0:
260,84,245593,1,0,0:0:0:0:
304,72,245685,1,2,0:0:0:0:
348,80,245778,1,0,0:0:0:0:
380,112,245870,2,0,L|440:104,1,45,8|0,0:0|0:0,0:0:0:0:
456,196,246055,2,0,L|411:190,1,45,2|0,0:0|0:0,0:0:0:0:
376,280,246241,5,2,0:3:0:0:
332,256,246333,1,0,0:0:0:0:
284,248,246426,1,2,0:3:0:0:
236,260,246518,1,0,0:0:0:0:
196,288,246611,2,0,L|208:356,1,45,10|0,0:3|0:0,0:0:0:0:
100,300,246796,2,0,L|80:368,1,45,2|0,0:3|0:0,0:0:0:0:
44,220,246981,6,0,L|48:116,1,90,6|0,0:0|0:0,0:0:0:0:
224,84,247352,1,8,0:0:0:0:
124,148,247537,1,2,0:3:0:0:
228,204,247722,1,0,0:0:0:0:
144,72,247907,2,0,L|152:12,1,45,2|0,0:3|0:0,0:0:0:0:
228,204,248093,2,0,L|236:264,1,45,10|0,0:3|0:0,0:0:0:0:
144,72,248278,1,2,0:3:0:0:
304,152,248463,6,0,P|344:160|404:168,1,90,2|0,0:0|0:0,0:0:0:0:
392,166,248741,1,0,0:0:0:0:
392,166,248833,1,8,0:0:0:0:
368,64,249018,1,2,0:0:0:0:
228,204,249204,2,0,L|244:304,1,90
336,348,249574,1,8,0:0:0:0:
368,244,249759,1,0,0:0:0:0:
184,356,249944,5,2,0:0:0:0:
152,324,250037,1,0,0:0:0:0:
108,308,250130,1,2,0:3:0:0:
64,312,250222,1,0,0:0:0:0:
24,336,250315,1,10,0:0:0:0:
40,292,250407,1,0,0:0:0:0:
40,248,250500,1,2,0:3:0:0:
28,204,250593,1,0,0:0:0:0:
36,160,250685,1,2,0:0:0:0:
68,128,250778,1,0,0:0:0:0:
112,112,250870,1,2,0:3:0:0:
156,112,250963,1,0,0:0:0:0:
196,128,251055,1,10,0:0:0:0:
224,160,251148,1,0,0:0:0:0:
264,176,251241,1,2,0:3:0:0:
308,180,251333,1,0,0:0:0:0:
352,164,251426,5,6,0:0:0:0:
292,52,251611,1,0,0:0:0:0:
292,52,251704,1,0,0:0:0:0:
292,52,251796,1,8,0:0:0:0:
136,212,251981,1,2,0:3:0:0:
244,276,252167,1,6,0:0:0:0:
284,256,252259,1,0,0:0:0:0:
328,256,252352,1,2,0:3:0:0:
368,276,252444,1,0,0:0:0:0:
412,288,252537,1,10,0:3:0:0:
456,284,252630,1,0,0:0:0:0:
480,244,252722,1,2,0:3:0:0:
476,200,252815,1,0,0:0:0:0:
444,168,252907,6,0,P|452:108|464:52,1,90,6|0,0:0|0:0,0:0:0:0:
328,256,253278,2,0,P|336:300|341:344,1,90,8|2,0:0|0:3,0:0:0:0:
168,324,253648,1,2,0:0:0:0:
272,180,253833,1,0,0:0:0:0:
312,161,253926,1,0,0:0:0:0:
357,165,254018,1,8,0:0:0:0:
393,190,254111,1,0,0:0:0:0:
413,230,254204,1,0,0:0:0:0:
272,344,254389,5,2,0:0:0:0:
272,344,254481,1,0,0:0:0:0:
272,344,254574,1,0,0:0:0:0:
184,228,254759,1,8,0:0:0:0:
312,161,254944,1,2,0:3:0:0:
312,161,255037,1,0,0:0:0:0:
312,161,255130,1,0,0:0:0:0:
184,228,255315,2,0,L|136:220,1,45,2|0,0:3|0:0,0:0:0:0:
1,180,255500,2,0,L|36:152,1,45,10|0,0:3|0:0,0:0:0:0:
160,48,255685,2,0,L|167:92,1,45,2|0,0:3|0:0,0:0:0:0:
160,312,255870,6,0,P|115:303|71:295,1,90,6|2,0:0|0:3,0:0:0:0:
272,252,256241,2,0,L|316:260|360:268,1,90,10|2,0:0|0:3,0:0:0:0:
416,352,256611,1,2,0:0:0:0:
476,200,256796,1,0,0:0:0:0:
364,280,256981,1,8,0:0:0:0:
500,360,257167,1,2,0:0:0:0:
376,168,257352,5,0,0:0:0:0:
380,140,257444,1,0,0:0:0:0:
384,112,257537,1,2,0:0:0:0:
388,84,257630,1,0,0:0:0:0:
392,56,257722,1,8,0:0:0:0:
356,84,257815,1,0,0:0:0:0:
312,96,257907,1,2,0:0:0:0:
268,92,258000,1,0,0:0:0:0:
232,68,258093,1,2,0:3:0:0:
188,56,258185,1,0,0:0:0:0:
144,60,258278,1,2,0:3:0:0:
104,76,258370,1,0,0:0:0:0:
72,108,258463,2,0,L|56:168,1,45,10|0,0:3|0:0,0:0:0:0:
60,232,258648,2,0,L|72:276,1,45,2|0,0:3|0:0,0:0:0:0:
144,328,258833,6,0,P|192:324|248:320,1,90,6|0,0:0|0:0,0:0:0:0:
404,260,259204,2,0,P|356:256|300:252,1,90,8|2,0:0|0:3,0:0:0:0:
180,156,259574,1,0,0:0:0:0:
292,260,259759,1,2,0:0:0:0:
335,267,259852,1,0,0:0:0:0:
377,251,259944,1,8,0:0:0:0:
403,216,260037,1,0,0:0:0:0:
407,171,260130,1,2,0:0:0:0:
264,40,260315,5,2,0:0:0:0:
264,40,260407,1,0,0:0:0:0:
264,40,260500,1,0,0:0:0:0:
320,176,260685,2,0,P|332:120|340:76,1,90,8|0,0:0|0:0,0:0:0:0:
192,252,261055,2,0,P|200:296|209:340,1,90
224,160,261426,1,8,0:0:0:0:
84,268,261611,1,0,0:0:0:0:
296,368,261796,5,2,0:0:0:0:
324,332,261889,1,0,0:0:0:0:
328,288,261981,1,2,0:3:0:0:
308,248,262074,1,0,0:0:0:0:
292,208,262167,1,10,0:0:0:0:
292,164,262259,1,0,0:0:0:0:
312,124,262352,1,2,0:3:0:0:
352,100,262444,1,0,0:0:0:0:
396,100,262537,2,0,L|468:112,1,45,2|0,0:0|0:0,0:0:0:0:
416,196,262722,2,0,L|344:184,1,45,2|0,0:3|0:0,0:0:0:0:
256,72,262907,1,10,0:0:0:0:
212,56,263000,1,0,0:0:0:0:
168,56,263093,1,2,0:3:0:0:
124,68,263185,1,0,0:0:0:0:
88,96,263278,6,0,L|100:216,1,90,6|0,0:0|0:0,0:0:0:0:
236,376,263648,2,0,L|244:286,1,90,8|0,0:0|0:0,0:0:0:0:
396,100,264018,1,6,0:0:0:0:
464,264,264204,2,0,P|420:280|368:272,1,67.5000025749208,8|0,0:0|0:0,0:0:0:0:
312,116,264389,2,0,P|320:69|353:28,1,67.5000025749208,8|0,0:0|0:0,0:0:0:0:
480,168,264574,2,0,L|400:200,1,67.5000025749208,8|0,0:0|0:0,0:0:0:0:
280,244,264759,6,0,P|224:236|140:232,1,116.999994644165,6|2,0:0|0:3,0:0:0:0:
56,276,265130,1,8,0:0:0:0:
112,104,265315,1,2,0:3:0:0:
112,104,265407,1,0,0:0:0:0:
112,104,265500,2,0,P|168:112|252:116,1,116.999994644165,2|2,0:0|0:3,0:0:0:0:
276,84,265778,1,0,0:0:0:0:
336,80,265870,1,8,0:0:0:0:
388,104,265963,1,0,0:0:0:0:
412,156,266055,1,2,0:3:0:0:
280,244,266241,5,2,0:0:0:0:
284,208,266333,1,0,0:0:0:0:
288,172,266426,1,2,0:3:0:0:
424,320,266611,2,0,P|364:328|300:344,1,116.999994644165,8|2,0:0|0:3,0:0:0:0:
309,341,266889,1,0,0:0:0:0:
309,341,266981,1,0,0:0:0:0:
120,344,267167,2,0,L|132:272,1,58.4999973220826,2|0,0:0|0:0,0:0:0:0:
196,164,267352,2,0,L|205:221,1,58.4999973220826,10|0,0:0|0:0,0:0:0:0:
60,228,267537,2,0,P|-4:240|-28:248,1,58.4999973220826,2|0,0:0|0:0,0:0:0:0:
208,352,267722,6,0,L|325:365,1,116.999994644165,6|2,0:0|0:3,0:0:0:0:
472,216,268093,2,0,L|354:229,1,116.999994644165,10|2,0:0|0:3,0:0:0:0:
196,48,268463,1,2,0:0:0:0:
96,108,268648,1,0,0:0:0:0:
96,108,268741,1,0,0:0:0:0:
96,108,268833,1,10,0:0:0:0:
196,164,269018,1,2,0:3:0:0:
368,88,269204,6,0,L|300:104,1,58.4999973220826
196,164,269389,2,0,L|264:180,1,58.4999973220826,2|0,0:0|0:0,0:0:0:0:
440,128,269574,2,0,P|448:84|444:40,1,58.4999973220826,8|0,0:0|0:0,0:0:0:0:
292,248,269759,2,0,P|293:277|300:305,1,58.4999973220826,2|0,0:0|0:0,0:0:0:0:
476,277,269944,1,2,0:3:0:0:
445,228,270037,1,0,0:0:0:0:
393,203,270130,1,2,0:3:0:0:
336,211,270222,1,0,0:0:0:0:
291,248,270315,2,0,P|248:264|196:264,1,58.4999973220826,10|0,0:3|0:0,0:0:0:0:
132,248,270500,2,0,P|89:228|52:191,1,58.4999973220826,2|0,0:3|0:0,0:0:0:0:
183,52,270685,6,0,P|204:106|196:164,1,116.999994644165,6|2,0:0|0:3,0:0:0:0:
20,288,271055,2,0,P|-1:234|7:176,1,116.999994644165,8|2,0:0|0:3,0:0:0:0:
144,368,271426,2,0,L|272:336,1,116.999994644165,2|2,0:0|0:3,0:0:0:0:
312,356,271704,1,0,0:0:0:0:
368,340,271796,1,8,0:0:0:0:
396,288,271889,1,0,0:0:0:0:
380,232,271981,1,0,0:0:0:0:
228,144,272167,6,0,P|176:164|64:116,1,175.499991966248,2|2,0:0|0:0,0:0:0:0:
36,76,272537,2,0,L|48:232,1,116.999994644165,8|2,0:0|0:0,0:0:0:0:
144,368,272907,2,0,L|152:251,1,116.999994644165,0|2,0:0|0:3,0:0:0:0:
168,76,273278,1,8,0:0:0:0:
168,76,273463,1,2,0:3:0:0:
312,184,273648,5,2,0:0:0:0:
360,216,273741,1,0,0:0:0:0:
416,212,273833,1,2,0:3:0:0:
456,168,273926,1,0,0:0:0:0:
456,108,274018,1,10,0:0:0:0:
416,64,274111,1,0,0:0:0:0:
356,60,274204,1,2,0:3:0:0:
308,92,274296,1,0,0:0:0:0:
288,148,274389,1,2,0:0:0:0:
300,204,274481,1,0,0:0:0:0:
332,252,274574,1,2,0:3:0:0:
336,312,274667,1,0,0:0:0:0:
308,364,274759,2,0,L|240:356,3,58.4999973220826,10|0|2|0,0:0|0:0|0:3|0:0,0:0:0:0:
184,296,275130,6,0,P|128:304|20:312,1,116.999994644165,6|2,0:0|0:3,0:0:0:0:
67,309,275407,1,0,0:0:0:0:
67,309,275500,1,8,0:0:0:0:
12,208,275685,1,2,0:3:0:0:
104,72,275870,5,6,0:0:0:0:
164,24,275963,1,0,0:0:0:0:
240,16,276055,1,2,0:3:0:0:
312,40,276148,1,0,0:0:0:0:
356,104,276241,1,10,0:3:0:0:
348,180,276333,1,0,0:0:0:0:
408,228,276426,1,10,0:3:0:0:
484,216,276518,1,0,0:0:0:0:
508,144,276611,6,0,L|496:24,1,116.999994644165,6|2,0:0|0:3,0:0:0:0:
284,136,276981,2,0,L|272:252,1,116.999994644165,8|2,0:0|0:3,0:0:0:0:
432,144,277352,1,2,0:0:0:0:
208,96,277537,1,2,0:3:0:0:
154,118,277630,1,0,0:0:0:0:
97,113,277722,1,8,0:0:0:0:
48,81,277815,1,0,0:0:0:0:
21,30,277907,1,2,0:3:0:0:
24,232,278093,6,0,L|132:216,1,58.4999973220826,2|0,0:0|0:0,0:0:0:0:
184,208,278278,1,2,0:3:0:0:
68,324,278463,2,0,L|183:306,1,116.999994644165,8|2,0:0|0:3,0:0:0:0:
183,306,278741,1,0,0:0:0:0:
183,306,278833,1,0,0:0:0:0:
352,180,279018,2,0,L|336:264,1,58.4999973220826,2|0,0:0|0:0,0:0:0:0:
272,372,279204,2,0,L|261:314,1,58.4999973220826,10|0,0:0|0:0,0:0:0:0:
416,312,279389,2,0,P|444:321|500:328,1,58.4999973220826,2|0,0:0|0:0,0:0:0:0:
256,200,279574,6,0,P|198:211|143:230,1,116.999994644165,6|2,0:0|0:3,0:0:0:0:
392,88,279944,2,0,P|447:106|504:118,1,116.999994644165,10|2,0:0|0:3,0:0:0:0:
320,276,280315,1,2,0:0:0:0:
288,108,280500,1,2,0:0:0:0:
456,200,280685,1,10,0:0:0:0:
196,316,280870,1,2,0:0:0:0:
176,44,281055,6,0,L|184:124,1,58.4999973220826
282,166,281241,1,2,0:0:0:0:
282,166,281333,1,0,0:0:0:0:
282,166,281426,2,0,L|287:107,1,58.4999973220826,8|0,0:0|0:0,0:0:0:0:
112,180,281611,2,0,L|117:238,1,58.4999973220826,2|0,0:0|0:0,0:0:0:0:
288,348,281796,1,0,0:0:0:0:
283,290,281889,1,0,0:0:0:0:
246,246,281981,1,2,0:3:0:0:
191,230,282074,1,0,0:0:0:0:
137,248,282167,2,0,L|52:256,1,58.4999973220826,10|0,0:3|0:0,0:0:0:0:
282,166,282352,2,0,L|364:180,1,58.4999973220826,2|0,0:3|0:0,0:0:0:0:
459,344,282537,6,0,P|472:287|463:229,1,116.999994644165,6|2,0:0|0:3,0:0:0:0:
285,51,282907,2,0,P|272:107|281:165,1,116.999994644165,8|2,0:0|0:3,0:0:0:0:
456,112,283278,1,0,0:0:0:0:
350,254,283463,1,2,0:0:0:0:
295,273,283555,1,0,0:0:0:0:
238,264,283648,1,10,0:0:0:0:
191,230,283741,1,0,0:0:0:0:
166,178,283833,1,2,0:0:0:0:
387,352,284018,5,2,0:0:0:0:
423,348,284111,1,0,0:0:0:0:
459,344,284204,1,2,0:3:0:0:
288,372,284389,1,8,0:0:0:0:
460,236,284574,1,2,0:0:0:0:
272,156,284759,1,0,0:0:0:0:
350,254,284944,1,2,0:3:0:0:
350,254,285037,1,0,0:0:0:0:
350,254,285130,1,10,0:0:0:0:
440,80,285315,1,2,0:0:0:0:
272,156,285500,5,2,0:0:0:0:
220,132,285593,1,0,0:0:0:0:
184,88,285685,2,0,P|192:36|204:-4,1,58.4999973220826,2|0,0:3|0:0,0:0:0:0:
8,164,285870,5,10,0:0:0:0:
64,148,285963,1,0,0:0:0:0:
120,168,286055,2,0,P|128:224|128:264,1,58.4999973220826,2|0,0:3|0:0,0:0:0:0:
256,304,286241,6,0,L|196:312,1,58.4999973220826,2|0,0:0|0:0,0:0:0:0:
112,356,286426,2,0,L|54:363,1,58.4999973220826,2|0,0:3|0:0,0:0:0:0:
350,254,286611,2,0,L|410:262,1,58.4999973220826,10|0,0:0|0:0,0:0:0:0:
212,148,286796,2,0,P|214:117|220:88,1,58.4999973220826,2|0,0:3|0:0,0:0:0:0:
480,112,286981,6,0,L|340:136,1,116.999994644165,6|2,0:0|0:3,0:0:0:0:
56,276,287352,2,0,L|196:300,1,116.999994644165,10|2,0:0|0:3,0:0:0:0:
368,156,287722,1,6,0:0:0:0:
144,8,287907,6,0,P|160:48|168:84,1,72,2|2,0:3|0:3,0:0:0:0:
128,276,288093,2,8,P|154:242|181:217,1,72,10|2,0:3|0:3,0:0:0:0:
368,156,288278,2,8,P|325:149|290:138,1,72,2|2,0:3|0:3,0:0:0:0:
212,148,288463,5,6,0:0:0:0:
404,84,288648,1,2,0:0:0:0:
434,293,288833,2,0,L|416:344,1,45,8|0,0:0|0:0,0:0:0:0:
331,319,289018,2,0,L|222:326,1,90,2|2,0:0|0:3,0:0:0:0:
113,186,289389,1,2,0:0:0:0:
156,177,289481,1,0,0:0:0:0:
200,168,289574,2,0,P|224:211|216:272,1,90,8|2,0:0|0:0,0:0:0:0:
360,299,289944,6,0,L|401:185,1,90,2|2,0:0|0:3,0:0:0:0:
406,171,290222,1,0,0:0:0:0:
411,126,290315,1,8,0:0:0:0:
391,86,290407,1,0,0:0:0:0:
353,61,290500,1,2,0:3:0:0:
308,54,290593,1,0,0:0:0:0:
265,67,290685,2,0,L|198:95,1,45,2|0,0:0|0:0,0:0:0:0:
113,186,290870,2,0,L|180:158,1,45,2|0,0:3|0:0,0:0:0:0:
266,196,291055,2,0,P|273:242|257:299,1,90,10|2,0:0|0:3,0:0:0:0:
358,235,291333,1,0,0:0:0:0:
358,235,291426,6,0,P|341:188|349:144,1,90,2|2,0:0|0:0,0:0:0:0:
484,270,291796,1,8,0:0:0:0:
445,293,291889,1,0,0:0:0:0:
403,308,291981,1,2,0:3:0:0:
358,312,292074,1,0,0:0:0:0:
313,304,292167,2,0,P|269:289|200:301,1,90,2|2,0:0|0:0,0:0:0:0:
132,313,292444,1,0,0:0:0:0:
132,313,292537,2,0,L|116:247,1,45,8|0,0:0|2:0,0:0:0:0:
25,182,292722,2,0,L|34:243,1,45,2|0,0:0|2:0,0:0:0:0:
101,164,292907,6,0,L|84:70,1,90,2|0,0:0|0:0,0:0:0:0:
184,106,293185,1,2,0:0:0:0:
184,106,293278,2,0,L|209:213,1,90,8|2,0:0|0:3,0:0:0:0:
348,129,293648,1,2,0:0:0:0:
393,125,293741,1,0,0:0:0:0:
436,133,293833,1,2,0:3:0:0:
478,147,293926,2,0,L|483:228,1,45,2|8,0:0|0:0,0:0:0:0:
379,217,294111,2,0,L|384:298,1,45,2|2,0:0|0:3,0:0:0:0:
273,267,294296,1,0,0:0:0:0:
273,267,294389,6,0,L|286:376,1,90,6|2,0:0|0:0,0:0:0:0:
112,301,294759,1,8,0:0:0:0:
112,301,294852,2,0,L|106:223,1,45,2|2,0:0|0:3,0:0:0:0:
20,163,295037,2,0,L|26:220,1,45,2|0,0:0|0:0,0:0:0:0:
167,145,295222,2,0,L|173:202,1,45,2|2,0:0|0:3,0:0:0:0:
81,78,295407,1,0,0:0:0:0:
125,68,295500,2,0,L|241:50,1,90,8|2,0:0|0:0,0:0:0:0:
404,95,295870,6,0,L|288:119,1,90,2|2,0:0|0:3,0:0:0:0:
272,126,296148,1,0,0:0:0:0:
254,167,296241,1,8,0:0:0:0:
261,211,296333,1,0,0:0:0:0:
285,248,296426,1,2,0:3:0:0:
327,262,296518,1,0,0:0:0:0:
371,251,296611,2,0,L|426:184,1,45,2|0,0:0|2:0,0:0:0:0:
460,316,296796,2,0,L|515:383,1,45,2|0,0:0|2:0,0:0:0:0:
346,353,296981,2,0,P|303:363|226:356,1,90,10|0,0:0|0:0,0:0:0:0:
128,255,297352,6,0,P|145:296|133:375,1,90,2|2,0:0|0:0,0:0:0:0:
28,257,297722,2,0,L|16:213,1,45,8|2,0:0|0:0,0:0:0:0:
88,171,297907,1,2,0:3:0:0:
88,171,298000,2,0,L|106:122,1,45,2|0,0:0|0:0,0:0:0:0:
180,179,298185,2,0,L|198:228,1,45,2|2,0:0|0:3,0:0:0:0:
285,248,298370,1,0,0:0:0:0:
377,231,298463,2,0,P|420:224|480:240,1,90,8|2,0:0|0:0,0:0:0:0:
312,332,298833,6,0,P|269:324|195:325,1,90,2|0,0:0|0:0,0:0:0:0:
109,299,299111,2,0,P|145:272|225:254,1,90,2|0,0:0|0:0,0:0:0:0:
285,248,299389,2,0,P|246:202|191:174,1,90,2|0,0:3|0:0,0:0:0:0:
176,183,299667,1,0,0:0:0:0:
131,186,299759,1,2,0:3:0:0:
85,188,299852,1,0,0:0:0:0:
40,194,299944,2,0,L|19:291,1,90,2|0,0:0|0:0,0:0:0:0:
255,267,300315,6,0,L|226:181,1,90,6|2,0:0|0:0,0:0:0:0:
373,268,300685,2,0,L|388:310,1,45,8|0,0:0|0:0,0:0:0:0:
305,336,300870,2,0,P|263:346|196:329,1,90,2|2,0:0|0:3,0:0:0:0:
226,181,301241,1,2,0:0:0:0:
269,190,301333,1,0,0:0:0:0:
313,199,301426,2,0,P|337:155|329:95,1,90,8|2,0:0|0:0,0:0:0:0:
425,244,301796,6,0,L|466:358,1,90,2|2,0:0|0:3,0:0:0:0:
412,313,302074,1,0,0:0:0:0:
366,310,302167,1,8,0:0:0:0:
322,320,302259,1,0,0:0:0:0:
287,349,302352,1,2,0:3:0:0:
242,358,302444,1,0,0:0:0:0:
197,355,302537,2,0,L|130:327,1,45,2|0,0:0|0:0,0:0:0:0:
15,331,302722,2,0,L|82:359,1,45,2|0,0:3|0:0,0:0:0:0:
99,255,302907,2,0,P|106:209|90:152,1,90,10|2,0:0|0:3,0:0:0:0:
195,116,303185,1,0,0:0:0:0:
195,116,303278,6,0,P|178:163|186:207,1,90,2|2,0:0|0:0,0:0:0:0:
377,120,303648,1,8,0:0:0:0:
400,159,303741,1,0,0:0:0:0:
415,201,303833,1,2,0:3:0:0:
419,246,303926,1,0,0:0:0:0:
411,291,304018,2,0,P|396:334|408:404,1,90,2|2,0:0|0:0,0:0:0:0:
301,332,304296,1,0,0:0:0:0:
301,332,304389,2,0,L|285:266,1,45,8|0,0:0|2:0,0:0:0:0:
194,201,304574,2,0,L|203:262,1,45,2|0,0:0|2:0,0:0:0:0:
278,191,304759,6,0,L|294:102,1,90,2|0,0:0|0:0,0:0:0:0:
359,180,305037,1,2,0:0:0:0:
359,180,305130,2,0,L|441:259,1,90,8|2,0:0|0:3,0:0:0:0:
301,332,305500,1,2,0:0:0:0:
256,336,305593,1,0,0:0:0:0:
213,328,305685,1,2,0:3:0:0:
172,313,305778,2,0,L|168:214,1,90,2|2,0:0|0:0,0:0:0:0:
78,268,306055,1,2,0:3:0:0:
78,268,306148,1,0,0:0:0:0:
78,268,306241,6,0,L|67:357,1,90,6|2,0:0|0:0,0:0:0:0:
256,336,306611,1,8,0:0:0:0:
256,336,306704,2,0,L|250:258,1,45,2|2,0:0|0:3,0:0:0:0:
184,190,306889,2,0,L|190:247,1,45,2|0,0:0|0:0,0:0:0:0:
96,95,307074,2,0,L|102:152,1,45,2|0,0:0|0:0,0:0:0:0:
258,121,307259,1,0,0:0:0:0:
258,121,307352,2,0,L|378:106,1,90,8|2,0:0|0:0,0:0:0:0:
424,276,307722,6,0,L|308:252,1,90,2|2,0:0|0:3,0:0:0:0:
292,245,308000,1,0,0:0:0:0:
274,204,308093,1,8,0:0:0:0:
281,160,308185,1,0,0:0:0:0:
305,123,308278,1,2,0:3:0:0:
347,109,308370,1,0,0:0:0:0:
392,111,308463,2,0,L|447:178,1,45,2|0,0:0|2:0,0:0:0:0:
424,276,308648,2,0,L|372:224,1,45,2|0,0:0|2:0,0:0:0:0:
281,160,308833,2,0,P|238:150|161:157,1,90,10|0,0:0|0:0,0:0:0:0:
168,327,309204,6,0,P|185:286|173:207,1,90,2|2,0:0|0:0,0:0:0:0:
6,98,309574,2,0,L|22:54,1,45,8|2,0:0|0:0,0:0:0:0:
109,139,309759,1,2,0:3:0:0:
109,139,309852,2,0,L|127:188,1,45,2|0,0:0|0:0,0:0:0:0:
208,113,310037,2,0,L|226:64,1,45,2|2,0:0|0:3,0:0:0:0:
306,47,310222,1,0,0:0:0:0:
383,85,310315,2,0,P|426:91|486:76,1,90,8|2,0:0|0:0,0:0:0:0:
345,248,310685,6,0,P|302:256|228:255,1,90,2|0,0:0|0:0,0:0:0:0:
421,291,310963,2,0,P|464:299|538:298,1,90,2|0,0:0|0:0,0:0:0:0:
356,331,311241,2,0,P|313:339|239:338,1,90,2|0,0:0|0:0,0:0:0:0:
421,291,311518,1,0,0:0:0:0:
433,214,311611,1,2,0:3:0:0:
386,154,311704,1,0,0:0:0:0:
317,131,311796,2,0,P|267:126|223:144,1,90,2|0,0:0|0:0,0:0:0:0:
0,331,312167,6,0,L|28:223,1,90,2|2,0:0|0:0,0:0:0:0:
111,60,312537,1,2,0:3:0:0:
111,60,312630,2,0,L|96:125,1,45,2|0,0:0|0:0,0:0:0:0:
155,215,312815,1,2,0:3:0:0:
155,215,312907,2,0,L|186:123,1,90,2|0,0:0|0:0,0:0:0:0:
287,99,313185,1,2,0:3:0:0:
287,99,313278,2,0,L|272:164,1,45,2|0,0:0|2:0,0:0:0:0:
396,170,313463,2,0,L|411:235,1,45,2|0,0:0|2:0,0:0:0:0:
255,230,313648,5,4,0:0:0:0:
256,192,313741,12,0,314759,0:0:0:0:
