osu file format v9

[General]
AudioFilename: Sakaue Nachi.mp3
AudioLeadIn: 1000
PreviewTime: 61995
Countdown: 0
SampleSet: Normal
StackLeniency: 0.7
Mode: 0
LetterboxInBreaks: 0

[Editor]
DistanceSpacing: 2
BeatDivisor: 4
GridSize: 4

[Metadata]
Title:Crazy Hot
Artist:Sakaue Nachi
Creator:Mythol
Version:Lunatic
Source:Touhou
Tags:TOHO EURO FLASH Vol. 2 magus night TH12.8 great fairy wars Marisa Kirisame eurobeat alacat Nyquill LunarSakuya

[Difficulty]
HPDrainRate:7
CircleSize:4
OverallDifficulty:7
ApproachRate:9
SliderMultiplier:1.8
SliderTickRate:1

[Events]
//Background and Video events
0,0,"BG.jpg"
//Break Periods
2,14820,24390
//Storyboard Layer 0 (Background)
//Storyboard Layer 1 (Fail)
//Storyboard Layer 2 (Pass)
//Storyboard Layer 3 (Foreground)
//Storyboard Sound Samples
//Background Colour Transformations
3,100,0,0,0

[TimingPoints]
1287,370.37037037037,4,1,1,70,1,0
7953,-83.3333333333333,4,1,1,70,0,0
8694,-100,4,1,1,70,0,0
24990,-100,4,1,1,60,0,0
60546,-90.9090909090909,4,1,1,60,0,0
62027,-90.9090909090909,4,1,1,70,0,1
73786,-90.9090909090909,4,1,1,70,0,0
73879,-90.9090909090909,4,1,1,70,0,1
85731,-100,4,1,1,70,0,0
97583,-100,4,1,1,60,0,0
131657,-90.9090909090909,4,1,1,60,0,0
133138,-90.9090909090909,4,1,1,70,0,1
144898,-90.9090909090909,4,1,1,70,0,0
144990,-90.9090909090909,4,1,1,70,0,1
156842,-90.9090909090909,4,1,1,70,0,0

[Colours]
Combo1 : 46,199,184
Combo2 : 128,128,255

[HitObjects]
164,88,1287,1,0
260,36,1472,2,0,B|312:36,2,45
324,123,1842,1,0
266,214,2027,5,0
266,227,2120,1,0
266,240,2212,1,0
266,253,2305,1,0
266,266,2398,1,0
266,279,2490,1,0
266,292,2583,1,0
266,305,2675,1,0
266,318,2768,6,0,B|304:351|360:340,1,90,4|0
246,66,3509,2,0,B|208:33|152:44,1,90,0|0
463,161,4249,2,0,B|484:118|470:62,1,90,0|0
49,223,4990,2,0,B|28:266|42:322,1,90,0|0
126,380,5361,1,0
126,380,5453,1,0
126,380,5546,1,0
126,380,5638,1,0
126,380,5731,5,0
199,329,5916,2,0,B|238:308|291:316,1,90,0|0
371,343,6286,1,0
450,300,6472,2,0,B|481:270|478:217,1,90,0|0
432,119,6842,1,0
348,51,7027,1,0
258,111,7212,2,0,B|184:117|140:56,2,135,0|0|0
88,149,7953,6,2,B|87:163|87:163|91:163|91:163|87:175|87:175|91:175|91:175|87:187|87:187|91:187|91:187|87:199|87:199|91:199|91:199|87:211|87:211|91:211|91:211|87:223|87:223|91:223|91:223|87:235|87:235|91:235|91:235|87:247|87:247|91:247|91:247|87:259|87:259|91:259|91:259|87:271|87:271|91:271|91:271|90:293,1,161.999995056153,6|0
87,296,8324,1,8
150,383,8509,1,0
245,330,8694,6,0,B|266:286|253:232,1,90,6|0
172,147,9064,1,8
267,65,9249,1,0
360,119,9435,2,0,B|401:141|471:122,1,90,2|0
340,34,9805,1,8
278,144,9990,1,0
331,237,10175,6,0,B|348:285|333:339,1,90,2|0
158,356,10546,1,8
86,252,10731,1,0
130,153,10916,2,0,B|147:108|136:54,1,90,2|0
57,25,11286,1,8
217,68,11472,1,0
217,68,11564,1,0
217,68,11657,6,0,B|260:48|308:58,1,90,2|2
407,130,12027,1,8
323,224,12212,1,0
406,293,12398,2,0,B|447:315|500:296,1,90,2|0
407,130,12768,1,8
228,154,12953,1,0
228,154,13046,1,0
228,154,13138,2,0,B|146:153|126:74,2,135,2|2|0
307,111,13879,1,2
209,343,14064,6,2,B|106:343,1,90,0|0
384,156,14620,1,6
256,192,24990,12,6,26101
347,145,26472,6,0,B|426:136|445:50,2,135,0|0|0
165,145,27212,2,0,B|86:136|67:50,2,135,0|0|0
251,193,27953,1,0
152,321,28138,1,0
258,298,28324,1,8
150,154,28509,1,0
256,86,28694,2,0,B|299:63|348:73,1,90,0|0
438,122,29064,1,8
384,215,29249,1,0
384,215,29342,1,0
384,215,29435,6,0,B|353:287|403:359,2,135,0|0|0
349,75,30175,1,0
212,28,30361,1,0
102,121,30546,1,8
191,233,30731,1,0
118,313,30916,6,0,B|70:328|21:311,1,90,0|0
76,215,31286,1,8
183,147,31472,1,0
302,190,31657,2,0,B|348:207|393:191,1,90,0|0
483,138,32027,1,8
454,242,32212,1,0
454,242,32305,1,0
454,242,32398,6,0,B|478:308|456:382,2,135,4|0|0
254,157,33138,2,0,B|230:91|257:14,2,135,0|0|0
318,245,33879,1,0
169,349,34064,1,0
343,349,34249,1,8
194,245,34435,1,0
256,332,34620,1,0
194,245,34805,2,0,B|140:236|96:271,2,90,0|8|0
383,174,35361,6,0,B|351:148|297:157,1,90,0|0
173,178,35731,1,8
227,360,35916,1,0
165,283,36101,2,0,B|208:262|262:267,1,90,0|0
350,315,36472,1,8
437,251,36657,1,0
437,251,36749,1,0
437,251,36842,6,0,B|478:162|436:64,1,180,4|8
342,31,37398,1,0
256,96,37583,1,0
238,96,37675,1,0
219,96,37768,1,0
200,96,37861,1,0
182,96,37953,1,8
163,96,38046,1,0
145,96,38138,1,0
126,96,38231,1,0
107,96,38324,6,0,B|8:96,1,90,4|0
66,170,38694,1,8
128,20,38879,1,0
178,173,39064,2,0,B|195:218|184:267,1,90,0|0
334,211,39435,2,0,B|317:166|328:117,1,90,8|0
228,78,39805,1,0
178,173,39990,1,0
241,260,40175,2,0,B|281:285|334:278,1,90,8|0
417,218,40546,5,0
492,294,40731,1,0
492,294,40824,1,0
492,294,40916,1,8
328,280,41101,1,0
481,132,41286,6,0,B|436:110|385:121,1,90,0|0
334,211,41657,1,8
248,144,41842,1,0
248,325,42027,2,0,B|291:345|354:332,1,90,0|0
432,253,42398,1,8
392,133,42583,1,0
392,133,42675,1,0
392,133,42768,6,0,B|373:85|384:30,1,90,0|0
464,79,43138,1,8
307,122,43324,2,0,B|257:134|214:122,1,90,0|0
258,42,43694,5,0
392,133,43879,1,8
325,280,44064,1,2
325,280,44157,1,0
325,280,44249,6,0,B|368:339|454:336,2,135,6|0|0
187,280,44990,2,0,B|144:339|58:336,2,135,2|0|0
257,185,45731,1,2
325,280,45916,1,0
257,375,46101,1,10
187,280,46286,1,2
344,191,46472,1,0
385,67,46657,2,0,B|430:54|479:67,2,90,0|8|0
257,185,47212,6,0,B|212:201|166:183,1,90,0|0
88,111,47583,1,8
219,51,47768,1,0
334,136,47953,2,0,B|352:184|336:239,1,90,0|0
180,364,48324,1,8
273,309,48509,1,0
273,309,48601,1,0
273,309,48694,6,0,B|316:291|363:304,1,90,4|0
487,234,49064,1,8
416,108,49249,1,0
350,237,49435,6,0,B|381:297,1,45,0|0
300,160,49620,2,0,B|308:108,1,45,0|0
212,160,49805,2,0,B|205:115,1,45,0|0
162,237,49990,2,0,B|141:276,1,45,0|0
76,220,50175,6,0,B|-12:220,1,90,4|0
166,83,50546,2,0,B|258:83,1,90,8|0
34,142,50916,2,0,B|17:94|34:47,1,90,0|0
212,160,51286,2,0,B|229:208|212:255,1,90,8|0
256,192,51657,12,0,52768
84,304,53138,6,0,B|192:304,1,90,0|0
265,169,53509,2,0,B|157:169,1,90,8|0
264,304,53879,2,0,B|372:304,1,90,0|0
448,208,54249,5,8
488,336,54435,1,8
64,176,54805,1,10
24,48,54990,1,10
286,109,55361,6,0,B|326:136|378:129,1,90,2|0
226,275,55731,2,0,B|186:248|134:255,1,90,10|0
212,174,56101,5,4
399,140,56286,1,0
314,315,56472,2,0,B|354:342|406:335,1,90,8|0
489,201,56842,1,0
399,140,57027,1,0
314,207,57212,2,0,B|270:226|219:212,1,90,8|0
133,156,57583,1,0
36,108,57768,1,0
43,216,57953,6,0,B|24:262|42:321,1,90,8|0
218,307,58324,2,0,B|237:261|219:202,1,90,0|0
138,67,58694,2,0,B|119:113|137:172,1,90,8|0
151,261,59064,5,0
151,261,59157,1,0
151,261,59249,1,0
284,281,59435,1,8
250,151,59620,2,0,B|233:106|250:45,1,90,0|0
374,22,59990,1,0
462,123,60175,2,0,B|479:168|462:229,1,90,0|0
253,286,60546,6,0,B|142:257|69:331,1,198.000006042481,6|8
259,98,61101,2,0,B|370:127|443:53,1,198.000006042481,6|8
431,227,61657,1,8
431,227,61749,1,0
431,227,61842,1,0
431,227,61935,1,0
431,227,62027,6,0,B|446:278|433:332,1,98.9999970495702,4|0
292,252,62398,2,0,B|277:201|290:147,1,98.9999970495702,8|0
365,92,62768,1,0
313,262,62953,1,0
313,262,63046,1,0
313,262,63138,1,8
431,211,63324,1,0
279,152,63509,6,0,B|226:134|172:157,1,98.9999970495702,0|0
85,222,63879,1,8
17,124,64064,1,0
17,124,64157,1,0
17,124,64249,1,0
121,66,64435,1,0
7,203,64620,1,8
106,350,64805,1,0
196,310,64990,6,0,B|243:293|296:305,1,98.9999970495702,2|0
449,217,65361,2,0,B|402:200|349:212,1,98.9999970495702,10|0
195,125,65731,2,0,B|242:108|295:120,1,98.9999970495702,2|0
352,212,66101,1,8
292,119,66286,6,0,B|274:66|293:19,1,98.9999970495702,0|0
352,212,66657,2,0,B|301:231|251:216,1,98.9999970495702,0|8
218,201,66935,1,0
183,182,67027,1,0
143,182,67120,1,0
108,201,67212,1,0
87,234,67305,1,0
87,273,67398,1,0
108,306,67490,1,0
143,323,67583,6,0,B|205:314,1,49.4999985247851,8|0
256,269,67768,2,0,B|318:278,1,49.4999985247851,0|0
353,212,67953,6,0,B|370:161|353:113,1,98.9999970495702,4|0
210,25,68324,1,8
145,140,68509,1,0
145,140,68601,1,0
145,140,68694,1,0
263,149,68879,1,0
132,59,69064,1,8
289,67,69249,1,0
200,199,69435,6,0,B|185:249|199:304,1,98.9999970495702,0|0
425,368,69805,1,8
356,297,69990,2,0,B|371:247|357:192,1,98.9999970495702,0|0
324,105,70361,1,0
324,105,70453,1,0
324,105,70546,1,8
421,114,70731,1,0
265,208,70916,6,0,B|213:218|167:198,1,98.9999970495702
324,105,71286,2,0,B|376:95|422:115,1,98.9999970495702,8|0
167,198,71657,2,0,B|142:151|159:92,1,98.9999970495702,0|0
421,115,72027,2,0,B|446:162|429:221,1,98.9999970495702,8|0
186,287,72398,6,0,B|112:304|51:223|87:146,1,197.99999409914,6|8
229,46,72953,1,0
400,126,73138,1,6
400,145,73231,1,0
400,164,73324,1,0
400,183,73416,1,0
400,202,73509,1,8
400,221,73601,1,0
400,240,73694,1,0
400,259,73786,1,0
400,278,73879,6,0,B|400:376,1,98.9999970495702,4|0
216,304,74249,2,0,B|216:206,1,98.9999970495702,8|0
316,32,74620,2,0,B|316:130,1,98.9999970495702,0|0
480,240,74990,2,0,B|480:142,1,98.9999970495702,8|0
395,56,75361,5,0
290,112,75546,1,0
185,56,75731,1,8
141,67,75824,1,0
110,99,75916,1,0
101,142,76009,1,0
115,183,76101,1,0
204,252,76287,5,0
180,134,76472,1,8
107,274,76657,1,0
260,183,76842,6,0,B|311:169|365:190,1,98.9999970495702,2|0
363,365,77212,2,0,B|325:327|316:270,1,98.9999970495702,10|0
477,196,77583,2,0,B|463:247|418:283,1,98.9999970495702,2|0
227,297,77953,1,8
260,183,78138,6,0,B|275:134|261:81,1,98.9999970495702,0|0
248,53,78416,1,0
223,27,78509,1,0
189,17,78601,1,0
154,16,78694,1,8
121,26,78787,1,0
89,40,78879,1,0
67,67,78972,1,0
60,100,79064,1,0
57,134,79157,1,0
58,168,79249,1,0
63,202,79342,1,0
72,235,79435,6,0,B|81:292,1,49.4999985247851,8|0
167,236,79620,2,0,B|158:179,1,49.4999985247851,0|0
248,190,79805,6,0,B|296:167|354:182,1,98.9999970495702,4|0
436,255,80175,1,8
498,153,80361,1,0
418,64,80546,2,0,B|363:55|316:79,1,98.9999970495702,0|0
272,184,80916,1,8
436,255,81101,1,0
276,335,81287,5,0
276,335,81379,1,0
276,335,81472,2,0,B|225:354|178:335,1,98.9999970495702,0|8
92,203,81842,1,0
193,81,82027,2,0,B|244:62|291:81,1,98.9999970495702,0|0
428,78,82398,6,0,B|480:78,1,49.4999985247851,8|0
387,163,82583,2,0,B|335:163,1,49.4999985247851,0|0
234,199,82768,6,0,B|219:245|234:306,1,98.9999970495702,0|0
283,116,83138,2,0,B|237:101|176:116,1,98.9999970495702,8|0
366,165,83509,2,0,B|381:119|366:58,1,98.9999970495702,0|0
320,248,83879,2,0,B|366:263|427:248,1,98.9999970495702,8|0
242,317,84249,6,0,B|146:263|44:324,1,197.99999409914,6|8
94,134,84805,1,0
270,67,84990,2,0,B|366:121|468:60,1,197.99999409914,6|8
448,244,85546,1,0
448,244,85638,1,0
448,244,85731,6,0,B|432:292|449:341,1,90,6|2
314,304,86101,1,10
314,304,86194,2,0,B|264:287|214:306,1,90,2|2
186,313,86472,1,0
145,312,86564,1,0
110,290,86657,1,2
87,256,86749,1,0
76,216,86842,2,0,B|60:169|75:121,1,90,10|2
192,47,87212,6,0,B|208:94|193:142,1,90,2|0
258,245,87583,2,0,B|294:285,1,45,10|0
336,231,87768,2,0,B|387:247,1,45,2|0
395,178,87953,2,0,B|447:166,1,45,2|0
409,106,88138,2,0,B|449:70,1,45,2|0
385,37,88324,1,10
192,47,88509,1,2
172,204,88694,6,0,B|126:217|80:203,1,90,2|2
248,127,89064,1,8
248,127,89157,2,0,B|294:113|344:127,1,90,2|2
375,136,89435,1,0
400,167,89527,1,2
405,207,89620,1,0
390,244,89712,1,2
354,264,89805,2,0,B|310:279|266:266,1,90,10|2
57,178,90175,6,0,B|98:157|148:175,1,90,2|2
206,201,90453,2,0,B|256:191|270:135,1,90,2|0
302,84,90731,2,0,B|346:62|397:76,1,90,2|2
434,79,91009,1,2
466,109,91101,1,2
474,153,91194,1,2
460,196,91287,1,8
443,237,91379,2,0,B|429:283|442:335,1,90,2|0
380,358,91657,6,0,B|335:341|288:360,1,90,6|2
148,362,92027,1,8
118,334,92120,2,0,B|93:294|99:244,1,90,2|2
107,203,92398,1,0
135,168,92490,1,0
177,152,92583,1,2
220,160,92675,1,0
262,174,92768,2,0,B|312:180|351:154,1,90,10|2
398,30,93138,6,0,B|348:24|309:50,1,90,2|0
220,160,93509,2,0,B|180:196,1,45,10|0
239,231,93694,2,0,B|223:282,1,45,2|0
289,296,93879,2,0,B|301:348,1,45,2|0
364,320,94064,2,0,B|400:360,1,45,2|0
433,297,94249,1,10
453,162,94435,1,2
344,82,94620,6,0,B|298:65|246:79,1,90,2|2
150,175,94990,1,10
150,175,95083,2,0,B|102:187|49:172,1,90,2|2
22,150,95361,1,0
2,109,95453,1,0
13,65,95546,1,2
50,40,95638,1,0
93,50,95731,2,0,B|136:63|194:49,1,90,10|2
325,31,96101,6,0,B|342:74|327:126,1,90,6|2
283,170,96379,2,0,B|269:214|281:268,1,90,2|0
319,314,96657,2,0,B|361:333|413:316,1,90,2|2
449,303,96935,1,0
479,270,97027,1,0
487,225,97120,1,0
478,181,97212,1,10
454,142,97305,1,0
413,122,97398,1,0
368,125,97490,1,0
326,143,97583,6,0,B|267:174|189:142,2,135,4|0|0
263,54,98324,1,0
394,206,98601,1,0
251,350,98879,1,0
169,279,99064,6,0,B|119:264|74:282,1,90,0|0
251,350,99435,2,0,B|301:365|346:347,1,90,8|0
406,264,99805,1,0
489,332,99990,1,0
489,332,100083,1,0
489,332,100175,1,8
381,349,100361,1,0
488,240,100546,6,0,B|502:198|493:144,1,90,0|0
411,56,100916,1,8
324,147,101101,1,0
494,151,101287,1,0
332,69,101472,1,0
284,244,101657,2,0,B|326:259|373:244,1,90,8|0
407,153,102027,6,0,B|465:168|493:237|455:309,1,180,0|8
323,350,102583,1,0
323,350,102675,1,0
323,350,102768,2,0,B|274:334|221:350,1,90,0|0
103,285,103138,1,8
188,168,103324,1,0
188,168,103416,1,0
188,168,103509,6,0,B|226:142|237:95,1,90,4|0
262,57,103787,1,0
304,42,103879,2,0,B|352:34|396:57,1,90,8|0
470,141,104249,2,0,B|484:190|468:243,1,90,0|0
444,266,104527,1,0
402,283,104620,2,0,B|354:272|308:283,1,90,8|0
192,318,104990,5,0
320,66,105175,1,0
300,245,105361,1,8
212,139,105546,1,0
99,213,105731,5,0
99,213,105824,1,0
99,213,105916,1,0
175,324,106101,1,8
291,256,106286,1,0
325,148,106472,6,0,B|393:123|462:149,2,135,0|0|0
187,236,107212,2,0,B|119:261|50:235,2,135,0|0|0
325,148,107953,5,4
187,236,108138,1,0
348,257,108324,1,8
164,127,108509,1,0
256,319,108694,5,4
262,283,108787,1,0
268,247,108879,1,0
267,210,108972,1,0
252,177,109064,1,8
241,142,109157,1,0
245,106,109249,1,0
258,72,109342,1,0
283,46,109435,6,0,B|321:25|373:33,1,90,6|0
487,169,109805,2,0,B|449:190|397:182,1,90,8|0
243,83,110175,2,0,B|281:62|333:70,1,90,0|0
447,206,110546,2,0,B|409:227|357:219,1,90,8|0
259,176,110916,5,0
182,251,111101,1,0
359,219,111287,2,0,B|366:168|358:116,1,90,8|0
243,83,111657,1,0
342,233,111842,1,0
342,233,111935,1,0
342,233,112027,1,8
181,250,112212,1,0
324,139,112398,6,0,B|370:126|423:148,1,90,0|0
486,222,112768,1,8
417,305,112953,1,0
412,144,113138,5,0
282,238,113324,1,0
331,85,113509,1,8
381,238,113694,1,0
251,144,113879,2,0,B|202:129|145:147,1,90,0|0
58,241,114249,1,8
202,245,114435,1,0
202,245,114527,1,0
202,245,114620,2,0,B|213:296|203:343,1,90,0|0
71,283,114990,6,0,B|58:241,1,45,10|0
115,130,115175,2,0,B|128:172,1,45,2|0
237,162,115361,6,0,B|307:189|373:159,2,135,6|0|0
175,73,116101,1,2
330,25,116379,1,0
453,130,116657,1,0
366,195,116842,6,0,B|345:235|348:291,1,90,2|0
146,189,117212,2,0,B|167:149|164:93,1,90,10|0
259,170,117583,1,0
198,270,117768,1,0
198,270,117861,1,0
198,270,117953,2,0,B|153:291|102:273,1,90,8|0
49,185,118324,5,0
126,109,118509,1,0
228,142,118694,2,0,B|276:152|328:137,1,90,8|0
403,47,119064,1,0
440,167,119249,1,0
317,139,119435,1,8
476,92,119620,1,0
476,92,119712,1,0
476,92,119805,6,0,B|538:109|543:203|483:249,1,180,4|8
412,306,120361,1,0
412,306,120453,1,0
412,306,120546,6,0,B|428:371,1,45,0|0
346,228,120731,2,0,B|362:163,1,45,0|0
279,306,120916,2,0,B|263:371,1,45,8|0
213,228,121101,2,0,B|197:163,1,45,0|0
132,244,121287,6,0,B|156:343,1,90,4|0
258,141,121657,2,0,B|233:41,1,90,8|0
268,291,122027,2,0,B|370:289,1,90,0|0
124,101,122398,2,0,B|20:102,1,90,8|0
256,192,122768,12,0,123879
191,112,124249,5,0
116,225,124435,1,0
232,293,124620,1,8
295,174,124805,1,0
146,209,124990,5,0
188,355,125175,1,0
307,258,125361,1,8
261,112,125546,2,0,B|259:38|165:14|123:81,1,180,0|2
71,161,126101,1,10
307,258,126472,6,0,B|400:257,1,90,2|0
205,126,126842,2,0,B|112:127,1,90,10|0
307,259,127212,5,4
206,126,127398,1,0
359,173,127583,1,8
208,225,127768,1,0
301,94,127953,1,0
208,225,128138,1,0
359,173,128324,1,8
206,126,128509,6,0,B|130:123|94:184|117:266,1,180,0|0
239,308,129064,2,0,B|241:257|196:212,1,90,8|0
33,158,129435,2,0,B|72:184|119:172,1,90,0|0
262,58,129805,2,0,B|219:78|206:127,1,90,8|0
272,268,130175,5,0
289,143,130361,1,0
175,197,130546,1,8
279,348,130731,2,0,B|358:341|373:253|329:214,1,180,0|0
175,197,131287,1,8
175,197,131379,1,0
175,197,131472,1,0
330,215,131657,6,0,B|426:277|516:216,1,198.000006042481,6|8
270,61,132212,2,0,B|174:-1|84:60,1,198.000006042481,6|8
175,197,132768,1,8
175,197,132861,1,0
175,197,132953,1,0
175,197,133046,1,0
175,197,133138,6,0,B|160:248|174:298,1,98.9999970495702,4|0
307,206,133509,2,0,B|322:155|308:105,1,98.9999970495702,8|0
198,64,133879,1,0
99,130,134064,1,0
99,130,134157,1,0
99,130,134249,1,8
236,244,134435,1,0
298,111,134620,6,0,B|352:76|392:108|432:140|488:112,1,197.99999409914,0|8
442,24,135175,1,0
347,175,135361,1,0
271,24,135546,1,0
442,24,135731,1,8
271,24,135916,1,0
160,110,136101,6,0,B|112:130|62:111,1,98.9999970495702,2|0
220,196,136472,2,0,B|268:216|318:197,1,98.9999970495702,10|0
165,292,136842,2,0,B|117:312|67:293,1,98.9999970495702,2|0
102,179,137212,1,8
220,196,137398,6,0,B|263:227|274:286,1,98.9999970495702,0|0
286,314,137675,1,0
310,344,137768,1,0
345,362,137861,1,0
384,363,137953,1,8
422,351,138046,1,0
448,321,138138,1,0
459,282,138231,1,0
461,242,138324,6,0,B|454:192,1,49.4999985247851,0|0
363,234,138509,2,0,B|370:284,1,49.4999985247851,0|0
270,276,138694,2,0,B|219:294|170:274,1,98.9999970495702,8|0
83,144,139064,5,4
173,275,139249,1,0
242,132,139435,1,8
363,234,139620,1,0
363,234,139712,1,0
363,234,139805,1,0
216,209,139990,1,0
330,114,140175,1,8
452,200,140361,1,0
287,291,140546,6,0,B|241:321|179:311,1,98.9999970495702,0|0
216,209,140916,1,8
363,234,141101,2,0,B|415:237|453:198,1,98.9999970495702,0|0
330,114,141472,1,0
287,291,141657,1,8
452,200,141842,1,0
216,209,142027,6,0,B|160:205|107:242,1,98.9999970495702,0|0
296,175,142398,2,0,B|352:179|405:142,1,98.9999970495702,8|0
190,289,142768,2,0,B|196:343|235:373,1,98.9999970495702,0|0
322,95,143138,2,0,B|316:41|277:11,1,98.9999970495702,8|0
160,172,143509,6,0,B|210:161|254:193|298:229|350:213,1,197.99999409914,6|8
214,69,144064,1,0
34,152,144249,1,6
34,172,144342,1,0
34,191,144435,1,0
34,210,144527,1,0
34,229,144620,1,8
34,248,144712,1,0
34,267,144805,1,0
34,286,144898,1,0
34,305,144990,6,0,B|74:340|128:333,1,98.9999970495702,4|0
390,236,145361,2,0,B|350:201|296:208,1,98.9999970495702,8|0
162,248,145731,1,0
253,352,145916,1,0
253,352,146009,1,0
253,352,146101,1,8
298,208,146287,1,0
162,324,146472,6,0,B|87:335|47:227|122:174,1,197.99999409914,0|8
220,144,147027,1,0
162,248,147212,2,0,B|111:280|41:247,1,98.9999970495702,0|0
48,139,147583,1,8
246,230,147768,1,0
87,311,147953,6,0,B|64:264|79:209,1,98.9999970495702,2|0
211,47,148324,2,0,B|234:94|219:149,1,98.9999970495702,10|0
358,306,148694,2,0,B|381:259|366:204,1,98.9999970495702,2|0
220,144,149064,1,8
146,237,149249,6,0,B|191:267|248:258,1,98.9999970495702,0|0
277,244,149527,1,0
310,223,149620,1,0
348,216,149712,1,0
385,230,149805,1,8
405,264,149898,1,0
393,301,149990,1,0
357,319,150083,1,0
319,306,150175,1,0
304,268,150268,1,0
314,229,150361,1,0
315,189,150453,1,0
306,150,150546,6,0,B|291:86,1,49.4999985247851,8|0
189,47,150731,2,0,B|204:111,1,49.4999985247851,0|0
138,172,150916,6,0,B|88:199|25:183,1,98.9999970495702,4|0
200,95,151287,1,8
306,150,151472,1,0
138,172,151657,1,0
282,68,151842,1,0
212,232,152027,1,8
112,84,152212,1,0
299,236,152398,5,0
299,236,152490,1,0
299,236,152583,2,0,B|354:242|398:187,1,98.9999970495702,0|8
282,68,152953,1,0
159,183,153138,2,0,B|107:202|57:178,1,98.9999970495702,0|0
112,84,153509,1,8
5,250,153694,1,0
112,84,153879,6,0,B|164:65|214:89,1,98.9999970495702,4|0
240,281,154249,2,0,B|187:262|165:211,1,98.9999970495702,8|0
366,217,154620,2,0,B|393:264|378:318,1,98.9999970495702,0|0
232,181,154990,2,0,B|241:126|287:95,1,98.9999970495702,8|0
256,192,155361,12,4,156842
