osu file format v13

[General]
AudioFilename: BlackY - Merry Christmas Mr.Lawrence -2012 BlackY's XmasCoreStyle-.mp3
AudioLeadIn: 0
PreviewTime: 79502
Countdown: 0
SampleSet: Normal
StackLeniency: 0.6
Mode: 0
LetterboxInBreaks: 0
EpilepsyWarning: 1
WidescreenStoryboard: 1

[Editor]
DistanceSpacing: 1
BeatDivisor: 2
GridSize: 4
TimelineZoom: 1.1

[Metadata]
Title:Merry Christmas Mr.Lawrence -2012 BlackY's XmasCoreStyle-
TitleUnicode:Merry Christmas Mr.Lawrence -2012 BlackY's XmasCoreStyle-
Artist:Sakamoto Ryuichi
ArtistUnicode:坂本 龍一
Creator:Andrea
Version:Normal
Source:
Tags:osuplayer111 Gero Inyuschan Holiday Remix Collaboration
BeatmapID:539617
BeatmapSetID:232342

[Difficulty]
HPDrainRate:3
CircleSize:3
OverallDifficulty:3
ApproachRate:4
SliderMultiplier:0.999999999999999
SliderTickRate:1

[Events]
//Background and Video events
0,0,"BG.jpg",0,0
//Break Periods
2,14762,24739
2,75121,78271
//Storyboard Layer 0 (Background)
//Storyboard Layer 1 (Fail)
//Storyboard Layer 2 (Pass)
//Storyboard Layer 3 (Foreground)
Sprite,Foreground,Centre,"Geroboard\Names\Andrea.png",320,240 S,0,2885,,0.5306671 F,0,2885,3065,0,1 M,0,2885,14382,103,429 F,0,3065,14382,1 M,0,14382,14562,103,429,103,408 F,0,14382,14562,1,0 M,0,40250,,103,429 S,0,40250,,0.5306671 F,0,40250,40430,0,1 F,0,40430,51567,1 F,0,51567,51747,1,0 M,0,63244,,103,429 S,0,63244,,0.5306671 F,0,63244,63424,0,1 F,0,63424,72047,1 F,0,72047,74921,1,0.01866623 M,0,91987,,103,429 S,0,91987,,0.5306671 F,0,91987,92167,0,1 F,0,92167,99352,1 F,0,99352,,1 F,0,99352,103484,1,0 M,0,114981,,103,429 S,0,114981,,0.5306671 F,0,114981,115161,0,1 F,0,115161,122346,1 F,0,122346,,1 F,0,122346,126478,1,0 M,0,137975,,103,429 S,0,137975,,0.5306671 F,0,137975,138155,0,1 F,0,138155,145340,1 F,0,145340,,1 F,0,145340,149472,1,0 M,0,160969,,103,429 S,0,160969,,0.5306671 F,0,160969,161149,0,1 F,0,161149,172466,1 F,0,172466,172645,1,0
Sprite,Foreground,Centre,"Geroboard\Names\Inyuschan.png",320,240 M,0,25879,,103,429 S,0,25879,,0.5200006 F,0,25879,26059,0,1 F,0,26059,37017,1 F,0,37017,38544,1,0.05599976 M,0,51747,,103,429 F,0,51747,51927,0,1 F,0,51927,63064,1 F,0,63064,63244,1,0 M,0,80490,,103,429 F,0,80490,80670,0,1 F,0,80670,91807,1 F,0,91807,91987,1,0 M,0,103484,,103,429 F,0,103484,103664,0,1 F,0,103664,114801,1 F,0,114801,114981,1,0 M,0,126478,,103,429 F,0,126478,126658,0,1 F,0,126658,137795,1 F,0,137795,137975,1,0 M,0,149472,,103,429 F,0,149472,149652,0,1 F,0,149652,160789,1 F,0,160789,160969,1,0
//Storyboard Sound Samples
//Background Colour Transformations
3,100,192,192,192

[TimingPoints]
3065,359.281437125748,4,1,1,80,1,0
26059,-100,4,2,1,60,0,0
37017,-100,4,2,1,40,0,0
37915,-100,4,2,1,20,0,0
38274,-100,4,2,1,10,0,0
38544,-100,4,2,1,5,0,0
40430,-100,4,2,1,60,0,0
63424,-100,4,1,1,40,0,0
67017,-100,4,1,1,50,0,0
69172,-100,4,1,1,60,0,0
79591,-100,4,2,1,60,0,0
80669,-100,4,1,1,80,0,1
80759,-100,4,1,1,80,0,0
102226,-100,4,1,1,60,0,0
102945,-100,4,1,1,70,0,0
103304,-100,4,1,1,75,0,0
103663,-100,4,1,1,80,0,1
103753,-100,4,1,1,80,0,0
126657,-100,4,1,1,80,0,1
148933,-100,4,1,1,60,0,1
149292,-100,4,1,1,70,0,1
149562,-100,4,1,1,75,0,0
149651,-100,4,1,1,80,0,1
161148,-100,4,1,1,80,0,0
161328,-100,4,2,1,60,0,0
166897,-100,4,1,1,80,0,0

[Colours]
Combo1 : 170,0,85
Combo2 : 255,43,43
Combo3 : 0,213,213
Combo4 : 85,85,255
Combo5 : 213,213,0
Combo6 : 0,170,0

[HitObjects]
116,192,3065,5,4,0:0:0:0:
164,104,3424,2,0,B|228:104|255:74|255:74|280:104|348:104,1,200,0|0,0:0|0:0,0:0:0:0:
396,192,4502,1,0,0:0:0:0:
348,280,4861,2,0,B|280:280|255:310|255:310|228:280|164:280,1,200,0|0,0:0|0:0,0:0:0:0:
116,192,5939,5,0,0:0:0:0:
164,104,6298,2,0,B|256:64|256:64|348:104,1,200,0|0,0:0|0:0,0:0:0:0:
396,192,7376,1,0,0:0:0:0:
348,280,7735,2,0,B|256:320|256:320|164:280,1,200,0|0,0:0|0:0,0:0:0:0:
116,192,8813,5,4,0:0:0:0:
164,104,9172,2,0,P|264:104|336:36,1,200,0|0,0:0|0:0,0:0:0:0:
436,36,10250,2,0,B|436:136|436:136|376:216,1,200,4|0,0:0|0:0,0:0:0:0:
308,292,11328,1,0,0:0:0:0:
204,292,11687,54,0,P|104:292|28:232,2,200,4|4|4,0:0|0:0|0:0,0:0:0:0:
256,208,13484,1,0,0:3:0:0:
200,124,13843,1,0,0:0:0:0:
256,40,14202,1,8,0:0:0:0:
312,124,14562,1,4,0:0:0:0:
256,48,26059,38,0,P|316:48|424:140,1,200,2|0,0:0|0:0,0:0:0:0:
304,296,27496,1,2,0:0:0:0:
208,296,27855,2,0,P|152:296|64:184,1,200,0|0,0:0|0:0,0:0:0:0:
116,108,28933,6,0,B|208:56|208:56|316:56,1,200,2|0,0:0|0:0,0:0:0:0:
448,192,30370,2,0,L|408:296,1,99.9999999999999,2|0,0:0|0:0,0:0:0:0:
336,352,31088,1,0,0:0:0:0:
256,292,31448,1,0,0:0:0:0:
176,352,31807,6,0,L|64:168,1,200,2|0,0:0|0:0,0:0:0:0:
212,36,33244,2,0,B|256:60|256:60|308:32,1,99.9999999999999,2|0,0:0|0:0,0:0:0:0:
400,36,33963,2,0,L|452:132,1,99.9999999999999,0|0,0:0|0:0,0:0:0:0:
468,220,34681,54,0,P|468:280|344:340,1,200,2|0,0:0|0:0,0:0:0:0:
188,240,36118,1,2,0:0:0:0:
256,192,37017,12,0,38544,0:0:0:0:
52,324,40430,37,4,1:2:0:0:
140,280,40789,2,0,P|240:280|308:208,1,200,0|0,0:0|0:0,0:0:0:0:
400,244,41867,1,2,0:0:0:0:
456,164,42226,2,0,L|284:56,1,200,0|0,0:0|0:0,0:0:0:0:
196,16,43304,6,0,B|96:16|96:16|20:88,1,200,2|2,0:0|0:0,0:0:0:0:
76,168,44382,1,0,0:0:0:0:
140,244,44741,2,0,B|212:244|212:244|268:272|268:272|336:272,1,200,2|2,0:0|0:0,0:0:0:0:
392,192,45819,1,0,0:0:0:0:
333,112,46178,6,0,B|268:112|268:112|212:140|212:140|140:140,1,200,2|2,0:0|0:0,0:0:0:0:
40,140,47256,1,0,0:0:0:0:
40,240,47615,1,2,0:0:0:0:
40,340,47975,2,0,P|140:340|208:264,1,200,0|0,0:0|0:0,0:0:0:0:
306,271,49053,54,0,P|374:341|472:340,2,200,2|2|2,0:0|0:0|0:0,0:0:0:0:
356,184,50849,1,0,0:0:0:0:
307,96,51208,1,2,0:0:0:0:
205,96,51567,1,0,0:0:0:0:
156,184,51927,38,0,B|156:276|156:276|80:368,2,200,4|2|2,1:2|0:0|0:0,0:0:0:0:
204,96,53723,1,8,0:0:0:0:
272,20,54082,2,0,P|320:20|380:64,1,99.9999999999999,2|8,0:0|0:0,0:0:0:0:
428,120,54801,6,0,L|344:324,1,200,2|2,0:0|0:0,0:0:0:0:
256,340,55879,1,8,0:0:0:0:
160,304,56238,2,0,L|104:172,1,99.9999999999999,2|8,0:0|0:0,0:0:0:0:
160,120,56957,1,2,0:0:0:0:
208,32,57316,1,8,0:0:0:0:
304,32,57675,6,0,P|360:32|448:144,2,200,2|2|2,0:0|0:0|0:0,0:0:0:0:
256,120,59472,2,0,L|256:236,1,99.9999999999999,8|2,0:0|0:0,0:0:0:0:
308,308,60190,1,8,0:0:0:0:
204,308,60550,54,0,P|140:308|48:176,2,200,2|2|2,0:0|0:0|0:0,0:0:0:0:
256,224,62346,1,8,0:0:0:0:
320,144,62705,1,2,0:0:0:0:
256,68,63064,1,8,0:0:0:0:
192,144,63424,38,0,L|92:144,1,99.9999999999999,0|8,0:0|0:0,0:0:0:0:
40,228,64142,1,0,0:0:0:0:
92,316,64502,1,8,0:0:0:0:
192,316,64861,2,0,B|244:316|244:316|288:288,1,99.9999999999999,0|8,0:0|0:0,0:0:0:0:
368,236,65579,1,0,0:0:0:0:
452,180,65939,6,0,L|392:100,1,99.9999999999999,8|0,0:0|0:0,0:0:0:0:
308,48,66657,1,8,0:0:0:0:
204,48,67017,2,0,P|152:48|112:72,1,99.9999999999999,0|8,0:0|0:0,0:0:0:0:
80,168,67735,2,0,P|132:168|172:144,1,99.9999999999999,0|8,0:0|0:0,0:0:0:0:
256,200,68454,1,0,0:0:0:0:
340,144,68813,1,8,0:0:0:0:
424,200,69172,6,0,P|449:243|448:293,1,99.9999999999999,0|8,0:0|0:0,0:0:0:0:
376,360,69891,1,0,0:0:0:0:
340,268,70250,1,8,0:0:0:0:
243,291,70609,54,0,P|191:291|151:263,1,99.9999999999999,0|8,0:0|0:0,0:0:0:0:
68,212,71328,1,0,0:0:0:0:
124,128,71687,1,8,0:0:0:0:
256,192,72047,12,4,74921,0:0:0:0:
256,192,79591,38,0,P|296:192|344:228,1,99.9999999999999,2|0,0:0|0:0,0:0:0:0:
308,320,80310,1,2,0:0:0:0:
204,320,80669,6,0,P|132:320|60:216,1,200,4|2,0:0|0:0,0:0:0:0:
79,126,81747,1,8,0:0:0:0:
112,32,82106,2,0,B|164:32|164:32|220:60,1,99.9999999999999,2|8,0:0|0:0,0:0:0:0:
305,53,82825,2,0,B|348:32|348:32|400:32,1,99.9999999999999,0|8,0:0|0:0,0:0:0:0:
468,104,83544,6,0,B|468:208|468:208|396:296,1,200,2|2,0:0|0:0,0:0:0:0:
312,312,84621,1,10,0:0:0:0:
112,312,85340,2,0,P|64:294|32:257,1,99.9999999999999,8|0,0:0|0:0,0:0:0:0:
88,172,86059,1,8,0:0:0:0:
140,84,86418,54,0,P|192:40|328:40,1,200,2|2,0:0|0:0,0:0:0:0:
384,112,87496,1,8,0:0:0:0:
444,192,87855,2,0,L|388:280,1,99.9999999999999,2|8,0:0|0:0,0:0:0:0:
300,236,88573,2,0,L|244:324,1,99.9999999999999,0|8,0:0|0:0,0:0:0:0:
148,348,89292,6,0,B|84:268|84:268|84:160,2,200,2|2|2,0:0|0:0|0:0,0:0:0:0:
248,348,91088,1,8,0:0:0:0:
348,348,91448,2,0,L|400:260,1,99.9999999999999,0|8,0:0|0:0,0:0:0:0:
440,172,92166,21,2,0:0:0:0:
376,96,92526,1,10,0:0:0:0:
276,96,92885,2,0,P|176:96|104:164,1,200,2|2,0:0|0:0,0:0:0:0:
36,236,93963,6,0,L|112:312,1,99.9999999999999,8|0,0:0|0:0,0:0:0:0:
192,252,94681,1,8,0:0:0:0:
256,328,95041,1,2,0:0:0:0:
320,252,95400,1,10,0:0:0:0:
405,306,95759,2,0,L|476:236,1,99.9999999999999,2|10,0:0|0:0,0:0:0:0:
412,48,96837,6,0,P|360:48|320:76,1,99.9999999999999,8|0,0:0|0:0,0:0:0:0:
256,152,97556,1,8,0:0:0:0:
190,74,97915,2,0,P|149:47|100:48,1,99.9999999999999,2|10,0:0|0:0,0:0:0:0:
60,140,98633,1,2,0:0:0:0:
52,240,98993,2,0,P|93:266|142:266,1,99.9999999999999,10|2,0:0|0:0,0:0:0:0:
208,192,99711,53,8,0:0:0:0:
304,192,100070,1,0,0:0:0:0:
369,266,100430,2,0,P|418:266|460:240,1,99.9999999999999,8|2,0:0|0:0,0:0:0:0:
428,144,101148,6,0,P|364:56|280:56,1,200,10|10,0:0|0:0,0:0:0:0:
184,86,102226,1,4,0:0:0:0:
88,120,102585,2,0,L|128:220,1,99.9999999999999,8|0,0:0|0:0,0:0:0:0:
160,308,103304,1,8,0:0:0:0:
256,276,103663,21,4,0:0:0:0:
352,308,104023,1,10,0:0:0:0:
448,276,104382,2,0,B|448:176|448:176|384:72,1,200,2|2,0:0|0:0,0:0:0:0:
304,48,105460,1,8,0:0:0:0:
208,48,105819,2,0,L|124:112,1,99.9999999999999,0|8,0:0|0:0,0:0:0:0:
44,164,106538,6,0,P|44:232|148:336,1,200,2|2,0:0|0:0,0:0:0:0:
216,372,107615,1,10,0:0:0:0:
368,240,108334,2,0,B|382:192|382:192|368:144,1,99.9999999999999,8|0,0:0|0:0,0:0:0:0:
304,68,109053,1,8,0:0:0:0:
208,68,109412,5,2,0:0:0:0:
144,144,109771,2,0,B|130:192|130:192|144:240,1,99.9999999999999,10|2,0:0|0:0,0:0:0:0:
216,308,110490,1,10,0:0:0:0:
412,348,111208,2,0,P|452:252|400:160,1,200,8|8,0:0|0:0,0:0:0:0:
344,100,112286,54,0,B|256:52|256:52|160:104,1,200,2|2,0:0|0:0,0:0:0:0:
136,192,113364,1,10,0:0:0:0:
168,284,113723,2,0,B|256:332|256:332|344:284,1,200,2|0,0:0|0:0,0:0:0:0:
376,192,114801,1,8,0:0:0:0:
343,100,115160,38,0,P|294:100|253:73,1,99.9999999999999,2|10,0:0|0:0,0:0:0:0:
164,32,115879,1,2,0:0:0:0:
76,76,116238,2,0,B|76:176|76:176|136:260,1,200,10|8,0:0|0:0,0:0:0:0:
192,340,117316,1,0,0:0:0:0:
256,264,117675,1,8,0:0:0:0:
320,340,118035,6,0,B|372:340|372:340|412:312,1,99.9999999999999,2|10,0:0|0:0,0:0:0:0:
492,256,118753,1,2,0:0:0:0:
492,156,119112,2,0,P|392:156|320:92,1,200,10|8,0:0|0:0,0:0:0:0:
252,20,120190,2,0,P|200:20|160:48,1,99.9999999999999,0|8,0:0|0:0,0:0:0:0:
80,104,120909,5,4,0:0:0:0:
32,192,121268,1,8,0:0:0:0:
80,280,121627,1,0,0:0:0:0:
161,337,121987,2,0,P|202:364|252:364,1,99.9999999999999,8|4,0:0|0:0,0:0:0:0:
344,324,122705,53,8,0:0:0:0:
432,276,123064,2,0,L|376:188,1,99.9999999999999,0|8,0:0|0:0,0:0:0:0:
280,196,123783,2,0,L|224:108,1,99.9999999999999,4|8,0:0|0:0,0:0:0:0:
164,32,124502,1,4,0:0:0:0:
80,84,124861,1,8,0:0:0:0:
140,164,125220,1,4,0:0:0:0:
227,112,125579,6,0,L|311:52,1,99.9999999999999,12|4,0:0|0:0,0:0:0:0:
380,124,126298,1,12,0:0:0:0:
456,192,126657,22,0,B|456:284|456:284|376:364,1,200,4|2,0:0|0:0,0:0:0:0:
280,360,127735,2,0,P|196:360|96:276,1,200,10|10,0:0|0:0,0:0:0:0:
104,192,128813,2,0,L|176:88,1,99.9999999999999,2|10,0:0|0:0,0:0:0:0:
256,76,129532,6,0,P|312:76|408:180,2,200,2|2|2,0:0|0:0|0:0,0:0:0:0:
256,176,131328,2,0,L|256:276,1,99.9999999999999,10|2,0:0|0:0,0:0:0:0:
172,332,132047,1,10,0:0:0:0:
76,364,132406,6,0,P|28:320|28:184,1,200,2|2,0:0|0:0,0:0:0:0:
88,116,133484,2,0,L|168:52,1,99.9999999999999,10|2,0:0|0:0,0:0:0:0:
256,100,134202,1,10,0:0:0:0:
345,53,134562,2,0,L|424:116,1,99.9999999999999,2|10,0:0|0:0,0:0:0:0:
488,192,135280,54,0,P|488:256|360:296,1,200,2|2,0:0|0:0,0:0:0:0:
300,240,136358,2,0,B|256:216|256:216|204:244,1,99.9999999999999,10|2,0:0|0:0,0:0:0:0:
135,304,137076,2,0,P|42:284|24:192,1,200,10|10,0:0|0:0,0:0:0:0:
108,136,138154,38,0,L|194:85,1,99.9999999999999,2|10,0:0|0:0,0:0:0:0:
284,44,138873,1,2,0:0:0:0:
376,84,139232,2,0,B|376:184|376:184|316:268,1,200,10|10,0:0|0:0,0:0:0:0:
256,344,140310,1,2,0:0:0:0:
192,264,140669,6,0,B|140:264|140:264|96:236,1,99.9999999999999,10|2,0:0|0:0,0:0:0:0:
12,184,141388,1,10,0:0:0:0:
92,120,141747,1,2,0:0:0:0:
176,64,142106,2,0,B|244:64|244:64|292:88|292:88|372:88,1,200,10|10,0:0|0:0,0:0:0:0:
444,156,143184,2,0,L|372:228,1,99.9999999999999,2|10,0:0|0:0,0:0:0:0:
272,232,143903,6,0,L|201:302,1,99.9999999999999,2|10,0:0|0:0,0:0:0:0:
124,368,144621,1,2,0:0:0:0:
48,304,144981,2,0,P|48:204|116:136,1,200,10|10,0:0|0:0,0:0:0:0:
208,100,146059,1,2,0:0:0:0:
304,68,146418,54,0,P|356:68|392:96,1,99.9999999999999,10|2,0:0|0:0,0:0:0:0:
436,188,147136,2,0,B|436:292|436:292|376:368,1,200,10|10,0:0|0:0,0:0:0:0:
276,336,148214,2,0,L|184:292,1,99.9999999999999,4|2,0:0|0:0,0:0:0:0:
88,256,148933,1,2,0:0:0:0:
128,164,149292,1,10,0:0:0:0:
224,196,149651,38,0,B|316:144|316:144|420:144,1,200,4|2,0:0|0:0,0:0:0:0:
480,216,150729,2,0,L|320:360,1,200,10|10,0:0|0:0,0:0:0:0:
256,284,151807,1,2,0:0:0:0:
180,348,152166,1,10,0:0:0:0:
104,284,152526,6,0,P|60:240|60:104,1,200,2|2,0:0|0:0,0:0:0:0:
140,52,153603,2,0,B|208:52|208:52|280:80|280:80|356:80,2,200,10|10|10,0:0|0:0|0:0,0:0:0:0:
80,132,155400,6,0,B|80:236|80:236|148:308,1,200,2|2,0:0|0:0,0:0:0:0:
212,232,156478,2,0,B|255:208|255:208|299:232,1,99.9999999999999,10|2,0:0|0:0,0:0:0:0:
366,305,157196,2,0,B|432:236|432:236|432:132,1,200,10|10,0:0|0:0,0:0:0:0:
372,52,158274,54,0,P|272:52|192:140,2,200,2|2|2,0:0|0:0|0:0,0:0:0:0:
372,152,160070,2,0,L|324:268,1,99.9999999999999,10|2,0:0|0:0,0:0:0:0:
256,308,160789,1,10,0:0:0:0:
178,244,161148,38,0,P|116:164|116:68,1,200,4|2,0:0|0:0,0:0:0:0:
200,16,162226,1,10,0:0:0:0:
256,100,162585,1,2,0:0:0:0:
312,16,162945,2,0,B|364:16|364:16|408:40,1,99.9999999999999,10|2,0:0|0:0,0:0:0:0:
484,100,163663,1,10,0:0:0:0:
412,168,164023,6,0,B|412:268|412:268|356:352,1,200,2|2,0:0|0:0,0:0:0:0:
256,352,165100,2,0,P|204:352|164:328,1,99.9999999999999,10|2,0:0|0:0,0:0:0:0:
76,280,165819,1,10,0:0:0:0:
28,192,166178,1,2,0:0:0:0:
76,104,166538,1,10,0:0:0:0:
163,56,166897,6,0,P|206:31|256:32,1,99.9999999999999,4|8,0:0|0:0,0:0:0:0:
356,32,167615,2,0,B|412:116|412:116|412:216,1,200,0|4,0:0|0:0,0:0:0:0:
344,288,168693,1,8,0:0:0:0:
256,340,169053,1,0,0:0:0:0:
168,288,169412,1,8,0:0:0:0:
204,196,169771,2,0,B|204:140|256:119|256:119|308:140|308:196,1,200,4|4,0:0|0:0,0:0:0:0:
256,192,171208,12,4,172645,0:0:0:0:
