osu file format v13

[General]
AudioFilename: BlackY - Merry Christmas Mr.Lawrence -2012 BlackY's XmasCoreStyle-.mp3
AudioLeadIn: 0
PreviewTime: 79502
Countdown: 0
SampleSet: Normal
StackLeniency: 0.6
Mode: 0
LetterboxInBreaks: 0
EpilepsyWarning: 1
WidescreenStoryboard: 1

[Editor]
DistanceSpacing: 1
BeatDivisor: 4
GridSize: 4
TimelineZoom: 0.9

[Metadata]
Title:Merry Christmas Mr.Lawrence -2012 BlackY's XmasCoreStyle-
TitleUnicode:Merry Christmas Mr.Lawrence -2012 BlackY's XmasCoreStyle-
Artist:Sakamoto Ryuichi
ArtistUnicode:坂本 龍一
Creator:Andrea
Version:Insane
Source:
Tags:osuplayer111 Gero Inyuschan Holiday Remix Collaboration
BeatmapID:539522
BeatmapSetID:232342

[Difficulty]
HPDrainRate:7
CircleSize:4
OverallDifficulty:8
ApproachRate:9
SliderMultiplier:1.8
SliderTickRate:1

[Events]
//Background and Video events
0,0,"BG.jpg",0,0
//Break Periods
2,14761,25459
2,75121,78991
//Storyboard Layer 0 (Background)
//Storyboard Layer 1 (Fail)
//Storyboard Layer 2 (Pass)
//Storyboard Layer 3 (Foreground)
//Storyboard Sound Samples
//Background Colour Transformations
3,100,192,192,192

[TimingPoints]
3065,359.281437125748,4,1,1,80,1,0
13888,-100,4,1,1,50,0,0
14202,-100,4,1,1,80,0,0
14247,-100,4,1,1,50,0,0
14562,-100,4,1,1,80,0,0
26059,-100,4,2,1,60,0,0
37017,-100,4,2,1,40,0,0
37915,-100,4,2,1,20,0,0
38274,-100,4,2,1,10,0,0
38544,-100,4,2,1,5,0,0
40430,-100,4,2,1,60,0,0
63424,-100,4,1,1,40,0,0
67017,-100,4,1,1,50,0,0
69172,-100,4,1,1,60,0,0
79591,-100,4,2,1,60,0,0
80669,-100,4,1,1,80,0,1
80759,-100,4,1,1,80,0,0
102226,-100,4,1,1,60,0,0
102945,-100,4,1,1,70,0,0
103304,-100,4,1,1,75,0,0
103663,-100,4,1,1,80,0,1
103753,-100,4,1,1,80,0,0
126657,-100,4,1,1,80,0,1
148214,-94.3396226415094,4,1,1,80,0,1
148573,-100,4,1,1,80,0,1
148933,-100,4,1,1,60,0,1
149292,-100,4,1,1,70,0,1
149472,-100,4,1,1,75,0,1
149562,-100,4,1,1,75,0,0
149651,-100,4,1,1,80,0,1
161148,-100,4,1,1,80,0,0
161328,-100,4,2,1,60,0,0
166897,-100,4,1,1,80,0,0

[Colours]
Combo1 : 170,0,85
Combo2 : 255,43,43
Combo3 : 0,213,213
Combo4 : 85,85,255
Combo5 : 213,213,0
Combo6 : 0,170,0

[HitObjects]
176,92,3065,6,0,P|128:92|92:116,1,90,4|0,0:0|0:0,0:0:0:0:
93,269,3424,2,0,P|131:293|176:292,1,90
336,90,3783,2,0,P|380:90|418:114,1,90
417,269,4142,2,0,P|380:292|336:292,1,90
256,48,4502,5,0,0:0:0:0:
256,48,4681,1,0,0:0:0:0:
256,336,4861,1,0,0:0:0:0:
256,336,5041,1,0,0:0:0:0:
192,192,5220,2,0,L|100:192,1,90
320,192,5579,2,0,L|412:192,1,90
192,104,5939,6,0,L|104:56,1,90
320,280,6298,2,0,L|408:328,1,90
320,104,6657,2,0,L|408:56,1,90
192,280,7017,2,0,L|104:328,1,90
52,192,7376,5,0,0:0:0:0:
52,192,7556,1,0,0:0:0:0:
256,48,7735,1,0,0:0:0:0:
256,48,7915,1,0,0:0:0:0:
460,192,8094,1,0,0:0:0:0:
460,192,8274,1,0,0:0:0:0:
256,336,8454,1,0,0:0:0:0:
256,192,8633,1,0,0:0:0:0:
256,192,8723,1,0,0:0:0:0:
256,192,8813,6,0,L|164:192,1,90,4|0,0:0|0:0,0:0:0:0:
256,48,9172,2,0,L|360:48,1,90
256,336,9532,2,0,L|152:336,1,90
52,192,9891,1,0,0:0:0:0:
52,192,10070,1,0,0:0:0:0:
256,48,10250,5,4,0:0:0:0:
256,48,10430,1,0,0:0:0:0:
460,192,10609,1,0,0:0:0:0:
460,192,10789,2,0,L|460:284,1,90
52,192,11148,1,0,0:0:0:0:
52,192,11328,2,0,L|52:100,1,90
256,48,11687,5,4,0:0:0:0:
256,64,11777,1,0,0:0:0:0:
256,80,11867,1,0,0:0:0:0:
256,96,11957,1,0,0:0:0:0:
256,112,12047,1,0,0:0:0:0:
256,128,12136,1,0,0:0:0:0:
256,144,12226,1,0,0:0:0:0:
256,160,12316,1,0,0:0:0:0:
256,176,12406,5,4,0:0:0:0:
256,192,12496,1,0,0:0:0:0:
256,208,12585,1,0,0:0:0:0:
256,224,12675,1,0,0:0:0:0:
256,240,12765,1,0,0:0:0:0:
256,256,12855,1,0,0:0:0:0:
256,272,12945,1,0,0:0:0:0:
256,288,13035,1,0,0:0:0:0:
256,304,13124,5,4,0:0:0:0:
448,192,13304,1,0,0:0:0:0:
448,192,13394,1,0,0:0:0:0:
448,192,13484,1,0,0:3:0:0:
256,80,13663,1,0,0:0:0:0:
64,192,13843,2,0,L|24:192,16,22.5,0|0|0|0|0|0|0|0|8|0|0|0|0|0|0|0|4,0:0|0:0|0:0|0:0|0:0|0:0|0:0|0:0|0:0|0:0|0:0|0:0|0:0|0:0|0:0|0:0|0:0,0:0:0:0:
96,112,26059,5,2,0:0:0:0:
172,64,26238,1,0,0:0:0:0:
256,36,26418,1,0,0:0:0:0:
340,64,26597,1,0,0:0:0:0:
416,112,26777,1,0,0:0:0:0:
256,192,27496,1,2,0:0:0:0:
308,344,27855,6,0,L|356:260,1,90
204,344,28214,2,0,L|156:260,1,90
256,192,28573,1,0,0:0:0:0:
180,144,28753,1,0,0:0:0:0:
212,60,28933,1,2,0:0:0:0:
300,60,29112,1,0,0:0:0:0:
332,144,29292,1,0,0:0:0:0:
256,192,29472,1,0,0:0:0:0:
256,192,29651,1,0,0:0:0:0:
256,192,30370,5,2,0:0:0:0:
348,348,30729,1,0,0:0:0:0:
164,348,31088,2,0,L|72:348,2,90,0|0|0,0:0|0:0|0:0,0:0:0:0:
188,124,31807,6,0,P|172:80|188:40,1,90,2|0,0:0|0:0,0:0:0:0:
325,41,32166,2,0,P|340:82|324:124,1,90
256,80,32526,1,0,0:0:0:0:
256,344,33244,1,2,0:0:0:0:
144,200,33603,6,0,L|88:128,1,90
256,80,33963,2,0,L|256:172,1,90
368,200,34322,2,0,L|424:128,1,90
360,44,34681,1,2,0:0:0:0:
256,172,34861,1,0,0:0:0:0:
152,44,35041,1,0,0:0:0:0:
256,80,35220,1,0,0:0:0:0:
256,80,35400,1,0,0:0:0:0:
256,344,36118,1,2,0:0:0:0:
256,192,37017,12,0,38544,0:0:0:0:
68,48,40430,5,4,1:2:0:0:
96,132,40609,1,0,0:0:0:0:
160,68,40789,1,0,0:0:0:0:
444,48,41148,1,2,0:0:0:0:
416,132,41328,1,0,0:0:0:0:
352,68,41508,1,0,0:0:0:0:
212,184,41867,6,0,L|172:268,1,90,2|0,0:0|0:0,0:0:0:0:
256,360,42226,2,0,L|256:268,1,90,0|0,0:0|0:0,0:0:0:0:
300,184,42585,2,0,L|340:268,1,90,2|0,0:0|0:0,0:0:0:0:
424,236,42945,1,0,0:0:0:0:
256,108,43124,1,0,0:0:0:0:
88,236,43304,5,2,0:0:0:0:
36,164,43484,1,0,0:0:0:0:
88,92,43663,1,0,0:0:0:0:
424,92,44023,1,2,0:0:0:0:
476,164,44202,1,0,0:0:0:0:
424,236,44382,1,0,0:0:0:0:
216,56,44741,6,0,P|172:56|136:28,1,90,2|0,0:0|0:0,0:0:0:0:
296,56,45100,2,0,P|340:56|376:28,1,90
256,124,45460,2,0,L|256:220,1,90,2|0,0:0|0:0,0:0:0:0:
332,264,45819,1,0,0:0:0:0:
256,364,45999,1,0,0:0:0:0:
180,264,46178,5,2,0:0:0:0:
128,192,46358,1,0,0:0:0:0:
72,124,46538,1,0,0:0:0:0:
440,124,46897,1,2,0:0:0:0:
384,192,47076,1,0,0:0:0:0:
332,264,47256,1,0,0:0:0:0:
356,80,47615,6,0,L|300:160,1,90,2|0,0:0|0:0,0:0:0:0:
156,80,47975,2,0,L|212:160,1,90
256,76,48334,1,2,0:0:0:0:
256,228,48514,1,0,0:0:0:0:
300,304,48693,1,0,0:0:0:0:
212,304,48873,1,0,0:0:0:0:
72,228,49053,5,2,0:0:0:0:
120,304,49232,1,0,0:0:0:0:
164,228,49412,1,0,0:0:0:0:
440,228,49771,1,2,0:0:0:0:
392,304,49951,1,0,0:0:0:0:
348,228,50130,1,0,0:0:0:0:
384,52,50490,6,0,P|336:52|300:72,1,90,2|0,0:0|0:0,0:0:0:0:
264,248,50849,2,0,P|312:248|348:228,1,90
224,92,51208,2,0,P|176:92|140:112,1,90,2|0,0:0|0:0,0:0:0:0:
104,296,51567,2,0,P|152:296|188:276,1,90
348,228,51927,6,0,L|428:284,1,90,4|0,1:2|0:0,0:0:0:0:
404,136,52286,2,0,L|324:80,1,90,8|0,0:0|0:0,0:0:0:0:
256,36,52645,2,0,B|192:36|192:36|148:60|148:60|80:60,2,180,2|8|2,0:0|0:0|0:0,0:0:0:0:
36,148,53723,6,0,L|100:216,1,90,8|0,0:0|0:0,0:0:0:0:
332,344,54082,2,0,L|268:276,1,90,2|0,0:0|0:0,0:0:0:0:
208,212,54442,1,8,0:0:0:0:
256,136,54621,1,0,0:0:0:0:
304,60,54801,6,0,L|388:104,1,90,2|0,0:0|0:0,0:0:0:0:
256,136,55160,2,0,L|172:92,1,90,8|0,0:0|0:0,0:0:0:0:
92,56,55520,1,2,0:0:0:0:
256,344,55879,1,8,0:0:0:0:
420,56,56238,1,2,0:0:0:0:
180,144,56597,6,0,P|256:102|331:144,1,180,8|2,0:0|0:0,0:0:0:0:
256,192,57136,1,0,0:0:0:0:
256,192,57316,1,8,0:0:0:0:
416,276,57675,5,2,0:0:0:0:
340,324,57855,1,0,0:0:0:0:
256,352,58035,1,8,0:0:0:0:
172,324,58214,1,0,0:0:0:0:
96,276,58394,2,0,L|156:100,1,180,2|8,0:0|0:0,0:0:0:0:
357,105,59112,6,0,L|416:276,1,180,2|8,0:0|0:0,0:0:0:0:
340,324,59651,2,0,L|308:240,1,90,0|2,0:0|0:0,0:0:0:0:
172,324,60011,2,0,L|204:240,1,90,0|8,0:0|0:0,0:0:0:0:
256,164,60370,1,0,0:0:0:0:
212,84,60550,6,0,B|168:84|168:84|128:60,1,90,2|0,0:0|0:0,0:0:0:0:
300,84,60909,2,0,B|344:84|344:84|384:60,1,90,8|0,0:0|0:0,0:0:0:0:
472,60,61268,2,0,P|428:123|384:60,1,180,2|8,0:0|0:0,0:0:0:0:
40,60,61987,2,0,P|84:123|128:60,1,180,2|8,0:0|0:0,0:0:0:0:
212,84,62526,1,0,0:0:0:0:
300,84,62705,2,0,L|368:144,1,90,2|0,0:0|0:0,0:0:0:0:
396,352,63064,2,0,L|328:292,1,90,8|0,0:0|0:0,0:0:0:0:
256,240,63424,5,0,0:0:0:0:
128,136,63783,1,8,0:0:0:0:
256,32,64142,1,0,0:0:0:0:
384,136,64502,1,8,0:0:0:0:
256,216,64861,5,0,0:0:0:0:
152,136,65220,1,8,0:0:0:0:
256,56,65579,1,0,0:0:0:0:
360,136,65939,1,8,0:0:0:0:
152,336,66298,5,0,0:0:0:0:
360,336,66657,1,8,0:0:0:0:
152,136,67017,5,0,0:0:0:0:
152,136,67196,1,0,0:0:0:0:
256,56,67376,1,8,0:0:0:0:
256,56,67556,1,0,0:0:0:0:
360,136,67735,5,0,0:0:0:0:
360,136,67915,1,0,0:0:0:0:
256,216,68094,1,8,0:0:0:0:
256,216,68274,1,0,0:0:0:0:
152,336,68454,5,0,0:0:0:0:
152,336,68633,1,0,0:0:0:0:
360,336,68813,1,8,0:0:0:0:
360,336,68993,1,0,0:0:0:0:
256,216,69172,5,0,0:0:0:0:
233,215,69262,1,0,0:0:0:0:
211,210,69352,1,0,0:0:0:0:
190,203,69442,1,0,0:0:0:0:
170,192,69532,1,8,0:0:0:0:
152,178,69621,1,0,0:0:0:0:
136,162,69711,1,0,0:0:0:0:
123,144,69801,1,0,0:0:0:0:
112,124,69891,2,0,L|64:124,7,45,0|0|0|0|8|0|0|0,0:0|0:0|0:0|0:0|0:0|0:0|0:0|0:0,0:0:0:0:
176,60,70609,5,0,0:0:0:0:
198,60,70699,1,0,0:0:0:0:
220,65,70789,1,0,0:0:0:0:
241,72,70879,1,0,0:0:0:0:
261,83,70969,1,8,0:0:0:0:
279,97,71059,1,0,0:0:0:0:
295,113,71148,1,0,0:0:0:0:
308,131,71238,1,0,0:0:0:0:
320,152,71328,2,0,L|368:152,7,45,0|0|0|0|8|0|0|0,0:0|0:0|0:0|0:0|0:0|0:0|0:0|0:0,0:0:0:0:
280,248,72047,5,0,0:0:0:0:
279,270,72136,1,0,0:0:0:0:
273,292,72226,1,0,0:0:0:0:
263,311,72316,1,0,0:0:0:0:
247,328,72406,1,8,0:0:0:0:
228,340,72496,1,0,0:0:0:0:
207,347,72585,1,0,0:0:0:0:
186,351,72675,1,0,0:0:0:0:
164,346,72765,2,0,L|137:334,4,22.5,0|0|0|0|0,0:0|0:0|0:0|0:0|0:0,0:0:0:0:
68,260,73124,5,8,0:0:0:0:
51,245,73214,1,0,0:0:0:0:
38,226,73304,1,0,0:0:0:0:
29,206,73394,1,0,0:0:0:0:
28,184,73484,2,0,L|36:144,4,22.5,0|0|0|0|0,0:0|0:0|0:0|0:0|0:0,0:0:0:0:
108,84,73843,5,8,0:0:0:0:
123,67,73933,1,0,0:0:0:0:
144,56,74023,2,0,L|172:48,4,22.5,0|0|0|0|0,0:0|0:0|0:0|0:0|0:0,0:0:0:0:
272,56,74382,5,0,0:0:0:0:
292,66,74472,1,0,0:0:0:0:
312,76,74562,2,0,L|348:96,8,22.5,8|0|0|0|0|0|0|0|4,0:0|0:0|0:0|0:0|0:0|0:0|0:0|0:0|0:0,0:0:0:0:
180,72,79591,6,0,B|256:24|256:24|332:72,1,180,2|0,0:0|0:0,0:0:0:0:
256,124,80130,1,0,0:0:0:0:
256,124,80310,1,2,0:0:0:0:
128,252,80669,6,0,L|56:316,1,90,4|0,0:0|0:0,0:0:0:0:
256,328,81029,2,0,L|328:264,1,90,10|0,0:0|0:0,0:0:0:0:
392,212,81388,2,0,B|392:120|392:120|444:44,2,180,2|10|2,0:0|0:0|0:0,0:0:0:0:
256,92,82466,6,0,L|180:40,1,90,8|0,0:0|0:0,0:0:0:0:
208,248,82825,2,0,L|284:300,1,90
360,348,83184,1,8,0:0:0:0:
412,276,83364,1,0,0:0:0:0:
340,224,83544,2,0,L|396:148,1,90,2|0,0:0|0:0,0:0:0:0:
308,20,83903,2,0,L|252:96,1,90,10|0,0:0|0:0,0:0:0:0:
192,160,84262,2,0,P|100:160|32:108,2,180,2|10|2,0:0|0:0|0:0,0:0:0:0:
280,316,85340,6,0,B|352:316|388:276|388:276|452:276,1,180,8|0,0:0|0:0,0:0:0:0:
484,192,85879,1,0,0:0:0:0:
449,108,86059,2,0,B|388:108|388:108|352:68|280:68,1,180,8|2,0:0|0:0,0:0:0:0:
196,32,86597,2,0,L|124:92,1,90,0|10,0:0|0:0,0:0:0:0:
56,148,86957,1,0,0:0:0:0:
120,212,87136,2,0,P|212:212|276:268,1,180,2|10,0:0|0:0,0:0:0:0:
448,108,87855,6,0,P|356:108|292:52,1,180,2|8,0:0|0:0,0:0:0:0:
204,32,88394,2,0,L|132:88,1,90
48,268,88753,2,0,L|120:212,1,90,0|8,0:0|0:0,0:0:0:0:
192,160,89112,1,0,0:0:0:0:
248,232,89292,2,0,P|292:232|332:256,1,90,2|0,0:0|0:0,0:0:0:0:
448,108,89651,2,0,P|404:108|364:84,1,90,10|0,0:0|0:0,0:0:0:0:
292,32,90011,2,0,B|224:32|224:32|184:56|184:56|116:56,1,180,2|10,0:0|0:0,0:0:0:0:
220,352,90729,6,0,B|288:352|288:352|328:328|328:328|396:328,2,180,2|8|0,0:0|0:0|0:0,0:0:0:0:
148,296,91627,1,0,0:0:0:0:
84,232,91807,2,0,B|84:140|84:140|128:64,1,180,8|2,0:0|0:0,0:0:0:0:
208,24,92346,2,0,P|252:24|292:48,1,90,0|10,0:0|0:0,0:0:0:0:
356,108,92705,1,0,0:0:0:0:
424,48,92885,2,0,L|284:172,2,180,2|10|2,0:0|0:0|0:0,0:0:0:0:
396,308,93963,6,0,L|340:236,1,90,8|0,0:0|0:0,0:0:0:0:
116,76,94322,2,0,L|172:148,1,90
224,220,94681,1,8,0:0:0:0:
148,268,94861,2,0,L|68:328,1,90,0|2,0:0|0:0,0:0:0:0:
244,104,95220,2,0,L|324:44,1,90,0|10,0:0|0:0,0:0:0:0:
376,116,95579,1,0,0:0:0:0:
437,184,95759,2,0,L|313:48,1,180,2|10,0:0|0:0,0:0:0:0:
75,200,96478,6,0,L|199:336,2,180,2|8|0,0:0|0:0|0:0,0:0:0:0:
16,132,97376,1,0,0:0:0:0:
76,64,97556,2,0,B|140:64|140:64|180:88|180:88|252:88,1,180,8|2,0:0|0:0,0:0:0:0:
316,28,98094,2,0,L|396:80,1,90,0|10,0:0|0:0,0:0:0:0:
464,132,98454,1,0,0:0:0:0:
464,132,98633,2,0,P|464:224|408:292,1,180,2|10,0:0|0:0,0:0:0:0:
48,132,99352,6,0,P|48:224|104:292,1,180,2|8,0:0|0:0,0:0:0:0:
176,340,99891,1,0,0:0:0:0:
256,300,100070,1,0,0:0:0:0:
336,340,100250,1,0,0:0:0:0:
336,248,100430,2,0,L|384:172,1,90,8|0,0:0|0:0,0:0:0:0:
256,132,100789,2,0,L|256:40,1,90,2|0,0:0|0:0,0:0:0:0:
176,248,101148,2,0,L|128:172,1,90,10|0,0:0|0:0,0:0:0:0:
176,96,101508,2,0,B|236:96|256:64|256:64|276:96|336:96,1,180,2|10,0:0|0:0,0:0:0:0:
256,192,102047,1,0,0:0:0:0:
256,300,102226,5,4,0:0:0:0:
278,304,102316,1,0,0:0:0:0:
300,304,102406,1,0,0:0:0:0:
322,300,102496,1,0,0:0:0:0:
343,292,102585,1,8,0:0:0:0:
362,280,102675,1,0,0:0:0:0:
378,265,102765,1,0,0:0:0:0:
391,246,102855,1,0,0:0:0:0:
401,226,102945,2,0,L|446:226,3,45,0|0|0|0,0:0|0:0|0:0|0:0,0:0:0:0:
384,132,103304,5,8,0:0:0:0:
384,132,103394,1,0,0:0:0:0:
384,132,103484,1,0,0:0:0:0:
384,132,103573,1,0,0:0:0:0:
384,132,103663,6,0,L|456:68,1,90,4|0,0:0|0:0,0:0:0:0:
256,56,104023,2,0,L|184:120,1,90,10|0,0:0|0:0,0:0:0:0:
120,172,104382,2,0,B|120:264|120:264|68:340,2,180,2|10|2,0:0|0:0|0:0,0:0:0:0:
256,292,105460,6,0,L|332:344,1,90,8|0,0:0|0:0,0:0:0:0:
304,136,105819,2,0,L|228:84,1,90
152,36,106178,1,8,0:0:0:0:
100,108,106358,1,0,0:0:0:0:
172,160,106538,2,0,L|116:236,1,90,2|0,0:0|0:0,0:0:0:0:
204,364,106897,2,0,L|260:288,1,90,10|0,0:0|0:0,0:0:0:0:
320,224,107256,2,0,P|412:224|480:276,2,180,2|10|2,0:0|0:0|0:0,0:0:0:0:
232,68,108334,6,0,B|160:68|124:108|124:108|60:108,1,180,8|0,0:0|0:0,0:0:0:0:
28,192,108873,1,0,0:0:0:0:
62,276,109053,2,0,B|124:276|124:276|160:316|232:316,1,180,8|2,0:0|0:0,0:0:0:0:
316,352,109591,2,0,L|388:292,1,90,0|10,0:0|0:0,0:0:0:0:
456,236,109951,1,0,0:0:0:0:
392,172,110130,2,0,P|300:172|236:116,1,180,2|10,0:0|0:0,0:0:0:0:
64,276,110849,6,0,P|156:276|220:332,1,180,2|8,0:0|0:0,0:0:0:0:
308,352,111388,2,0,L|380:296,1,90
464,116,111747,2,0,L|392:172,1,90,0|8,0:0|0:0,0:0:0:0:
320,224,112106,1,0,0:0:0:0:
264,152,112286,2,0,P|220:152|180:128,1,90,2|0,0:0|0:0,0:0:0:0:
64,276,112645,2,0,P|108:276|148:300,1,90,10|0,0:0|0:0,0:0:0:0:
220,352,113005,2,0,B|288:352|288:352|328:328|328:328|396:328,1,180,2|10,0:0|0:0,0:0:0:0:
292,32,113723,6,0,B|224:32|224:32|184:56|184:56|116:56,2,180,2|8|0,0:0|0:0|0:0,0:0:0:0:
364,88,114621,1,0,0:0:0:0:
428,152,114801,2,0,B|428:244|428:244|384:320,1,180,8|2,0:0|0:0,0:0:0:0:
304,360,115340,2,0,P|260:360|220:336,1,90,0|10,0:0|0:0,0:0:0:0:
156,276,115699,1,0,0:0:0:0:
88,336,115879,2,0,L|228:212,2,180,2|10|2,0:0|0:0|0:0,0:0:0:0:
116,76,116957,6,0,L|172:148,1,90,8|0,0:0|0:0,0:0:0:0:
396,308,117316,2,0,L|340:236,1,90
288,164,117675,1,8,0:0:0:0:
364,116,117855,2,0,L|444:56,1,90,0|2,0:0|0:0,0:0:0:0:
268,280,118214,2,0,L|188:340,1,90,0|10,0:0|0:0,0:0:0:0:
136,268,118573,1,0,0:0:0:0:
75,200,118753,2,0,L|199:336,1,180,2|10,0:0|0:0,0:0:0:0:
437,184,119472,2,0,L|313:48,2,180,2|8|0,0:0|0:0|0:0,0:0:0:0:
496,252,120370,1,0,0:0:0:0:
436,320,120550,6,0,B|372:320|372:320|332:296|332:296|260:296,1,180,8|4,0:0|0:0,0:0:0:0:
240,292,120999,1,0,0:0:0:0:
218,285,121088,1,0,0:0:0:0:
198,274,121178,1,0,0:0:0:0:
181,260,121268,1,8,0:0:0:0:
166,243,121358,1,0,0:0:0:0:
154,224,121448,1,0,0:0:0:0:
147,203,121538,1,0,0:0:0:0:
144,180,121627,2,0,L|144:132,7,45,0|0|0|0|8|0|0|0,0:0|0:0|0:0|0:0|0:0|0:0|0:0|0:0,0:0:0:0:
242,53,122346,5,4,0:0:0:0:
262,43,122436,1,0,0:0:0:0:
284,37,122526,1,0,0:0:0:0:
306,35,122615,1,0,0:0:0:0:
328,36,122705,1,8,0:0:0:0:
350,41,122795,1,0,0:0:0:0:
371,49,122885,1,0,0:0:0:0:
391,60,122975,1,0,0:0:0:0:
408,76,123064,2,0,L|456:76,7,45,0|0|0|0|8|0|0|0,0:0|0:0|0:0|0:0|0:0|0:0|0:0|0:0,0:0:0:0:
420,200,123783,5,4,0:0:0:0:
416,222,123873,1,0,0:0:0:0:
410,243,123963,1,0,0:0:0:0:
400,263,124053,1,0,0:0:0:0:
387,282,124142,1,8,0:0:0:0:
371,298,124232,1,0,0:0:0:0:
353,311,124322,1,0,0:0:0:0:
332,321,124412,1,0,0:0:0:0:
312,328,124502,2,0,L|264:328,7,45,4|0|0|0|8|0|0|0,0:0|0:0|0:0|0:0|0:0|0:0|0:0|0:0,0:0:0:0:
166,253,125220,5,4,0:0:0:0:
148,240,125310,1,0,0:0:0:0:
129,227,125400,1,0,0:0:0:0:
110,215,125490,1,0,0:0:0:0:
93,201,125579,2,0,L|57:230,3,45,12|0|0|0,0:0|0:0|0:0|0:0,0:0:0:0:
84,104,125939,2,0,L|44:64,3,45,4|0|0|0,0:0|0:0|0:0|0:0,0:0:0:0:
180,112,126298,2,0,L|216:83,3,45,12|0|0|0,0:0|0:0|0:0|0:0,0:0:0:0:
288,32,126657,5,4,0:0:0:0:
364,112,126837,1,0,0:0:0:0:
364,112,126927,1,0,0:0:0:0:
364,112,127017,2,0,L|428:184,1,90,10|0,0:0|0:0,0:0:0:0:
312,328,127376,2,0,L|192:192,1,180,2|10,0:0|0:0,0:0:0:0:
200,328,127915,1,0,0:0:0:0:
200,328,128005,1,0,0:0:0:0:
200,328,128094,6,0,L|320:192,1,180,2|10,0:0|0:0,0:0:0:0:
240,120,128633,1,0,0:0:0:0:
240,120,128723,1,0,0:0:0:0:
240,120,128813,2,0,L|172:56,1,90,2|0,0:0|0:0,0:0:0:0:
136,268,129172,2,0,L|204:332,1,90,10|0,0:0|0:0,0:0:0:0:
256,236,129532,5,2,0:0:0:0:
310,329,129711,1,0,0:0:0:0:
310,329,129801,1,0,0:0:0:0:
310,329,129891,2,0,L|376:268,1,90,10|0,0:0|0:0,0:0:0:0:
452,192,130250,1,2,0:0:0:0:
256,40,130609,1,10,0:0:0:0:
168,104,130789,1,0,0:0:0:0:
168,104,130879,1,0,0:0:0:0:
168,104,130969,6,0,P|80:104|16:164,1,180,2|10,0:0|0:0,0:0:0:0:
76,256,131508,1,0,0:0:0:0:
76,256,131597,1,0,0:0:0:0:
76,256,131687,2,0,L|140:332,1,90,2|0,0:0|0:0,0:0:0:0:
228,272,132047,6,0,B|300:272|300:272|344:244|344:244|400:244,1,180,10|2,0:0|0:0,0:0:0:0:
480,172,132585,1,0,0:0:0:0:
480,172,132675,1,0,0:0:0:0:
480,172,132765,2,0,L|416:104,1,90,10|0,0:0|0:0,0:0:0:0:
340,32,133124,1,2,0:0:0:0:
160,156,133484,1,10,0:0:0:0:
64,200,133663,1,0,0:0:0:0:
64,200,133753,1,0,0:0:0:0:
64,200,133843,6,0,P|132:264|208:244,1,180,2|10,0:0|0:0,0:0:0:0:
308,200,134382,1,0,0:0:0:0:
308,200,134472,1,0,0:0:0:0:
308,200,134562,2,0,L|360:280,1,90,2|0,0:0|0:0,0:0:0:0:
392,108,134921,2,0,L|340:28,1,90,10|0,0:0|0:0,0:0:0:0:
256,96,135280,5,2,0:0:0:0:
168,32,135460,1,0,0:0:0:0:
168,32,135550,1,0,0:0:0:0:
169,32,135639,2,0,L|120:108,1,90,10|0,0:0|0:0,0:0:0:0:
56,196,135999,1,2,0:0:0:0:
256,340,136358,1,10,0:0:0:0:
356,300,136538,1,0,0:0:0:0:
356,300,136627,1,0,0:0:0:0:
356,300,136717,6,0,P|448:300|500:232,1,180,2|10,0:0|0:0,0:0:0:0:
440,148,137256,1,0,0:0:0:0:
440,148,137346,1,0,0:0:0:0:
440,148,137436,2,0,L|384:76,1,90,2|0,0:0|0:0,0:0:0:0:
276,76,137795,6,0,B|204:76|168:112|168:112|104:112,1,180,10|2,0:0|0:0,0:0:0:0:
32,192,138334,1,0,0:0:0:0:
32,192,138424,1,0,0:0:0:0:
32,192,138514,2,0,L|92:276,1,90,10|0,0:0|0:0,0:0:0:0:
144,356,138873,1,2,0:0:0:0:
368,356,139232,1,10,0:0:0:0:
427,265,139412,1,0,0:0:0:0:
427,265,139502,1,0,0:0:0:0:
427,265,139591,2,0,L|480:192,1,90,2|0,0:0|0:0,0:0:0:0:
364,36,139951,5,10,0:0:0:0:
256,32,140130,1,0,0:0:0:0:
256,32,140220,1,0,0:0:0:0:
256,32,140310,2,0,L|203:105,1,90,2|0,0:0|0:0,0:0:0:0:
32,220,140669,2,0,L|84:146,1,90,10|0,0:0|0:0,0:0:0:0:
204,104,141029,5,2,0:0:0:0:
224,208,141208,1,0,0:0:0:0:
224,208,141298,1,0,0:0:0:0:
224,208,141388,2,0,L|304:256,1,90,10|0,0:0|0:0,0:0:0:0:
396,304,141747,2,0,P|440:224|396:156,1,180,2|10,0:0|0:0,0:0:0:0:
312,88,142286,1,0,0:0:0:0:
312,88,142376,1,0,0:0:0:0:
312,88,142466,6,0,B|248:88|248:88|200:60|200:60|140:60,1,180,2|10,0:0|0:0,0:0:0:0:
76,148,143005,1,0,0:0:0:0:
76,148,143094,1,0,0:0:0:0:
76,148,143184,2,0,L|24:224,1,90,2|0,0:0|0:0,0:0:0:0:
120,280,143544,6,0,B|212:280|212:280|288:328,1,180,10|2,0:0|0:0,0:0:0:0:
356,244,144082,1,0,0:0:0:0:
356,244,144172,1,0,0:0:0:0:
356,244,144262,2,0,L|276:192,1,90,10|0,0:0|0:0,0:0:0:0:
192,132,144621,2,0,P|208:56|296:24,1,180,2|10,0:0|0:0,0:0:0:0:
460,136,145160,1,0,0:0:0:0:
460,136,145250,1,0,0:0:0:0:
460,136,145340,6,0,P|444:212|356:244,1,180,2|10,0:0|0:0,0:0:0:0:
256,288,145879,1,0,0:0:0:0:
256,288,145969,1,0,0:0:0:0:
256,288,146059,2,0,L|168:336,1,90,2|0,0:0|0:0,0:0:0:0:
256,96,146418,2,0,L|344:48,1,90,10|0,0:0|0:0,0:0:0:0:
144,192,146777,6,0,L|56:240,1,90,2|0,0:0|0:0,0:0:0:0:
64,235,147047,1,0,0:0:0:0:
64,235,147136,1,10,0:0:0:0:
368,192,147316,2,0,L|456:144,1,90,0|2,0:0|0:0,0:0:0:0:
256,96,147675,1,0,0:0:0:0:
256,96,147765,1,0,0:0:0:0:
256,96,147855,1,10,0:0:0:0:
256,288,148035,1,0,0:0:0:0:
256,288,148124,1,0,0:0:0:0:
256,288,148214,6,0,L|256:96,1,190.800000291138,4|2,0:0|0:0,0:0:0:0:
336,24,148753,1,0,0:0:0:0:
176,24,148933,1,2,0:0:0:0:
154,30,149023,1,0,0:0:0:0:
134,40,149112,1,0,0:0:0:0:
115,52,149202,1,0,0:0:0:0:
97,66,149292,1,10,0:0:0:0:
82,82,149382,1,0,0:0:0:0:
68,100,149472,1,0,0:0:0:0:
57,120,149562,1,0,0:0:0:0:
49,141,149651,5,4,0:0:0:0:
48,248,149831,1,0,0:0:0:0:
48,248,149921,1,0,0:0:0:0:
48,248,150011,2,0,L|112:320,1,90,10|0,0:0|0:0,0:0:0:0:
312,328,150370,2,0,L|192:192,1,180,2|10,0:0|0:0,0:0:0:0:
200,328,150909,1,0,0:0:0:0:
200,328,150999,1,0,0:0:0:0:
200,328,151088,6,0,L|320:192,1,180,2|10,0:0|0:0,0:0:0:0:
240,120,151627,1,0,0:0:0:0:
240,120,151717,1,0,0:0:0:0:
240,120,151807,2,0,L|172:56,1,90,2|0,0:0|0:0,0:0:0:0:
136,268,152166,2,0,L|204:332,1,90,10|0,0:0|0:0,0:0:0:0:
256,236,152526,5,2,0:0:0:0:
310,329,152705,1,0,0:0:0:0:
310,329,152795,1,0,0:0:0:0:
310,329,152885,2,0,L|376:268,1,90,10|0,0:0|0:0,0:0:0:0:
452,192,153244,1,2,0:0:0:0:
256,40,153603,1,10,0:0:0:0:
168,104,153783,1,0,0:0:0:0:
168,104,153873,1,0,0:0:0:0:
168,104,153963,6,0,P|80:104|16:164,1,180,2|10,0:0|0:0,0:0:0:0:
76,256,154502,1,0,0:0:0:0:
76,256,154591,1,0,0:0:0:0:
76,256,154681,2,0,L|140:332,1,90,2|0,0:0|0:0,0:0:0:0:
228,272,155041,6,0,B|300:272|300:272|344:244|344:244|400:244,1,180,10|2,0:0|0:0,0:0:0:0:
480,172,155579,1,0,0:0:0:0:
480,172,155669,1,0,0:0:0:0:
480,172,155759,2,0,L|416:104,1,90,10|0,0:0|0:0,0:0:0:0:
340,32,156118,1,2,0:0:0:0:
160,156,156478,1,10,0:0:0:0:
64,200,156657,1,0,0:0:0:0:
64,200,156747,1,0,0:0:0:0:
64,200,156837,6,0,P|132:264|208:244,1,180,2|10,0:0|0:0,0:0:0:0:
308,200,157376,1,0,0:0:0:0:
308,200,157466,1,0,0:0:0:0:
308,200,157556,2,0,L|360:280,1,90,2|0,0:0|0:0,0:0:0:0:
392,108,157915,2,0,L|340:28,1,90,10|0,0:0|0:0,0:0:0:0:
256,96,158274,5,2,0:0:0:0:
168,32,158454,1,0,0:0:0:0:
168,32,158544,1,0,0:0:0:0:
169,32,158633,2,0,L|120:108,1,90,10|0,0:0|0:0,0:0:0:0:
56,196,158993,1,2,0:0:0:0:
256,340,159352,1,10,0:0:0:0:
356,300,159532,1,0,0:0:0:0:
356,300,159621,1,0,0:0:0:0:
356,300,159711,6,0,P|448:300|500:232,1,180,2|10,0:0|0:0,0:0:0:0:
440,148,160250,1,0,0:0:0:0:
440,148,160340,1,0,0:0:0:0:
440,148,160430,2,0,L|384:76,1,90,2|0,0:0|0:0,0:0:0:0:
384,76,160699,1,0,0:0:0:0:
384,76,160789,1,10,0:0:0:0:
289,127,160969,1,0,0:0:0:0:
232,36,161148,6,0,P|188:36|148:56,1,90,4|0,0:0|0:0,0:0:0:0:
48,228,161508,2,0,P|92:228|132:208,1,90,10|0,0:0|0:0,0:0:0:0:
72,140,161867,2,0,L|120:328,1,180,2|10,0:0|0:0,0:0:0:0:
395,314,162585,6,0,L|440:140,1,180,2|10,0:0|0:0,0:0:0:0:
376,76,163124,2,0,L|300:16,1,90,0|2,0:0|0:0,0:0:0:0:
256,96,163484,2,0,L|256:192,1,90,0|10,0:0|0:0,0:0:0:0:
136,76,163843,2,0,L|212:16,1,90,0|2,0:0|0:0,0:0:0:0:
168,160,164202,1,0,0:0:0:0:
256,184,164382,1,10,0:0:0:0:
344,160,164562,1,0,0:0:0:0:
256,96,164741,6,0,P|324:36|412:36,1,180,2|10,0:0|0:0,0:0:0:0:
255,288,165460,2,0,P|190:347|102:348,1,180,2|10,0:0|0:0,0:0:0:0:
344,160,166178,1,2,0:0:0:0:
256,184,166358,1,0,0:0:0:0:
168,160,166538,1,10,0:0:0:0:
300,36,166897,5,4,0:0:0:0:
321,31,166987,1,0,0:0:0:0:
344,31,167076,1,0,0:0:0:0:
366,35,167166,1,0,0:0:0:0:
387,43,167256,1,8,0:0:0:0:
406,56,167346,1,0,0:0:0:0:
422,71,167436,1,0,0:0:0:0:
434,90,167526,1,0,0:0:0:0:
444,112,167615,2,0,L|460:156,7,45,0|0|0|0|8|0|0|0,0:0|0:0|0:0|0:0|0:0|0:0|0:0|0:0,0:0:0:0:
384,256,168334,5,4,0:0:0:0:
361,260,168424,1,0,0:0:0:0:
340,267,168514,1,0,0:0:0:0:
319,276,168603,1,0,0:0:0:0:
300,286,168693,1,8,0:0:0:0:
281,299,168783,1,0,0:0:0:0:
264,314,168873,1,0,0:0:0:0:
248,330,168963,1,0,0:0:0:0:
236,348,169053,2,0,L|184:348,7,45,0|0|0|0|8|0|0|0,0:0|0:0|0:0|0:0|0:0|0:0|0:0|0:0,0:0:0:0:
108,252,169771,5,4,0:0:0:0:
92,235,169861,1,0,0:0:0:0:
80,216,169951,1,0,0:0:0:0:
71,196,170041,1,0,0:0:0:0:
67,173,170130,1,8,0:0:0:0:
68,151,170220,1,0,0:0:0:0:
72,129,170310,1,0,0:0:0:0:
81,108,170400,1,0,0:0:0:0:
95,90,170490,2,0,L|129:52,7,45,4|0|0|0|12|0|0|0,0:0|0:0|0:0|0:0|0:0|0:0|0:0|0:0,0:0:0:0:
240,108,171208,5,4,0:0:0:0:
262,107,171298,1,0,0:0:0:0:
284,112,171388,1,0,0:0:0:0:
305,120,171478,1,0,0:0:0:0:
324,132,171567,2,0,L|372:116,3,45,12|0|0|0,0:0|0:0|0:0|0:0,0:0:0:0:
384,244,171927,2,0,L|428:272,3,45,4|0|0|0,0:0|0:0|0:0|0:0,0:0:0:0:
264,232,172286,2,0,L|216:248,3,45,12|0|0|0,0:0|0:0|0:0|0:0,0:0:0:0:
144,272,172645,1,4,0:0:0:0:
