osu file format v13

[General]
AudioFilename: BlackY - Merry Christmas Mr.Lawrence -2012 BlackY's XmasCoreStyle-.mp3
AudioLeadIn: 0
PreviewTime: 79502
Countdown: 0
SampleSet: Normal
StackLeniency: 0.6
Mode: 0
LetterboxInBreaks: 0
EpilepsyWarning: 1
WidescreenStoryboard: 1

[Editor]
DistanceSpacing: 1.2
BeatDivisor: 4
GridSize: 4
TimelineZoom: 1.1

[Metadata]
Title:Merry Christmas Mr.Lawrence -2012 BlackY's XmasCoreStyle-
TitleUnicode:Merry Christmas Mr.Lawrence -2012 BlackY's XmasCoreStyle-
Artist:Sakamoto Ryuichi
ArtistUnicode:坂本 龍一
Creator:Andrea
Version:Hard
Source:
Tags:osuplayer111 Gero Inyuschan Holiday Remix Collaboration
BeatmapID:539616
BeatmapSetID:232342

[Difficulty]
HPDrainRate:6
CircleSize:4
OverallDifficulty:6
ApproachRate:7.5
SliderMultiplier:1.4
SliderTickRate:1

[Events]
//Background and Video events
0,0,"BG.jpg",0,0
//Break Periods
2,14761,25234
2,75121,78766
//Storyboard Layer 0 (Background)
//Storyboard Layer 1 (Fail)
//Storyboard Layer 2 (Pass)
//Storyboard Layer 3 (Foreground)
Sprite,Foreground,Centre,"Geroboard\Names\Andrea.png",320,240 S,0,2885,,0.5306671 F,0,2885,3065,0,1 M,0,2885,14382,103,429 F,0,3065,14382,1 M,0,14382,14562,103,429,103,408 F,0,14382,14562,1,0 M,0,40250,,103,429 S,0,40250,,0.5306671 F,0,40250,40430,0,1 F,0,40430,51567,1 F,0,51567,51747,1,0 M,0,63244,,103,429 S,0,63244,,0.5306671 F,0,63244,63424,0,1 F,0,63424,72047,1 F,0,72047,74921,1,0.01866623 M,0,91987,,103,429 S,0,91987,,0.5306671 F,0,91987,92167,0,1 F,0,92167,99352,1 F,0,99352,,1 F,0,99352,103484,1,0 M,0,114981,,103,429 S,0,114981,,0.5306671 F,0,114981,115161,0,1 F,0,115161,122346,1 F,0,122346,,1 F,0,122346,126478,1,0 M,0,137975,,103,429 S,0,137975,,0.5306671 F,0,137975,138155,0,1 F,0,138155,145340,1 F,0,145340,,1 F,0,145340,149472,1,0 M,0,160969,,103,429 S,0,160969,,0.5306671 F,0,160969,161149,0,1 F,0,161149,172466,1 F,0,172466,172645,1,0
Sprite,Foreground,Centre,"Geroboard\Names\Gero.png",320,240 M,0,25879,,103,429 S,0,25879,,0.6160007 F,0,25879,26059,0,1 F,0,26059,37017,1 F,0,37017,38544,1,0.05599976 M,0,51747,,103,429 S,0,51747,,0.6160007 F,0,51747,51927,0,1 F,0,51927,63064,1 F,0,63064,63244,1,0 M,0,80490,,103,429 S,0,80490,,0.6160007 F,0,80490,80670,0,1 F,0,80670,91807,1 F,0,91807,91987,1,0 M,0,103484,,103,429 S,0,103484,,0.6160007 F,0,103484,103664,0,1 F,0,103664,114801,1 F,0,114801,114981,1,0 M,0,126478,,103,429 S,0,126478,,0.6160007 F,0,126478,126658,0,1 F,0,126658,137795,1 F,0,137795,137975,1,0 M,0,149472,,103,429 S,0,149472,,0.6160007 F,0,149472,149652,0,1 F,0,149652,160789,1 F,0,160789,160969,1,0
//Storyboard Sound Samples
//Background Colour Transformations
3,100,192,192,192

[TimingPoints]
3065,359.281437125748,4,1,1,80,1,0
26059,-100,4,2,1,60,0,0
37017,-100,4,2,1,40,0,0
37915,-100,4,2,1,20,0,0
38274,-100,4,2,1,10,0,0
38544,-100,4,2,1,5,0,0
40430,-100,4,2,1,60,0,0
63424,-100,4,1,1,40,0,0
67017,-100,4,1,1,50,0,0
69172,-100,4,1,1,60,0,0
79591,-100,4,2,1,60,0,0
80669,-100,4,1,1,80,0,1
80759,-100,4,1,1,80,0,0
102226,-100,4,1,1,60,0,0
102945,-100,4,1,1,70,0,0
103304,-100,4,1,1,75,0,0
103663,-100,4,1,1,80,0,1
103753,-100,4,1,1,80,0,0
126657,-100,4,1,1,80,0,1
148933,-100,4,1,1,60,0,1
149292,-100,4,1,1,70,0,1
149472,-100,4,1,1,75,0,1
149562,-100,4,1,1,75,0,0
149651,-100,4,1,1,80,0,1
161148,-100,4,1,1,80,0,0
161328,-100,4,2,1,60,0,0
166897,-100,4,1,1,80,0,0

[Colours]
Combo1 : 170,0,85
Combo2 : 255,43,43
Combo3 : 0,213,213
Combo4 : 85,85,255
Combo5 : 213,213,0
Combo6 : 0,170,0

[HitObjects]
88,112,3065,5,4,0:0:0:0:
148,56,3244,1,0,0:0:0:0:
176,136,3424,2,0,B|244:136|244:168|312:168,1,140,0|0,0:0|0:0,0:0:0:0:
388,204,3963,1,0,0:0:0:0:
316,248,4142,2,0,B|248:248|248:280|180:280,1,140,0|0,0:0|0:0,0:0:0:0:
100,300,4681,5,0,0:0:0:0:
80,220,4861,2,0,L|48:80,1,140,0|0,0:0|0:0,0:0:0:0:
132,64,5400,2,0,L|200:48,1,70,0|0,0:0|0:0,0:0:0:0:
333,103,5759,2,0,L|265:119,1,70,0|0,0:0|0:0,0:0:0:0:
184,136,6118,5,0,0:0:0:0:
216,212,6298,2,0,P|288:212|340:252,1,140,0|0,0:0|0:0,0:0:0:0:
424,252,6837,1,0,0:0:0:0:
424,252,7017,2,0,L|308:332,1,140,0|0,0:0|0:0,0:0:0:0:
232,368,7556,53,0,0:0:0:0:
156,332,7735,2,0,P|100:288|100:224,1,140,0|0,0:0|0:0,0:0:0:0:
160,164,8274,2,0,L|208:112,1,70,0|0,0:0|0:0,0:0:0:0:
332,96,8633,2,0,L|284:148,1,70,0|4,0:0|0:0,0:0:0:0:
344,208,8993,5,0,0:0:0:0:
404,268,9172,2,0,P|376:336|320:368,1,140,0|0,0:0|0:0,0:0:0:0:
256,316,9711,1,0,0:0:0:0:
191,367,9891,2,0,P|132:332|108:268,1,140,0|4,0:0|0:0,0:0:0:0:
88,188,10430,5,0,0:0:0:0:
148,132,10609,2,0,B|220:132|220:132|276:92,1,140,0|0,0:0|0:0,0:0:0:0:
260,12,11148,1,0,0:0:0:0:
260,12,11328,2,0,L|356:120,1,140,0|4,0:0|0:0,0:0:0:0:
408,180,11867,54,0,L|452:236,1,70,0|0,0:0|0:0,0:0:0:0:
432,344,12226,2,0,L|388:288,1,70,0|4,0:0|0:0,0:0:0:0:
316,332,12585,1,0,0:0:0:0:
256,272,12765,1,0,0:0:0:0:
196,332,12945,1,0,0:0:0:0:
123,291,13124,6,0,P|77:247|123:206,2,140,4|0|0,0:0|0:3|0:0,0:0:0:0:
196,332,14023,1,0,0:0:0:0:
256,272,14202,2,0,L|256:128,1,140,8|4,0:0|0:0,0:0:0:0:
152,171,26059,22,0,P|184:191|220:191,1,70,2|0,0:0|0:0,0:0:0:0:
296,192,26418,2,0,P|330:189|359:170,1,70,0|0,0:0|0:0,0:0:0:0:
304,111,26777,2,0,B|292:79|256:63|256:63|220:79|208:111,1,140,0|0,0:0|0:0,0:0:0:0:
208,279,27496,6,0,B|220:311|256:327|256:327|292:311|304:279,1,140,2|0,0:0|0:0,0:0:0:0:
372,328,28035,1,0,0:0:0:0:
432,272,28214,2,0,L|444:196,1,70,0|0,0:0|0:0,0:0:0:0:
372,160,28573,2,0,L|384:84,1,70,0|0,0:0|0:0,0:0:0:0:
444,32,28933,6,0,B|416:8|380:8|380:8|304:8,1,140,2|0,0:0|0:0,0:0:0:0:
256,72,29472,1,0,0:0:0:0:
202,8,29651,2,0,B|132:8|132:8|96:8|68:32,1,140,0|0,0:0|0:0,0:0:0:0:
164,172,30370,54,0,B|224:204|256:274|256:274|288:204|348:172,1,280,2|0,0:0|0:0,0:0:0:0:
300,104,31268,1,0,0:0:0:0:
212,104,31448,1,0,0:0:0:0:
100,228,31807,6,0,P|80:252|68:288,1,70,2|0,0:0|0:0,0:0:0:0:
184,356,32166,2,0,P|173:323|152:296,1,70,0|0,0:0|0:0,0:0:0:0:
104,364,32526,2,0,L|232:284,1,140,0|0,0:0|0:0,0:0:0:0:
411,266,33244,6,0,L|292:340,1,140,2|0,0:0|0:0,0:0:0:0:
223,290,33783,1,0,0:0:0:0:
288,236,33963,2,0,B|352:192,1,70,0|0,0:0|0:0,0:0:0:0:
400,132,34322,2,0,B|368:116|368:116|332:116,1,70,0|0,0:0|0:0,0:0:0:0:
272,40,34681,54,0,L|412:40,1,140,2|0,0:0|0:0,0:0:0:0:
476,96,35220,1,0,0:0:0:0:
400,132,35400,2,0,P|370:192|400:252,2,140,0|0|2,0:0|0:0|0:0,0:0:0:0:
256,192,37017,12,0,38544,0:0:0:0:
88,88,40430,38,0,L|140:140,1,70,4|0,1:2|0:0,0:0:0:0:
196,196,40789,2,0,P|255:227|316:196,1,140,0|2,0:0|0:0,0:0:0:0:
392,160,41328,1,0,0:0:0:0:
392,160,41508,2,0,L|492:260,1,140,0|2,0:0|0:0,0:0:0:0:
432,320,42047,2,0,L|380:368,1,70,0|0,0:0|0:0,0:0:0:0:
320,312,42406,1,0,0:0:0:0:
256,256,42585,1,2,0:0:0:0:
192,312,42765,1,0,0:0:0:0:
132,368,42945,2,0,L|80:320,1,70,0|0,0:0|0:0,0:0:0:0:
48,196,43304,6,0,L|100:244,1,70,2|0,0:0|0:0,0:0:0:0:
168,196,43663,2,0,P|168:124|204:68,1,140,0|2,0:0|0:0,0:0:0:0:
256,136,44202,1,0,0:0:0:0:
308,68,44382,2,0,P|344:126|344:196,1,140,0|2,0:0|0:0,0:0:0:0:
328,280,44921,1,0,0:0:0:0:
256,324,45100,1,0,0:0:0:0:
184,280,45280,2,0,L|112:280,1,70,0|2,0:0|0:0,0:0:0:0:
40,200,45639,2,0,L|112:200,1,70,0|0,0:0|0:0,0:0:0:0:
184,160,45999,1,0,0:0:0:0:
256,116,46178,5,2,0:0:0:0:
328,72,46358,1,0,0:0:0:0:
400,116,46538,2,0,B|360:172|360:172|360:244,1,140,0|2,0:0|0:0,0:0:0:0:
432,288,47076,1,0,0:0:0:0:
432,288,47256,2,0,L|288:288,1,140,0|2,0:0|0:0,0:0:0:0:
212,308,47795,2,0,L|140:332,1,70,0|0,0:0|0:0,0:0:0:0:
36,284,48154,2,0,L|108:260,1,70,0|2,0:0|0:0,0:0:0:0:
144,188,48514,1,0,0:0:0:0:
188,116,48693,2,0,P|228:116|256:100,1,70,0|0,0:0|0:0,0:0:0:0:
388,48,49053,54,0,P|348:48|320:64,1,70,2|0,0:0|0:0,0:0:0:0:
324,148,49412,2,0,B|352:184|340:232|340:232|376:276,1,140,0|2,0:0|0:0,0:0:0:0:
456,276,49951,1,0,0:0:0:0:
456,276,50130,2,0,P|388:296|368:360,1,140,0|2,0:0|0:0,0:0:0:0:
284,356,50669,2,0,P|248:356|216:340,1,70,0|0,0:0|0:0,0:0:0:0:
80,288,51029,2,0,P|116:288|148:304,1,70,0|2,0:0|0:0,0:0:0:0:
176,224,51388,1,0,0:0:0:0:
216,152,51567,1,0,0:0:0:0:
296,152,51747,1,0,0:0:0:0:
336,224,51927,37,4,1:2:0:0:
256,252,52106,1,0,0:0:0:0:
176,224,52286,1,8,0:0:0:0:
216,152,52466,1,0,0:0:0:0:
216,152,52645,2,0,B|176:132|136:152|136:152|72:152,1,140,2|8,0:0|0:0,0:0:0:0:
24,88,53184,1,0,0:0:0:0:
24,88,53364,6,0,P|48:152|24:216,1,140,2|8,0:0|0:0,0:0:0:0:
80,280,53903,1,0,0:0:0:0:
140,340,54082,2,0,B|176:340|176:340|212:360,1,70,2|0,0:0|0:0,0:0:0:0:
276,308,54442,2,0,L|340:344,1,70,8|0,0:0|0:0,0:0:0:0:
420,324,54801,1,2,0:0:0:0:
479,264,54981,1,0,0:0:0:0:
419,204,55160,2,0,B|411:170|411:170|419:136,1,70,8|0,0:0|0:0,0:0:0:0:
456,60,55520,6,0,P|380:60|340:104,1,140,2|8,0:0|0:0,0:0:0:0:
256,124,56059,1,0,0:0:0:0:
172,104,56238,2,0,P|123:56|56:60,2,140,2|8|2,0:0|0:0|0:0,0:0:0:0:
93,136,57136,2,0,B|101:170|101:170|93:204,1,70,0|8,0:0|0:0,0:0:0:0:
33,264,57496,1,0,0:0:0:0:
92,324,57675,54,0,P|124:344|160:344,1,70,2|0,0:0|0:0,0:0:0:0:
272,228,58035,2,0,P|240:208|204:208,1,70,8|0,0:0|0:0,0:0:0:0:
216,292,58394,2,0,L|360:260,1,140,2|8,0:0|0:0,0:0:0:0:
416,204,58933,1,0,0:0:0:0:
460,132,59112,54,0,L|316:164,1,140,2|8,0:0|0:0,0:0:0:0:
248,124,59651,1,0,0:0:0:0:
168,92,59831,2,0,P|162:58|168:24,1,70,2|0,0:0|0:0,0:0:0:0:
248,56,60190,2,0,P|254:90|248:124,1,70,8|0,0:0|0:0,0:0:0:0:
180,220,60550,6,0,B|184:256|158:284|158:284|184:312|180:348,1,140,2|8,0:0|0:0,0:0:0:0:
256,380,61088,1,0,0:0:0:0:
332,348,61268,2,0,B|328:312|354:284|354:284|328:256|332:220,1,140,2|8,0:0|0:0,0:0:0:0:
256,180,61807,1,0,0:0:0:0:
184,136,61987,6,0,P|160:112|120:100,1,70,2|0,0:0|0:0,0:0:0:0:
256,96,62346,2,0,B|256:76|256:76|252:68|252:68|260:68|260:68|256:60|256:60|256:36,1,70,8|0,0:0|0:0,0:0:0:0:
256,180,62705,2,0,B|256:200|256:200|252:208|252:208|260:208|260:208|256:216|256:216|256:240,1,70,2|0,0:0|0:0,0:0:0:0:
328,136,63064,2,0,P|352:112|392:100,1,70,8|0,0:0|0:0,0:0:0:0:
492,192,63424,37,0,0:0:0:0:
256,352,63783,1,8,0:0:0:0:
20,192,64142,1,0,0:0:0:0:
256,32,64502,1,8,0:0:0:0:
408,312,64861,5,0,0:0:0:0:
104,312,65220,1,8,0:0:0:0:
104,72,65579,1,0,0:0:0:0:
408,72,65939,1,8,0:0:0:0:
20,192,66298,6,0,P|56:192|88:208,1,70,0|0,0:0|0:0,0:0:0:0:
170,326,66657,2,0,P|134:326|102:310,1,70,8|0,0:0|0:0,0:0:0:0:
86,206,67017,2,0,L|134:130,1,70,0|0,0:0|0:0,0:0:0:0:
256,56,67376,2,0,L|208:132,1,70,8|0,0:0|0:0,0:0:0:0:
256,192,67735,53,0,0:0:0:0:
293,115,67915,2,0,L|256:56,1,70,0|8,0:0|0:0,0:0:0:0:
388,146,68274,2,0,L|426:206,1,70,0|0,0:0|0:0,0:0:0:0:
364,268,68633,1,0,0:0:0:0:
296,320,68813,1,8,0:0:0:0:
216,320,68993,1,0,0:0:0:0:
148,268,69172,6,0,L|112:232,7,35,0|0|0|0|8|0|0|0,0:0|0:0|0:0|0:0|0:0|0:0|0:0|0:0,0:0:0:0:
124,200,69891,2,0,L|160:164,7,35,0|0|0|0|8|0|0|0,0:0|0:0|0:0|0:0|0:0|0:0|0:0|0:0,0:0:0:0:
148,132,70609,2,0,L|112:96,7,35,0|0|0|0|8|0|0|0,0:0|0:0|0:0|0:0|0:0|0:0|0:0|0:0,0:0:0:0:
124,64,71328,2,0,L|160:28,7,35,0|0|0|0|8|0|0|0,0:0|0:0|0:0|0:0|0:0|0:0|0:0|0:0,0:0:0:0:
256,192,72047,12,4,74921,0:0:0:0:
256,192,79591,21,2,0:0:0:0:
256,192,79951,2,0,L|256:272,2,70,0|0|2,0:0|0:0|0:0,0:0:0:0:
384,40,80669,6,0,P|416:40|452:60,1,70,4|0,0:0|0:0,0:0:0:0:
456,140,81029,2,0,P|424:140|388:120,1,70,10|0,0:0|0:0,0:0:0:0:
449,57,81388,2,0,L|400:200,1,140,2|10,0:0|0:0,0:0:0:0:
440,264,81927,1,0,0:0:0:0:
508,316,82106,6,0,B|476:348|436:348|436:348|372:348,1,140,2|8,0:0|0:0,0:0:0:0:
316,288,82645,1,0,0:0:0:0:
256,228,82825,2,0,B|224:212|224:212|188:212,1,70,0|0,0:0|0:0,0:0:0:0:
62,148,83184,2,0,L|132:148,1,70,8|0,0:0|0:0,0:0:0:0:
258,84,83544,54,0,L|188:84,2,70,2|0|10,0:0|0:0|0:0,0:0:0:0:
317,24,84082,1,0,0:0:0:0:
376,83,84262,2,0,B|376:143|376:143|376:184|404:216,1,140,2|10,0:0|0:0,0:0:0:0:
463,275,84801,1,0,0:0:0:0:
403,334,84981,6,0,B|372:352|336:336|336:336|296:320|268:336,2,140,2|8|0,0:0|0:0|0:0,0:0:0:0:
463,275,85879,1,0,0:0:0:0:
404,216,86059,2,0,B|396:182|396:182|404:148,1,70,8|0,0:0|0:0,0:0:0:0:
364,72,86418,6,0,P|328:56|292:56,1,70,2|0,0:0|0:0,0:0:0:0:
148,72,86777,2,0,P|184:56|220:56,1,70,10|0,0:0|0:0,0:0:0:0:
308,140,87136,2,0,P|256:179|204:140,1,140,2|10,0:0|0:0,0:0:0:0:
188,308,87855,54,0,B|256:324|256:324|324:308,1,140,2|8,0:0|0:0,0:0:0:0:
384,368,88394,1,0,0:0:0:0:
324,308,88573,2,0,B|348:280|348:280|348:244,1,70,0|0,0:0|0:0,0:0:0:0:
428,228,88933,2,0,L|427:297,1,70,8|0,0:0|0:0,0:0:0:0:
508,208,89292,6,0,L|508:138,1,70,2|0,0:0|0:0,0:0:0:0:
476,60,89651,1,10,0:0:0:0:
400,24,89831,1,0,0:0:0:0:
400,24,90011,2,0,P|336:24|312:88,1,140,2|10,0:0|0:0,0:0:0:0:
256,152,90550,1,0,0:0:0:0:
200,87,90729,6,0,P|177:25|112:24,2,140,2|8|0,0:0|0:0|0:0,0:0:0:0:
256,152,91627,1,0,0:0:0:0:
304,220,91807,1,8,0:0:0:0:
256,292,91987,1,0,0:0:0:0:
208,220,92166,6,0,L|136:220,1,70,2|0,0:0|0:0,0:0:0:0:
256,292,92526,2,0,L|328:292,1,70,10|0,0:0|0:0,0:0:0:0:
412,292,92885,2,0,B|436:236|384:208|412:156,1,140,2|10,0:0|0:0,0:0:0:0:
256,16,93603,6,0,B|232:72|284:100|256:152,1,140,2|8,0:0|0:0,0:0:0:0:
180,192,94142,2,0,L|120:252,1,70,0|0,0:0|0:0,0:0:0:0:
256,240,94502,2,0,L|256:320,1,70,0|8,0:0|0:0,0:0:0:0:
332,192,94861,2,0,L|392:252,1,70,0|2,0:0|0:0,0:0:0:0:
340,316,95220,1,0,0:0:0:0:
424,332,95400,1,10,0:0:0:0:
488,276,95579,1,0,0:0:0:0:
453,198,95759,2,0,B|453:135|453:135|453:101|420:64,1,140,2|10,0:0|0:0,0:0:0:0:
89,66,96478,6,0,B|59:101|59:135|59:135|59:198,2,140,2|8|0,0:0|0:0|0:0,0:0:0:0:
144,132,97376,1,0,0:0:0:0:
196,200,97556,2,0,P|256:231|316:200,1,140,8|2,0:0|0:0,0:0:0:0:
368,132,98094,1,0,0:0:0:0:
296,92,98274,1,10,0:0:0:0:
216,92,98454,1,0,0:0:0:0:
144,132,98633,2,0,B|92:132|92:132|56:108|56:108|8:108,1,140,2|10,0:0|0:0,0:0:0:0:
256,312,99352,54,0,B|308:312|308:312|344:336|344:336|392:336,1,140,2|8,0:0|0:0,0:0:0:0:
448,276,99891,2,0,B|488:276|488:276|520:256,1,70,0|0,0:0|0:0,0:0:0:0:
476,144,100250,2,0,B|436:144|436:144|404:164,1,70,0|8,0:0|0:0,0:0:0:0:
372,236,100609,1,0,0:0:0:0:
296,196,100789,1,2,0:0:0:0:
216,196,100969,1,0,0:0:0:0:
140,236,101148,2,0,L|96:296,1,70,10|0,0:0|0:0,0:0:0:0:
24,252,101508,2,0,L|104:132,1,140,2|10,0:0|0:0,0:0:0:0:
64,60,102047,1,0,0:0:0:0:
64,60,102226,6,0,P|112:108|180:96,1,140,4|8,0:0|0:0,0:0:0:0:
243,254,102945,1,0,0:0:0:0:
199,326,103124,1,0,0:0:0:0:
283,326,103304,2,0,L|327:326,3,35,8|0|0|0,0:0|0:0|0:0|0:0,0:0:0:0:
360,328,103663,22,0,P|400:328|436:304,1,70,4|0,0:0|0:0,0:0:0:0:
376,248,104023,2,0,P|406:222|418:180,1,70,10|0,0:0|0:0,0:0:0:0:
336,176,104382,2,0,B|316:152|268:152|268:152|200:152,1,140,2|10,0:0|0:0,0:0:0:0:
132,104,104921,1,0,0:0:0:0:
132,104,105100,6,0,L|192:240,1,140,2|8,0:0|0:0,0:0:0:0:
120,280,105639,1,0,0:0:0:0:
120,280,105819,2,0,L|88:204,2,70,0|0|8,0:0|0:0|0:0,0:0:0:0:
184,332,106358,1,0,0:0:0:0:
256,372,106538,6,0,B|288:352|288:352|328:352,1,70,2|0,0:0|0:0,0:0:0:0:
388,300,106897,2,0,P|397:267|388:234,1,70,10|0,0:0|0:0,0:0:0:0:
344,160,107256,2,0,B|388:140|424:160|424:160|484:160,1,140,2|10,0:0|0:0,0:0:0:0:
388,300,107975,54,0,B|344:320|308:300|308:300|248:300,2,140,2|8|0,0:0|0:0|0:0,0:0:0:0:
444,236,108873,1,0,0:0:0:0:
500,172,109053,2,0,B|472:148|472:148|472:104,1,70,8|0,0:0|0:0,0:0:0:0:
396,76,109412,6,0,P|364:60|328:60,1,70,2|0,0:0|0:0,0:0:0:0:
256,100,109771,1,10,0:0:0:0:
181,59,109951,2,0,P|146:60|116:76,2,70,0|2|0,0:0|0:0|0:0,0:0:0:0:
256,100,110490,1,10,0:0:0:0:
316,256,110849,6,0,B|276:260|256:288|256:288|236:260|196:256,1,140,2|8,0:0|0:0,0:0:0:0:
256,196,111388,1,0,0:0:0:0:
316,256,111567,2,0,L|364:308,1,70,0|0,0:0|0:0,0:0:0:0:
423,367,111927,1,8,0:0:0:0:
482,307,112106,1,0,0:0:0:0:
482,307,112286,54,0,B|496:240|460:240|480:168,1,140,2|10,0:0|0:0,0:0:0:0:
504,88,112825,1,0,0:0:0:0:
440,32,113005,2,0,B|408:8|368:8|368:8|304:8,1,140,2|10,0:0|0:0,0:0:0:0:
256,76,113544,1,0,0:0:0:0:
206,8,113723,6,0,B|144:8|144:8|104:8|72:32,2,140,2|8|0,0:0|0:0|0:0,0:0:0:0:
256,76,114621,1,0,0:0:0:0:
288,156,114801,2,0,B|256:169|256:169|224:156,1,70,8|0,0:0|0:0,0:0:0:0:
256,76,115160,21,2,0:0:0:0:
308,8,115340,2,0,B|344:8|344:8|376:24,1,70,0|10,0:0|0:0,0:0:0:0:
452,56,115699,1,0,0:0:0:0:
452,56,115879,2,0,B|452:128|452:128|416:188,1,140,2|10,0:0|0:0,0:0:0:0:
292,300,116597,6,0,B|244:300|212:272|212:272|156:272,1,140,2|8,0:0|0:0,0:0:0:0:
76,276,117136,2,0,P|77:310|62:341,1,70,0|0,0:0|0:0,0:0:0:0:
8,232,117496,2,0,P|6:197|21:166,1,70,0|8,0:0|0:0,0:0:0:0:
84,112,117855,1,0,0:0:0:0:
148,60,118035,1,2,0:0:0:0:
232,60,118214,1,0,0:0:0:0:
300,112,118394,2,0,B|336:112|336:112|364:132,1,70,10|0,0:0|0:0,0:0:0:0:
448,124,118753,2,0,P|384:148|376:216,1,140,2|10,0:0|0:0,0:0:0:0:
256,332,119472,1,2,0:0:0:0:
137,212,119831,6,0,P|126:146|64:124,1,140,8|0,0:0|0:0,0:0:0:0:
12,188,120370,1,0,0:0:0:0:
12,188,120550,2,0,L|40:44,1,140,8|4,0:0|0:0,0:0:0:0:
116,16,121088,2,0,L|188:24,1,70,0|8,0:0|0:0,0:0:0:0:
268,32,121448,1,0,0:0:0:0:
352,40,121627,2,0,P|424:56|460:108,1,140,0|8,0:0|0:0,0:0:0:0:
459,276,122346,54,0,P|419:331|352:344,1,140,4|8,0:0|0:0,0:0:0:0:
268,344,122885,2,0,P|228:344|200:328,1,70,0|0,0:0|0:0,0:0:0:0:
60,272,123244,2,0,P|100:272|128:288,1,70,0|8,0:0|0:0,0:0:0:0:
200,248,123603,1,0,0:0:0:0:
256,184,123783,6,0,L|292:184,7,35,4|0|0|0|8|0|0|0,0:0|0:0|0:0|0:0|0:0|0:0|0:0|0:0,0:0:0:0:
326,160,124502,2,0,L|362:160,7,35,4|0|0|0|8|0|0|0,0:0|0:0|0:0|0:0|0:0|0:0|0:0|0:0,0:0:0:0:
395,135,125220,1,4,0:0:0:0:
280,16,125579,1,12,0:0:0:0:
224,176,125939,1,4,0:0:0:0:
96,64,126298,2,0,L|72:32,3,35,12|0|0|0,0:0|0:0|0:0|0:0,0:0:0:0:
96,64,126657,22,0,P|120:128|96:192,1,140,4|10,0:0|0:0,0:0:0:0:
40,128,127196,1,0,0:0:0:0:
96,64,127376,2,0,L|248:44,1,140,2|10,0:0|0:0,0:0:0:0:
292,108,127915,1,0,0:0:0:0:
292,108,128094,6,0,B|292:168|264:168|264:244,1,140,2|10,0:0|0:0,0:0:0:0:
312,312,128633,1,0,0:0:0:0:
376,368,128813,2,0,B|408:352|408:352|444:352,1,70,2|0,0:0|0:0,0:0:0:0:
488,284,129172,2,0,P|508:256|512:220,1,70,10|0,0:0|0:0,0:0:0:0:
403,161,129532,6,0,P|407:195|428:224,2,70,2|0|10,0:0|0:0|0:0,0:0:0:0:
448,92,130070,1,0,0:0:0:0:
404,20,130250,2,0,B|372:36|364:72|364:72|304:24,1,140,2|10,0:0|0:0,0:0:0:0:
256,92,130789,1,0,0:0:0:0:
256,92,130969,54,0,L|312:136,1,70,2|0,0:0|0:0,0:0:0:0:
284,216,131328,2,0,L|164:120,1,140,10|2,0:0|0:0,0:0:0:0:
116,68,131867,1,0,0:0:0:0:
60,128,132047,2,0,P|36:164|36:208,1,70,10|0,0:0|0:0,0:0:0:0:
143,253,132406,6,0,P|136:218|115:191,2,70,2|0|10,0:0|0:0|0:0,0:0:0:0:
92,320,132945,1,0,0:0:0:0:
20,364,133124,2,0,L|160:364,1,140,2|10,0:0|0:0,0:0:0:0:
352,296,133843,6,0,L|212:296,1,140,2|10,0:0|0:0,0:0:0:0:
143,253,134382,1,0,0:0:0:0:
200,192,134562,2,0,B|216:160|216:160|216:124,1,70,2|0,0:0|0:0,0:0:0:0:
296,125,134921,2,0,B|296:160|296:160|312:192,1,70,10|0,0:0|0:0,0:0:0:0:
369,253,135280,53,2,0:0:0:0:
308,312,135460,1,0,0:0:0:0:
256,248,135639,1,10,0:0:0:0:
204,312,135819,1,0,0:0:0:0:
143,253,135999,5,2,0:0:0:0:
256,128,136358,1,10,0:0:0:0:
369,253,136717,1,2,0:0:0:0:
256,378,137076,6,0,B|256:322|256:322|252:314|252:314|260:314|260:314|256:306|256:306|256:248,1,140,10|2,0:0|0:0,0:0:0:0:
192,192,137615,1,0,0:0:0:0:
124,140,137795,2,0,B|92:124|92:124|56:124,1,70,10|0,0:0|0:0,0:0:0:0:
0,64,138154,5,2,0:0:0:0:
57,124,138334,1,0,0:0:0:0:
0,184,138514,2,0,L|48:240,1,70,10|0,0:0|0:0,0:0:0:0:
96,304,138873,2,0,B|140:304|156:332|156:332|172:304|216:304,1,140,2|10,0:0|0:0,0:0:0:0:
472,192,139591,6,0,B|428:192|412:164|412:164|396:192|352:192,1,140,2|10,0:0|0:0,0:0:0:0:
292,132,140130,2,0,L|240:72,1,70,0|2,0:0|0:0,0:0:0:0:
132,64,140490,2,0,L|184:124,1,70,0|10,0:0|0:0,0:0:0:0:
112,168,140849,1,0,0:0:0:0:
44,220,141029,1,2,0:0:0:0:
100,284,141208,1,0,0:0:0:0:
168,236,141388,2,0,P|204:236|232:256,1,70,10|0,0:0|0:0,0:0:0:0:
296,308,141747,2,0,B|342:308|342:308|384:328|384:328|434:328,1,140,2|10,0:0|0:0,0:0:0:0:
430,176,142466,6,0,B|384:176|384:176|342:156|342:156|292:156,2,140,2|10|2,0:0|0:0|0:0,0:0:0:0:
504,136,143364,1,0,0:0:0:0:
432,92,143544,1,10,0:0:0:0:
280,20,143903,54,0,B|244:20|244:20|212:40,1,70,2|0,0:0|0:0,0:0:0:0:
84,96,144262,2,0,B|120:96|120:96|152:76,1,70,10|0,0:0|0:0,0:0:0:0:
220,120,144621,2,0,L|292:244,1,140,2|10,0:0|0:0,0:0:0:0:
172,364,145340,2,0,L|100:240,1,140,2|10,0:0|0:0,0:0:0:0:
60,168,145879,2,0,L|20:104,1,70,0|2,0:0|0:0,0:0:0:0:
72,24,146238,2,0,L|112:88,1,70,0|10,0:0|0:0,0:0:0:0:
152,156,146597,1,0,0:0:0:0:
214,100,146777,5,2,0:0:0:0:
298,100,146957,1,0,0:0:0:0:
360,156,147136,2,0,P|396:156|424:176,1,70,10|0,0:0|0:0,0:0:0:0:
368,240,147496,2,0,P|367:310|328:367,1,140,2|10,0:0|0:0,0:0:0:0:
256,324,148035,1,0,0:0:0:0:
182,366,148214,2,0,P|143:308|144:240,1,140,4|2,0:0|0:0,0:0:0:0:
361,203,148933,2,0,L|413:155,1,70,2|0,0:0|0:0,0:0:0:0:
472,96,149292,22,0,L|500:120,4,35,10|0|0|0|4,0:0|0:0|0:0|0:0|0:0,0:0:0:0:
412,156,149831,1,0,0:0:0:0:
352,96,150011,1,10,0:0:0:0:
412,36,150190,1,0,0:0:0:0:
472,96,150370,2,0,L|448:236,1,140,2|10,0:0|0:0,0:0:0:0:
384,292,150909,1,0,0:0:0:0:
316,340,151088,6,0,B|252:340|252:340|212:340|184:312,1,140,2|10,0:0|0:0,0:0:0:0:
124,252,151627,1,0,0:0:0:0:
183,192,151807,2,0,B|217:185|217:185|251:192,1,70,2|0,0:0|0:0,0:0:0:0:
122,132,152166,2,0,B|88:139|88:139|54:132,1,70,10|0,0:0|0:0,0:0:0:0:
88,56,152526,6,0,B|124:40|160:56|160:56|228:56,1,140,2|10,0:0|0:0,0:0:0:0:
308,32,153064,1,0,0:0:0:0:
380,76,153244,2,0,P|404:140|380:204,1,140,2|10,0:0|0:0,0:0:0:0:
358,286,153783,1,0,0:0:0:0:
358,286,153873,1,0,0:0:0:0:
358,286,153963,54,0,B|302:286|302:286|262:286|226:322,1,140,2|10,0:0|0:0,0:0:0:0:
172,256,154502,1,0,0:0:0:0:
116,192,154681,2,0,L|172:136,1,70,2|0,0:0|0:0,0:0:0:0:
104,84,155041,2,0,L|153:34,1,70,10|0,0:0|0:0,0:0:0:0:
224,84,155400,6,0,B|288:84|288:84|296:80|296:80|368:80,1,140,2|10,0:0|0:0,0:0:0:0:
422,20,155939,1,0,0:0:0:0:
481,79,156118,2,0,L|449:219,1,140,2|10,0:0|0:0,0:0:0:0:
500,284,156657,1,0,0:0:0:0:
444,348,156837,6,0,P|368:348|316:308,1,140,2|10,0:0|0:0,0:0:0:0:
256,252,157376,1,0,0:0:0:0:
320,196,157556,2,0,B|314:162|314:162|320:128,1,70,2|0,0:0|0:0,0:0:0:0:
240,32,157915,2,0,B|246:66|246:66|240:100,1,70,10|0,0:0|0:0,0:0:0:0:
164,68,158274,54,0,P|104:68|48:124,1,140,2|10,0:0|0:0,0:0:0:0:
96,192,158813,1,0,0:0:0:0:
49,262,158993,2,0,P|95:312|164:316,2,140,2|10|2,0:0|0:0|0:0,0:0:0:0:
200,192,160070,6,0,B|216:160|216:160|216:124,1,70,10|0,0:0|0:0,0:0:0:0:
296,125,160430,2,0,B|296:160|296:160|312:192,1,70,2|0,0:0|0:0,0:0:0:0:
312,192,160699,1,0,0:0:0:0:
312,192,160789,1,10,0:0:0:0:
256,256,160969,1,0,0:0:0:0:
200,192,161148,22,0,L|128:192,1,70,4|0,0:0|0:0,0:0:0:0:
56,112,161508,2,0,L|128:112,1,70,10|0,0:0|0:0,0:0:0:0:
192,56,161867,2,0,B|256:28|256:28|320:56,2,140,2|10|2,0:0|0:0|0:0,0:0:0:0:
444,192,162945,6,0,P|444:156|464:124,1,70,10|0,0:0|0:0,0:0:0:0:
392,260,163304,2,0,P|392:296|372:328,1,70,2|0,0:0|0:0,0:0:0:0:
298,355,163663,1,10,0:0:0:0:
214,355,163843,1,0,0:0:0:0:
136,324,164023,2,0,P|119:294|120:260,1,70,2|0,0:0|0:0,0:0:0:0:
51,127,164382,2,0,P|68:157|67:192,1,70,10|0,0:0|0:0,0:0:0:0:
120,260,164741,2,0,P|192:260|240:216,2,140,2|10|2,0:0|0:0|0:0,0:0:0:0:
408,108,165819,6,0,P|336:108|288:152,1,140,10|2,0:0|0:0,0:0:0:0:
368,180,166358,1,0,0:0:0:0:
368,180,166538,2,0,L|308:44,1,140,10|4,0:0|0:0,0:0:0:0:
232,80,167076,2,0,L|164:104,1,70,0|8,0:0|0:0,0:0:0:0:
88,132,167436,1,0,0:0:0:0:
120,208,167615,2,0,L|76:228,3,35,0|0|0|0,0:0|0:0|0:0|0:0,0:0:0:0:
84,264,167975,2,0,L|40:284,3,35,8|0|0|0,0:0|0:0|0:0|0:0,0:0:0:0:
48,320,168334,2,0,L|4:340,3,35,4|0|0|0,0:0|0:0|0:0|0:0,0:0:0:0:
120,352,168693,54,0,B|156:352|156:352|188:336,1,70,8|0,0:0|0:0,0:0:0:0:
256,292,169053,1,0,0:0:0:0:
325,336,169232,2,0,B|356:352|356:352|392:352,1,70,0|8,0:0|0:0,0:0:0:0:
468,316,169591,1,0,0:0:0:0:
412,252,169771,2,0,L|384:220,7,35,4|0|0|0|8|0|0|0,0:0|0:0|0:0|0:0|0:0|0:0|0:0|0:0,0:0:0:0:
400,184,170490,2,0,L|372:152,7,35,4|0|0|0|12|0|0|0,0:0|0:0|0:0|0:0|0:0|0:0|0:0|0:0,0:0:0:0:
384,116,171208,6,0,B|324:76|324:76|256:76,1,140,4|12,0:0|0:0,0:0:0:0:
128,268,171927,2,0,B|188:308|188:308|256:308,1,140,4|12,0:0|0:0,0:0:0:0:
296,308,172376,2,0,L|341:308,3,35,0|0|0|4,0:0|0:0|0:0|0:0,0:0:0:0:
