osu file format v14

[General]
AudioFilename: tune The Rainbow.mp3
AudioLeadIn: 0
PreviewTime: 59895
Countdown: 1
SampleSet: Soft
StackLeniency: 0.7
Mode: 0
LetterboxInBreaks: 1
WidescreenStoryboard: 0

[Editor]
Bookmarks: 59895,135538,184159
DistanceSpacing: 0.6
BeatDivisor: 4
GridSize: 4
TimelineZoom: 3.999998

[Metadata]
Title:tune the rainbow
TitleUnicode:tune the rainbow
Artist:Sakamoto Maya
ArtistUnicode:坂本真綾
Creator:RealCuT
Version:Insane
Source:
Tags:
BeatmapID:513146
BeatmapSetID:219002

[Difficulty]
HPDrainRate:7
CircleSize:4
OverallDifficulty:7
ApproachRate:9
SliderMultiplier:1.8
SliderTickRate:1

[Events]
//Background and Video events
0,0,"14.jpg",0,0
//Break Periods
//Storyboard Layer 0 (Background)
//Storyboard Layer 1 (Fail)
//Storyboard Layer 2 (Pass)
//Storyboard Layer 3 (Foreground)
//Storyboard Sound Samples

[TimingPoints]
11267,339.943342776204,4,1,0,20,1,0
11267,-133.333333333333,4,1,0,20,0,0
18025,337.647720877884,4,1,0,20,1,0
18025,-133.333333333333,4,1,0,20,0,0
22080,337.647720877884,4,1,0,20,1,0
22092,-133.333333333333,4,1,0,20,0,0
59895,337.647720877884,4,1,0,20,1,0
59895,-100,4,1,0,20,0,0
87582,-133.333333333333,4,1,0,20,0,0
134261,-133.333333333333,4,1,0,5,0,0
134852,-133.333333333333,4,1,0,20,0,0
135538,337.647720877884,4,1,0,20,1,0
199944,-100,4,1,0,5,0,0
200028,-100,4,1,0,20,0,0
259792,-133.333333333333,4,2,0,5,0,0
270597,-133.333333333333,4,2,0,5,0,0

[HitObjects]
120,232,11267,6,0,P|160:184|232:184,1,135.000005149842
284,240,11776,1,0,0:0:0:0:
348,192,11946,2,0,P|400:144|400:80,1,135.000005149842
320,68,12456,2,0,B|280:72|280:72|184:56,1,135.000005149842
104,44,12966,1,0,0:0:0:0:
200,176,13306,1,0,0:0:0:0:
320,68,13646,1,0,0:0:0:0:
448,248,13986,6,0,L|384:276,1,67.5000025749208
312,308,14326,1,0,0:0:0:0:
320,148,14666,1,0,0:0:0:0:
448,248,15006,1,0,0:0:0:0:
448,248,15856,5,0,0:0:0:0:
387,192,16026,2,0,P|409:165|424:135,1,67.5000025749208
308,196,16366,2,0,P|286:222|271:252,1,67.5000025749208
280,120,16706,2,0,P|224:84|157:89,1,135.000005149842
352,84,17216,2,0,P|356:60|376:20,1,67.5000025749208
432,80,17555,1,0,0:0:0:0:
432,80,18025,6,0,P|456:144|432:208,1,135.000005149842
80,304,18700,2,0,P|56:240|80:176,1,135.000005149842
256,192,19206,1,0,0:0:0:0:
256,272,19375,2,0,L|256:344,1,67.5000025749208
256,112,19713,1,0,0:0:0:0:
328,152,19882,2,0,P|344:120|348:88,1,67.5000025749208
256,112,20219,1,0,0:0:0:0:
184,152,20388,2,0,P|154:92|144:24,1,135.000005149842
140,272,21063,5,0,0:0:0:0:
256,112,21401,1,0,0:0:0:0:
372,272,21739,1,0,0:0:0:0:
256,224,22076,1,0,0:0:0:0:
328,184,22417,6,0,P|304:156|272:144,1,67.5000025749208
256,224,22755,1,0,0:0:0:0:
368,112,22924,2,0,P|420:76|488:84,1,135.000005149842
256,224,23430,1,0,0:0:0:0:
184,184,23768,6,0,P|208:156|240:144,1,67.5000025749208
256,224,24105,1,0,0:0:0:0:
144,112,24274,2,0,P|92:76|24:84,1,135.000005149842
256,224,24781,1,0,0:0:0:0:
396,304,25118,6,0,L|444:256,1,67.5000025749208
316,288,25456,2,0,L|268:336,1,67.5000025749208
260,152,25794,1,0,0:0:0:0:
316,208,25962,1,0,0:0:0:0:
392,180,26131,2,0,P|416:120|384:60,1,135.000005149842
260,152,26638,2,0,P|236:212|268:272,1,135.000005149842
336,124,27144,1,0,0:0:0:0:
64,272,27482,6,0,L|120:236,1,67.5000025749208
252,232,27820,2,0,L|196:268,1,67.5000025749208
72,228,28157,2,0,L|128:192,1,67.5000025749208
260,192,28495,2,0,L|204:228,1,67.5000025749208
144,116,28832,1,0,0:0:0:0:
196,52,29001,1,0,0:0:0:0:
272,80,29170,1,0,0:0:0:0:
344,40,29339,2,0,P|392:76|464:68,1,135.000005149842
344,176,29845,5,0,0:0:0:0:
400,116,30014,1,0,0:0:0:0:
380,248,30183,2,0,L|352:380,1,135.000005149842
184,248,30690,1,0,0:0:0:0:
260,216,30858,1,0,0:0:0:0:
288,292,31027,1,0,0:0:0:0:
172,212,31196,1,0,0:0:0:0:
324,268,31365,1,0,0:0:0:0:
276,172,31534,2,0,B|280:144|280:144|300:124|300:124|300:80|336:56,1,135.000005149842
63,145,32209,5,0,0:0:0:0:
141,38,32378,1,0,0:0:0:0:
141,170,32547,1,0,0:0:0:0:
64,64,32715,1,0,0:0:0:0:
188,104,32884,2,0,L|252:80,1,67.5000025749208
141,170,33222,1,0,0:0:0:0:
324,280,33391,2,0,L|260:304,1,67.5000025749208
371,214,33728,1,0,0:0:0:0:
188,104,33897,1,0,0:0:0:0:
188,104,34404,6,0,L|248:140,1,67.5000025749208
324,116,34741,1,0,0:0:0:0:
400,88,34910,2,0,L|457:122,1,67.5000025749208
340,36,35248,2,0,L|282:1,1,67.5000025749208
392,172,35585,6,0,L|344:220,1,67.5000025749208
452,228,35923,1,0,0:0:0:0:
120,212,36092,2,0,L|168:164,1,67.5000025749208
60,156,36430,1,0,0:0:0:0:
256,192,36598,1,0,0:0:0:0:
296,268,37105,5,0,0:0:0:0:
215,268,37274,1,0,0:0:0:0:
190,191,37442,1,0,0:0:0:0:
256,144,37611,1,0,0:0:0:0:
322,191,37780,1,0,0:0:0:0:
212,76,37949,1,0,0:0:0:0:
322,191,38118,1,0,0:0:0:0:
400,68,38287,6,0,P|432:80|464:84,1,67.5000025749208
436,188,38624,1,0,0:0:0:0:
112,68,38793,6,0,P|80:80|48:84,1,67.5000025749208
76,188,39131,1,0,0:0:0:0:
256,96,39300,1,0,0:0:0:0:
176,296,39806,6,0,L|200:284,2,22.5000008583069,0|0|0,0:0|0:0|0:0,0:0:0:0:
212,276,39975,2,0,L|272:244,1,67.5000025749208
412,224,40312,2,0,L|352:256,1,67.5000025749208
316,184,40650,2,0,P|320:148|316:112,1,67.5000025749208
128,44,40988,6,0,P|112:108|128:176,1,135.000005149842
208,112,41494,1,0,0:0:0:0:
304,148,41663,2,0,L|304:80,1,67.5000025749208
208,204,42001,2,0,L|208:272,1,67.5000025749208
304,148,42338,2,0,P|360:112|424:128,1,135.000005149842
380,220,42845,1,0,0:0:0:0:
380,220,42929,1,0,0:0:0:0:
380,220,43014,1,0,0:0:0:0:
216,92,43182,5,0,0:0:0:0:
308,52,43351,1,0,0:0:0:0:
228,192,43520,1,0,0:0:0:0:
308,52,43689,6,0,P|340:56|376:52,1,67.5000025749208
216,92,44027,1,0,0:0:0:0:
362,156,44195,6,0,P|329:152|296:156,1,67.5000025749208
454,116,44533,1,0,0:0:0:0:
332,248,44702,1,0,0:0:0:0:
332,248,45208,6,0,L|277:287,1,67.5000025749208
396,200,45546,1,0,0:0:0:0:
252,208,45715,2,0,P|224:192|200:164,1,67.5000025749208
348,76,46052,2,0,P|376:92|400:120,1,67.5000025749208
112,152,46390,5,0,0:0:0:0:
164,92,46559,1,0,0:0:0:0:
200,164,46728,1,0,0:0:0:0:
100,88,46897,5,0,0:0:0:0:
228,104,47065,1,0,0:0:0:0:
148,200,47234,1,0,0:0:0:0:
168,40,47403,1,0,0:0:0:0:
168,40,47910,6,0,L|164:108,1,67.5000025749208
264,120,48247,2,0,L|260:188,1,67.5000025749208
360,188,48585,2,0,L|356:256,1,67.5000025749208
444,132,48922,1,0,0:0:0:0:
256,280,49091,6,0,P|228:280|188:292,1,67.5000025749208
120,328,49429,1,0,0:0:0:0:
256,104,49598,2,0,P|284:104|324:92,1,67.5000025749208
392,56,49935,1,0,0:0:0:0:
256,192,50104,1,0,0:0:0:0:
256,192,50611,6,0,L|232:192,2,22.5000008583069,0|0|0,0:0|0:0|0:0,0:0:0:0:
284,192,50780,2,0,L|352:192,1,67.5000025749208
456,264,51117,2,0,L|388:264,1,67.5000025749208
432,120,51455,2,0,L|432:188,1,67.5000025749208
360,80,51792,6,0,P|296:60|232:80,1,135.000005149842
296,160,52299,2,0,L|296:296,1,135.000005149842
352,208,52805,2,0,P|376:228|408:244,1,67.5000025749208
240,288,53143,2,0,P|220:312|204:344,1,67.5000025749208
160,176,53481,2,0,P|136:156|104:140,1,67.5000025749208
272,96,53818,2,0,P|292:72|308:40,1,67.5000025749208
256,192,54156,2,0,B|296:184|324:204|324:204|356:196|356:196|384:212,1,135.000005149842
352,288,54663,5,0,0:0:0:0:
408,136,54831,1,0,0:0:0:0:
476,252,55000,1,0,0:0:0:0:
476,252,55338,6,0,L|412:224,1,67.5000025749208
340,196,55675,2,0,B|316:224|276:224|276:224|244:208|244:208|240:180|240:180,1,135.000005149842
296,120,56182,2,0,B|320:92|360:92|360:92|392:108|392:108|396:136|396:136,1,135.000005149842
212,136,56688,1,0,0:0:0:0:
240,60,56857,1,0,0:0:0:0:
296,120,57026,1,0,0:0:0:0:
156,76,57195,1,0,0:0:0:0:
424,88,59895,6,0,P|376:92|344:116,1,90
412,172,60232,1,0,0:0:0:0:
272,60,60401,2,0,P|196:48|116:108,1,180
216,148,60907,1,0,0:0:0:0:
156,216,61076,1,0,0:0:0:0:
304,156,61245,2,0,L|392:132,1,90
352,232,61583,1,0,0:0:0:0:
215,147,61752,2,0,P|130:133|68:194,1,180
196,303,62258,2,0,L|252:232,1,90
356,84,62596,6,0,B|388:44|388:44|468:24|490:95,1,180
276,48,63102,1,0,0:0:0:0:
340,172,63271,2,0,L|343:261,1,90
424,144,63609,1,0,0:0:0:0:
260,228,63777,2,0,P|176:212|148:128,1,180
236,140,64284,2,0,L|121:278,1,180
292,72,64790,5,0,0:0:0:0:
356,132,64959,1,0,0:0:0:0:
432,84,65128,1,0,0:0:0:0:
348,220,65297,2,0,P|320:268|204:280,1,180
348,220,65803,2,0,L|436:240,2,90,0|0|0,0:0|0:0|0:0,0:0:0:0:
256,200,66310,2,0,L|168:180,1,90,0|0,0:0|0:0,0:0:0:0:
64,148,66647,5,0,0:0:0:0:
60,236,66816,1,0,0:0:0:0:
136,284,66985,1,0,0:0:0:0:
224,260,67154,2,0,P|308:244|368:308,1,180
280,328,67660,1,0,0:0:0:0:
336,160,67829,1,0,0:0:0:0:
440,232,67998,2,0,B|440:196|440:196|460:152|460:152|436:108|452:56,1,180
308,244,68505,5,0,0:0:0:0:
424,152,68673,1,0,0:0:0:0:
336,160,68842,1,0,0:0:0:0:
447,303,69011,2,0,L|392:232,1,90
280,88,69349,2,0,L|336:160,1,90
360,320,69686,2,0,P|320:344|276:352,1,90
133,315,70024,2,0,P|172:292|216:284,1,90
300,252,70362,2,0,L|236:184,1,90
176,120,70699,6,0,P|272:132|320:68,1,180
232,48,71206,1,0,0:0:0:0:
364,156,71375,1,0,0:0:0:0:
364,156,71712,6,0,L|313:230,1,90
412,80,72050,1,0,0:0:0:0:
456,156,72219,1,0,0:0:0:0:
364,156,72387,2,0,L|284:204,1,90
412,236,72725,1,0,0:0:0:0:
412,236,73063,6,0,L|332:284,1,90
170,298,73400,2,0,L|248:252,1,90
365,77,73738,2,0,L|288:124,1,90
84,240,74076,1,0,0:0:0:0:
84,240,74413,5,0,0:0:0:0:
112,136,74582,2,0,P|196:152|264:92,1,180
415,90,75089,2,0,L|340:140,1,90
172,68,75426,1,0,0:0:0:0:
288,192,75595,1,0,0:0:0:0:
112,136,75764,1,0,0:0:0:0:
263,94,75933,1,0,0:0:0:0:
148,220,76102,6,0,P|140:263|151:307,2,90,0|0|0,0:0|0:0|0:0,0:0:0:0:
228,260,76608,1,0,0:0:0:0:
200,148,76777,2,0,B|212:116|212:116|252:124|252:124|284:76|344:80,1,180
328,168,77283,1,0,0:0:0:0:
421,19,77452,5,0,0:0:0:0:
496,144,77621,1,0,0:0:0:0:
496,144,77705,1,0,0:0:0:0:
496,144,77790,1,0,0:0:0:0:
504,55,77959,1,0,0:0:0:0:
408,164,78127,1,0,0:0:0:0:
408,164,78465,6,0,L|392:256,1,90
480,236,78803,1,0,0:0:0:0:
320,160,78972,2,0,P|329:117|362:87,2,90,0|0|0,0:0|0:0|0:0,0:0:0:0:
362,87,79478,1,0,0:0:0:0:
360,320,79816,1,0,0:0:0:0:
96,120,80153,5,0,0:0:0:0:
204,64,80322,1,0,0:0:0:0:
120,32,80491,1,0,0:0:0:0:
180,152,80660,1,0,0:0:0:0:
204,64,80829,1,0,0:0:0:0:
328,132,80997,1,0,0:0:0:0:
292,48,81166,1,0,0:0:0:0:
260,192,81335,1,0,0:0:0:0:
412,104,81504,6,0,P|456:112|500:104,1,90
260,192,81842,2,0,P|215:184|171:192,1,90
360,192,82179,1,0,0:0:0:0:
360,192,82517,6,0,P|382:230|419:255,1,90
308,107,82855,2,0,P|285:69|248:44,1,90
260,192,83192,2,0,L|212:268,1,90
308,108,83530,1,0,0:0:0:0:
88,112,83867,6,0,P|64:144|52:196,1,90
88,327,84205,2,0,P|114:291|124:248,1,90
252,80,84543,2,0,L|284:164,1,90
316,16,84880,1,0,0:0:0:0:
356,296,85218,1,0,0:0:0:0:
339,168,85556,5,0,0:0:0:0:
429,93,85725,1,0,0:0:0:0:
400,206,85893,1,0,0:0:0:0:
357,98,86062,1,0,0:0:0:0:
456,160,86231,1,0,0:0:0:0:
264,160,86569,2,0,L|168:176,2,90,0|0|0,0:0|0:0|0:0,0:0:0:0:
192,272,87244,6,0,L|103:286,1,90
268,244,87582,2,0,P|324:280|392:264,1,135.000005149842
348,124,88088,2,0,L|340:192,1,67.5000025749208
404,64,88426,1,0,0:0:0:0:
468,112,88595,1,0,0:0:0:0:
284,76,88763,1,0,0:0:0:0:
412,172,88932,2,0,B|408:204|408:204|432:220|432:220|416:260|444:288,1,135.000005149842
164,156,89439,1,0,0:0:0:0:
244,148,89608,1,0,0:0:0:0:
212,220,89776,6,0,L|220:288,1,67.5000025749208
244,148,90114,2,0,L|236:80,1,67.5000025749208
236,80,90620,2,0,P|288:112|356:92,1,135.000005149842
300,32,91127,1,0,0:0:0:0:
320,164,91296,1,0,0:0:0:0:
236,80,91465,2,0,L|180:120,1,67.5000025749208
121,239,91802,2,0,L|176:200,1,67.5000025749208
112,320,92140,1,0,0:0:0:0:
256,220,92309,6,0,P|304:180|372:188,1,135.000005149842
328,256,92815,1,0,0:0:0:0:
288,104,92984,1,0,0:0:0:0:
288,104,93659,6,0,P|254:99|223:87,1,67.5000025749208
367,84,93997,2,0,P|401:88|432:100,1,67.5000025749208
344,164,94335,1,0,0:0:0:0:
344,164,94672,6,0,L|336:232,1,67.5000025749208
324,312,95010,2,0,P|284:264|216:256,1,135.000005149842
144,292,95516,2,0,P|192:244|192:176,1,135.000005149842
112,192,96023,2,0,L|248:172,1,135.000005149842
260,92,96529,2,0,L|324:116,2,67.5000025749208,0|0|0,0:0|0:0|0:0,0:0:0:0:
400,88,97036,1,0,0:0:0:0:
324,232,97373,5,0,0:0:0:0:
328,244,97542,1,0,0:0:0:0:
332,256,97711,2,0,L|353:320,1,67.5000025749208
252,268,98049,2,0,L|230:203,1,67.5000025749208
400,212,98386,1,0,0:0:0:0:
400,212,98724,6,0,L|421:276,1,67.5000025749208
252,268,99062,2,0,L|230:203,1,67.5000025749208
332,256,99399,2,0,L|353:320,1,67.5000025749208
180,308,99737,1,0,0:0:0:0:
72,64,100075,6,0,L|112:120,1,67.5000025749208
164,180,100412,2,0,B|192:124|248:164|272:112,1,135.000005149842
228,228,100919,1,0,0:0:0:0:
212,64,101088,2,0,P|276:32|332:60,1,135.000005149842
408,48,101594,1,0,0:0:0:0:
372,120,101763,2,0,B|364:152|364:152|376:180|376:180|356:220|376:256,1,135.000005149842
448,220,102269,1,0,0:0:0:0:
296,280,102438,2,0,L|232:304,2,67.5000025749208,0|0|0,0:0|0:0|0:0,0:0:0:0:
156,332,102945,1,0,0:0:0:0:
279,199,103113,6,0,P|214:193|164:235,1,135.000005149842
240,268,103620,1,0,0:0:0:0:
288,119,103789,2,0,P|260:60|199:37,1,135.000005149842
360,80,104295,1,0,0:0:0:0:
208,120,104464,2,0,L|140:140,1,67.5000025749208
360,160,104802,1,0,0:0:0:0:
300,216,104971,1,0,0:0:0:0:
440,176,105139,2,0,P|452:236|516:272,1,135.000005149842
300,216,105646,1,0,0:0:0:0:
369,330,105815,6,0,L|312:296,1,67.5000025749208
178,237,106152,2,0,L|236:272,1,67.5000025749208
280,136,106490,1,0,0:0:0:0:
280,136,107165,6,0,L|224:100,1,67.5000025749208
356,108,107503,2,0,L|412:144,1,67.5000025749208
224,100,107840,1,0,0:0:0:0:
224,100,108178,5,0,0:0:0:0:
216,112,108347,1,0,0:0:0:0:
208,124,108516,2,0,L|168:178,1,67.5000025749208
148,72,108853,1,0,0:0:0:0:
244,212,109022,2,0,L|283:266,1,67.5000025749208
296,152,109360,1,0,0:0:0:0:
236,332,109529,1,0,0:0:0:0:
236,332,110035,6,0,P|268:328|300:316,1,67.5000025749208
412,231,110373,2,0,P|379:235|348:248,1,67.5000025749208,0|0,0:0|0:0,0:0:0:0:
380,320,110710,1,0,0:0:0:0:
296,188,110879,2,0,P|252:144|184:148,1,135.000005149842
220,220,111386,5,0,0:0:0:0:
240,64,111555,1,0,0:0:0:0:
296,148,111723,1,0,0:0:0:0:
144,96,111892,1,0,0:0:0:0:
284,96,112061,1,0,0:0:0:0:
220,220,112230,1,0,0:0:0:0:
220,220,112736,6,0,L|152:212,1,67.5000025749208
256,292,113074,2,0,L|324:300,1,67.5000025749208
200,200,113412,2,0,L|132:192,1,67.5000025749208
276,312,113749,1,0,0:0:0:0:
282,76,113918,6,0,P|256:98|240:128,1,67.5000025749208
320,148,114256,1,0,0:0:0:0:
171,83,114425,6,0,P|142:68|109:63,1,67.5000025749208
114,143,114762,1,0,0:0:0:0:
220,20,114931,1,0,0:0:0:0:
280,288,115438,5,0,0:0:0:0:
324,220,115606,1,0,0:0:0:0:
404,224,115775,1,0,0:0:0:0:
368,152,115944,2,0,L|304:128,1,67.5000025749208
440,116,116282,2,0,L|504:140,1,67.5000025749208
360,292,116619,2,0,P|296:280|240:316,1,135.000005149842
312,356,117126,1,0,0:0:0:0:
264,208,117295,2,0,L|224:80,1,135.000005149842
344,188,117801,1,0,0:0:0:0:
188,240,117970,6,0,P|154:243|126:260,1,67.5000025749208
256,284,118308,2,0,P|292:280|324:256,1,67.5000025749208
188,160,118645,1,0,0:0:0:0:
188,160,118983,5,0,0:0:0:0:
192,140,119152,1,0,0:0:0:0:
196,120,119320,2,0,L|207:53,1,67.5000025749208
96,136,119658,1,0,0:0:0:0:
288,116,119827,2,0,L|276:182,1,67.5000025749208
376,64,120165,1,0,0:0:0:0:
216,240,120333,1,0,0:0:0:0:
215,240,120840,6,0,P|190:261|172:290,1,67.5000025749208
296,231,121178,2,0,P|321:210|339:181,1,67.5000025749208
264,308,121515,1,0,0:0:0:0:
256,164,121684,1,0,0:0:0:0:
368,272,121853,1,0,0:0:0:0:
176,172,122022,6,0,L|120:132,1,67.5000025749208
140,244,122359,1,0,0:0:0:0:
256,164,122528,2,0,L|296:108,1,67.5000025749208
296,232,122866,1,0,0:0:0:0:
208,100,123035,1,0,0:0:0:0:
220,264,123541,6,0,L|224:332,1,67.5000025749208
296,232,123879,2,0,L|292:164,1,67.5000025749208,0|0,0:0|0:0,0:0:0:0:
140,164,124216,2,0,L|144:232,1,67.5000025749208,0|0,0:0|0:0,0:0:0:0:
208,100,124554,1,0,0:0:0:0:
220,264,124723,6,0,L|224:332,1,67.5000025749208
296,232,125061,1,0,0:0:0:0:
144,232,125229,2,0,L|140:164,1,67.5000025749208
68,264,125567,1,0,0:0:0:0:
208,100,125736,1,0,0:0:0:0:
208,100,126242,5,0,0:0:0:0:
220,108,126327,1,0,0:0:0:0:
232,116,126411,2,0,P|265:120|298:116,1,67.5000025749208
175,175,126749,2,0,P|142:171|109:175,1,67.5000025749208
232,232,127086,2,0,P|265:236|298:232,1,67.5000025749208
160,272,127424,6,0,L|108:316,1,67.5000025749208
268,156,127762,2,0,L|320:112,2,67.5000025749208,0|0|0,0:0|0:0|0:0,0:0:0:0:
268,156,128437,6,0,P|296:136|328:128,1,67.5000025749208
459,136,128775,2,0,P|432:155|400:164,1,67.5000025749208
268,156,129112,2,0,L|213:116,1,67.5000025749208
332,204,129450,1,0,0:0:0:0:
332,204,129788,5,0,0:0:0:0:
340,216,129956,1,0,0:0:0:0:
348,228,130125,2,0,B|368:256|368:256|356:312|296:312,1,135.000005149842
216,312,130632,1,0,0:0:0:0:
296,312,130801,2,0,L|432:312,1,135.000005149842
256,240,131307,2,0,L|216:185,1,67.5000025749208
320,188,131645,2,0,L|359:242,1,67.5000025749208
384,140,131982,1,0,0:0:0:0:
256,240,132151,1,0,0:0:0:0:
256,240,132489,5,0,0:0:0:0:
244,248,132658,1,0,0:0:0:0:
232,256,132826,1,0,0:0:0:0:
88,92,133164,6,0,L|124:148,1,67.5000025749208
136,28,133502,1,0,0:0:0:0:
88,112,133839,6,0,L|124:168,1,67.5000025749208
232,108,134261,6,0,L|268:108,1,33.7500012874604
488,208,134852,6,0,L|432:244,2,67.5000025749208,0|0|0,0:0|0:0|0:0,0:0:0:0:
160,276,135538,6,0,L|248:244,1,90
236,336,135875,1,0,0:0:0:0:
328,211,136044,2,0,P|377:141|345:60,1,180
324,300,136550,2,0,P|363:321|407:324,1,90
228,200,136888,6,0,P|188:178|144:175,1,90
160,276,137226,1,0,0:0:0:0:
328,212,137395,2,0,P|305:128|223:101,1,180
268,300,137901,2,0,P|310:313|354:309,1,90
160,276,138239,2,0,P|117:262|73:266,1,90
228,216,138576,1,0,0:0:0:0:
228,216,138745,2,0,B|224:188|224:188|244:164|244:164|232:124|248:88|248:88|240:40|240:40,1,180
336,132,139252,1,0,0:0:0:0:
152,104,139420,2,0,P|92:116|48:220,1,180
136,192,139927,1,0,0:0:0:0:
384,260,140265,6,0,L|432:184,1,90
296,232,140602,2,0,L|248:308,1,90
256,151,140940,2,0,P|296:75|382:63,1,180
200,224,141446,2,0,P|162:184|187:69,1,180
352,152,141953,2,0,P|396:156|440:136,1,90
308,256,142290,5,0,0:0:0:0:
396,236,142459,1,0,0:0:0:0:
368,324,142628,1,0,0:0:0:0:
308,256,142797,2,0,B|284:272|284:272|252:264|252:264|204:304|140:280,1,180
160,113,143303,2,0,L|184:200,1,90,0|0,0:0|0:0,0:0:0:0:
208,36,143641,5,0,0:0:0:0:
344,48,143810,1,0,0:0:0:0:
260,156,143979,1,0,0:0:0:0:
232,24,144148,5,0,0:0:0:0:
264,180,144316,1,0,0:0:0:0:
268,204,144654,6,0,L|283:292,1,90
340,152,144992,2,0,L|324:63,1,90
76,80,145329,2,0,L|92:172,1,90
187,296,145667,2,0,L|172:208,1,90
340,152,146005,2,0,L|355:240,1,90
380,72,146342,5,0,0:0:0:0:
452,16,146511,1,0,0:0:0:0:
464,104,146680,1,0,0:0:0:0:
288,80,146849,1,0,0:0:0:0:
340,152,147018,2,0,P|328:216|228:248,1,180
408,240,147524,1,0,0:0:0:0:
256,164,147694,2,0,L|177:120,1,90
16,200,148030,2,0,L|94:243,1,90
252,332,148368,1,0,0:0:0:0:
252,332,148706,6,0,L|173:288,1,90
332,372,149043,2,0,P|388:340|400:232,1,180
324,280,149550,1,0,0:0:0:0:
299,191,149719,2,0,P|300:147|315:105,1,90
220,232,150056,2,0,P|219:276|204:318,1,90
151,171,150394,2,0,P|152:127|167:85,1,90
80,227,150732,2,0,P|79:272|64:314,1,90
24,156,151069,1,0,0:0:0:0:
316,72,151407,6,0,L|404:44,1,90
392,136,151745,2,0,B|392:180|392:180|428:264|428:264|428:312,1,180
344,280,152251,2,0,P|300:272|256:280,1,90
255,280,152758,5,0,0:0:0:0:
180,228,152926,2,0,L|200:48,1,180
116,84,153433,1,0,0:0:0:0:
192,132,153602,2,0,P|276:144|340:80,1,180
248,56,154108,1,0,0:0:0:0:
344,200,154277,1,0,0:0:0:0:
412,140,154446,2,0,P|432:220|368:288,1,180
448,336,154952,1,0,0:0:0:0:
279,283,155122,6,0,P|237:271|193:279,1,90
25,315,155459,2,0,P|68:328|112:320,1,90
124,232,155796,2,0,L|100:144,1,90
152,9,156134,2,0,L|176:96,1,90
204,180,156472,2,0,P|252:172|296:180,1,90
428,254,156809,2,0,P|384:262|340:256,1,90
384,176,157147,6,0,B|384:144|384:144|356:132|356:132|352:64|292:44,1,180
468,144,157653,2,0,P|464:232|384:264,1,180
264,132,158160,2,0,L|92:188,1,180
120,56,158666,1,0,0:0:0:0:
248,100,158835,1,0,0:0:0:0:
92,187,159004,1,0,0:0:0:0:
244,73,159173,5,0,0:0:0:0:
368,128,159342,1,0,0:0:0:0:
205,201,159511,1,0,0:0:0:0:
364,104,159679,1,0,0:0:0:0:
468,204,159848,6,0,P|404:252|420:344,1,180
492,292,160355,2,0,L|328:216,1,180
246,310,160861,2,0,P|293:237|264:156,1,180
52,272,161368,1,0,0:0:0:0:
108,180,161536,1,0,0:0:0:0:
204,224,161705,1,0,0:0:0:0:
112,72,161874,5,0,0:0:0:0:
252,32,162043,1,0,0:0:0:0:
108,180,162212,1,0,0:0:0:0:
252,32,162380,1,0,0:0:0:0:
268,176,162549,6,0,B|288:204|288:204|280:240|280:240|336:272|335:326,1,180
175,231,163056,2,0,P|152:148|206:80,1,180
348,116,163562,2,0,P|371:199|317:267,1,180
228,328,164069,1,0,0:0:0:0:
176,232,164238,2,0,L|136:152,1,90
188,28,164575,1,0,0:0:0:0:
240,124,164744,2,0,L|280:204,1,90
312,44,165082,1,0,0:0:0:0:
132,132,165251,6,0,P|72:68|80:-20,1,180
240,124,165757,1,0,0:0:0:0:
312,44,165926,2,0,B|356:60|356:60|404:184,1,180
196,224,166432,1,0,0:0:0:0:
304,216,166601,2,0,L|336:300,1,90,0|0,0:0|0:0,0:0:0:0:
88,224,166939,2,0,L|56:140,1,90
196,224,167276,2,0,L|228:308,1,90,0|0,0:0|0:0,0:0:0:0:
384,144,167614,2,0,L|352:60,1,90,0|0,0:0|0:0,0:0:0:0:
304,216,167952,6,0,P|380:252|464:216,1,180
207,167,168458,2,0,P|128:131|48:167,1,180
304,116,168965,2,0,B|320:84|320:84|364:76|364:76|388:40|452:24,1,180
128,236,169471,1,0,0:0:0:0:
232,272,169640,2,0,L|336:308,1,90
112,128,169978,2,0,L|26:98,1,90
32,280,170315,2,0,P|60:316|100:336,1,90
208,168,170653,6,0,L|288:100,1,90
128,236,170991,1,0,0:0:0:0:
226,147,171159,2,0,L|329:128,1,90
128,236,171497,1,0,0:0:0:0:
252,138,171666,2,0,P|328:156|360:248,1,180
336,72,172172,5,0,0:0:0:0:
436,200,172341,1,0,0:0:0:0:
276,224,172510,1,0,0:0:0:0:
352,80,172679,5,0,0:0:0:0:
260,212,172848,1,0,0:0:0:0:
420,212,173016,1,0,0:0:0:0:
320,84,173185,1,0,0:0:0:0:
340,264,173354,6,0,P|411:311|490:277,1,180
240,308,173861,2,0,B|156:256|156:336|68:296,1,180
256,200,174367,2,0,P|288:120|372:84,1,180
368,192,174873,1,0,0:0:0:0:
304,104,175042,1,0,0:0:0:0:
196,112,175211,1,0,0:0:0:0:
140,204,175380,5,0,0:0:0:0:
196,111,175549,1,0,0:0:0:0:
124,29,175718,1,0,0:0:0:0:
25,71,175887,1,0,0:0:0:0:
34,179,176055,2,0,P|88:108|176:104,1,180
140,204,176562,1,0,0:0:0:0:
124,29,176731,1,0,0:0:0:0:
124,29,177068,6,0,L|132:120,1,90
236,144,177406,2,0,L|244:235,1,90
352,236,177743,2,0,L|359:325,1,90
424,156,178081,1,0,0:0:0:0:
424,156,178419,5,0,0:0:0:0:
412,140,178588,1,0,0:0:0:0:
400,124,178756,2,0,P|312:104|236:144,1,180
328,204,179263,1,0,0:0:0:0:
288,104,179432,2,0,P|204:69|123:95,1,180
328,204,179938,1,0,0:0:0:0:
204,180,180107,2,0,L|176:268,1,90
40,337,180445,2,0,L|68:252,1,90
276,312,180782,2,0,P|361:328|427:272,1,180
172,340,181289,5,0,0:0:0:0:
104,256,181458,2,0,P|84:164|116:88,1,180
204,180,181964,1,0,0:0:0:0:
244,80,182133,2,0,P|284:84|336:72,1,90
267,303,182471,2,0,P|223:300|179:310,1,90
316,208,182808,2,0,L|408:236,1,90
204,180,183146,2,0,L|117:153,1,90
89,323,183483,6,0,L|168:280,1,90
422,60,183821,2,0,L|344:104,1,90
99,164,184159,2,0,P|184:142|256:192,1,180
164,248,184665,1,0,0:0:0:0:
364,184,184834,2,0,B|376:232|376:232|456:252|456:252|467:298,1,180
280,264,185341,1,0,0:0:0:0:
234,34,185509,2,0,L|300:96,1,90
156,112,185847,2,0,L|90:50,1,90
236,184,186185,1,0,0:0:0:0:
248,196,186353,1,0,0:0:0:0:
264,208,186522,2,0,L|329:269,1,90
423,52,186860,6,0,P|383:129|420:208,1,180
496,132,187366,1,0,0:0:0:0:
300,72,187535,2,0,P|252:64|212:72,1,90
59,160,187873,2,0,P|103:168|148:160,1,90
208,252,188211,2,0,L|146:317,1,90
316,264,188548,2,0,L|377:198,1,90
272,180,188886,1,0,0:0:0:0:
432,324,189223,6,0,P|456:288|464:240,1,90
356,248,189561,1,0,0:0:0:0:
404,152,189730,1,0,0:0:0:0:
404,152,189814,1,0,0:0:0:0:
404,152,189899,1,0,0:0:0:0:
356,248,190068,1,0,0:0:0:0:
296,160,190236,2,0,P|240:124|140:160,1,180
220,236,190743,1,0,0:0:0:0:
220,28,190912,5,0,0:0:0:0:
348,76,191081,1,0,0:0:0:0:
348,76,191165,1,0,0:0:0:0:
348,76,191249,1,0,0:0:0:0:
220,28,191418,1,0,0:0:0:0:
372,84,191587,2,0,P|424:136|400:232,1,180
252,144,192093,1,0,0:0:0:0:
260,252,192262,6,0,P|216:240|176:212,1,90
67,75,192600,2,0,P|110:87|148:111,1,90
68,184,192938,2,0,P|72:264|144:328,1,180
264,76,193444,1,0,0:0:0:0:
264,76,193528,1,0,0:0:0:0:
264,76,193613,1,0,0:0:0:0:
304,176,193782,1,0,0:0:0:0:
356,20,193951,1,0,0:0:0:0:
396,120,194119,1,0,0:0:0:0:
264,76,194288,5,0,0:0:0:0:
248,268,194457,1,0,0:0:0:0:
396,120,194626,1,0,0:0:0:0:
200,172,194795,1,0,0:0:0:0:
364,240,194963,6,0,B|396:256|396:256|408:304|408:304|488:356,1,180
484,248,195470,1,0,0:0:0:0:
320,320,195639,2,0,P|284:296|272:252,1,90
360,143,195976,2,0,P|403:147|435:178,1,90
252,144,196314,2,0,L|182:86,1,90
34,102,196652,2,0,L|104:160,1,90
244,276,196989,1,0,0:0:0:0:
244,276,197327,6,0,L|174:218,1,90
67,228,197665,2,0,P|71:313|151:344,1,180
128,140,198171,1,0,0:0:0:0:
236,160,198340,2,0,L|243:70,1,90
24,108,198678,2,0,L|16:197,1,90
252,152,199015,2,0,L|259:62,1,90
128,140,199353,1,0,0:0:0:0:
368,64,199522,5,0,0:0:0:0:
368,64,199606,1,0,0:0:0:0:
368,64,199691,2,0,P|372:128|424:172,1,135
448,164,200028,2,0,L|496:184,1,45
352,232,200197,2,0,L|310:214,1,45
444,256,200366,2,0,P|392:324|304:316,1,180
216,256,200872,1,0,0:0:0:0:
120,308,201041,2,0,B|40:200|40:200|48:152,1,180
116,72,201548,6,0,P|160:84|204:76,1,90
160,176,201885,1,0,0:0:0:0:
216,80,202054,2,0,P|248:112|290:127,1,90
160,176,202392,1,0,0:0:0:0:
300,136,202561,2,0,P|311:180|340:214,1,90
160,176,202898,1,0,0:0:0:0:
356,224,203067,2,0,B|372:264|372:264|360:304|360:304|320:336|270:313,1,180
244,224,203574,1,0,0:0:0:0:
448,164,203742,6,0,L|404:84,1,90
252,25,204080,2,0,L|296:104,1,90
255,254,204418,2,0,L|212:176,1,90
60,85,204755,2,0,L|104:164,1,90
92,328,205093,1,0,0:0:0:0:
92,328,205431,6,0,L|148:256,1,90
255,254,205768,2,0,P|311:218|315:110,1,180
216,152,206275,1,0,0:0:0:0:
384,296,206444,2,0,L|456:356,1,90
255,254,206781,2,0,L|185:196,1,90
296,344,207119,1,0,0:0:0:0:
340,212,207288,1,0,0:0:0:0:
448,220,207456,2,0,P|456:176|452:128,1,90
296,344,207794,1,0,0:0:0:0:
256,48,208132,5,0,0:0:0:0:
256,68,208301,1,0,0:0:0:0:
256,84,208469,2,0,L|256:176,1,90
352,128,208807,2,0,P|396:112|428:80,1,90
160,128,209145,2,0,P|116:144|84:176,1,90
320,248,209482,2,0,P|363:256|407:245,1,90
192,248,209820,2,0,L|127:311,1,90
256,340,210158,1,0,0:0:0:0:
256,148,210326,1,0,0:0:0:0:
320,248,210495,6,0,P|364:248|405:230,1,90
192,248,210833,2,0,P|147:247|106:265,1,90
256,148,211171,1,0,0:0:0:0:
320,248,211339,1,0,0:0:0:0:
320,248,211424,1,0,0:0:0:0:
320,248,211508,1,0,0:0:0:0:
256,148,211677,2,0,L|207:72,1,90
207,72,212184,5,0,0:0:0:0:
256,148,212352,2,0,P|176:160|116:88,1,180
305,72,212859,1,0,0:0:0:0:
256,148,213028,2,0,P|336:160|396:88,1,180
256,244,213534,2,0,L|192:307,1,90
344,228,213872,5,0,0:0:0:0:
408,288,214041,1,0,0:0:0:0:
476,232,214209,2,0,L|520:152,1,90
344,228,214547,2,0,B|256:244|256:244|216:216|216:216|172:224,1,180
200,312,215054,1,0,0:0:0:0:
168,132,215222,2,0,L|86:93,1,90
26,221,215560,2,0,L|108:260,1,90
272,100,215898,1,0,0:0:0:0:
272,100,216235,5,0,0:0:0:0:
284,116,216404,1,0,0:0:0:0:
296,132,216573,2,0,L|360:204,1,90
164,100,216911,2,0,L|104:32,1,90
212,196,217248,2,0,P|220:240|208:288,1,90
98,375,217586,2,0,P|90:331|100:288,1,90
324,268,217924,2,0,L|416:268,1,90
490,160,218261,2,0,L|400:160,1,90
508,268,218599,1,0,0:0:0:0:
508,268,218936,5,0,0:0:0:0:
440,184,219105,1,0,0:0:0:0:
508,268,219274,2,0,P|428:292|348:240,1,180
440,184,219781,1,0,0:0:0:0:
256,80,219949,2,0,L|228:272,1,180
348,136,220456,1,0,0:0:0:0:
128,204,220625,5,0,0:0:0:0:
42,86,220794,1,0,0:0:0:0:
180,131,220963,1,0,0:0:0:0:
42,176,221132,1,0,0:0:0:0:
128,58,221300,1,0,0:0:0:0:
128,58,221638,6,0,L|96:152,1,90
124,248,221975,2,0,P|208:264|268:200,1,180
220,104,222482,1,0,0:0:0:0:
267,200,222651,1,0,0:0:0:0:
267,200,222988,5,0,0:0:0:0:
300,32,223157,1,0,0:0:0:0:
267,200,223326,5,0,0:0:0:0:
220,104,223495,1,0,0:0:0:0:
396,80,223664,1,0,0:0:0:0:
267,200,223832,1,0,0:0:0:0:
300,32,224001,1,0,0:0:0:0:
300,32,224339,5,0,0:0:0:0:
376,188,224508,1,0,0:0:0:0:
220,104,224676,2,0,P|184:132|164:176,1,90
376,188,225014,2,0,P|412:160|432:116,1,90
267,200,225352,2,0,P|249:242|254:290,1,90
336,88,225689,2,0,P|353:45|348:-2,1,90
112,112,226027,6,0,L|40:172,2,90
196,44,226534,1,0,0:0:0:0:
168,204,226702,1,0,0:0:0:0:
168,204,227040,5,0,0:0:0:0:
176,220,227209,1,0,0:0:0:0:
184,236,227378,2,0,P|224:260|268:256,1,90
441,224,227715,2,0,P|404:201|360:204,1,90
376,312,228053,1,0,0:0:0:0:
376,312,228391,6,0,L|328:236,1,90
240,80,228728,1,0,0:0:0:0:
336,128,228897,1,0,0:0:0:0:
256,316,229066,1,0,0:0:0:0:
132,164,229235,1,0,0:0:0:0:
228,212,229404,1,0,0:0:0:0:
228,212,229741,6,0,L|156:268,1,90
68,328,230079,2,0,P|48:288|56:236,2,90
60,84,230585,1,0,0:0:0:0:
132,164,230754,1,0,0:0:0:0:
132,164,231092,6,0,P|156:128|200:112,1,90
271,191,231429,2,0,P|243:112|311:63,1,180
240,147,231936,2,0,P|173:201|196:283,1,180
347,152,232442,2,0,P|346:107|320:71,1,90
304,252,232780,6,0,P|387:269|439:202,1,180
148,240,233287,1,0,0:0:0:0:
220,320,233455,1,0,0:0:0:0:
220,320,233793,6,0,L|148:240,1,90
56,120,234131,1,0,0:0:0:0:
160,144,234299,1,0,0:0:0:0:
56,312,234468,1,0,0:0:0:0:
64,152,234637,1,0,0:0:0:0:
220,196,234806,1,0,0:0:0:0:
220,196,235144,6,0,B|232:180|232:180|276:172|276:172|292:152,1,90
356,64,235481,2,0,P|400:120|488:80,1,180
356,64,235988,1,0,0:0:0:0:
252,92,236157,2,0,P|212:164|272:232,1,180
364,180,236663,1,0,0:0:0:0:
464,220,236832,2,0,L|416:304,1,90
267,362,237169,2,0,L|312:284,1,90
364,180,237507,5,0,0:0:0:0:
258,190,237676,1,0,0:0:0:0:
216,88,237845,1,0,0:0:0:0:
299,17,238014,1,0,0:0:0:0:
390,75,238182,6,0,P|432:80|476:64,1,90
299,17,238520,1,0,0:0:0:0:
216,88,238689,2,0,P|136:116|84:48,1,180
364,180,239195,2,0,L|352:272,1,90
232,349,239533,2,0,L|244:260,1,90
216,88,239871,1,0,0:0:0:0:
176,188,240039,2,0,P|120:144|124:40,1,180
312,40,240546,6,0,L|400:68,1,90
308,264,240884,1,0,0:0:0:0:
364,172,241052,1,0,0:0:0:0:
416,264,241221,1,0,0:0:0:0:
272,288,241390,1,0,0:0:0:0:
416,264,241559,1,0,0:0:0:0:
416,264,241897,5,0,0:0:0:0:
272,288,242065,1,0,0:0:0:0:
364,172,242234,2,0,L|417:99,1,90
259,144,242572,2,0,P|218:160|175:150,1,90
268,36,242909,2,0,P|312:44|344:80,1,90
96,224,243247,1,0,0:0:0:0:
175,150,243416,1,0,0:0:0:0:
220,344,243585,6,0,L|200:256,2,90
276,180,244091,1,0,0:0:0:0:
380,208,244260,1,0,0:0:0:0:
380,208,244598,6,0,L|460:160,1,90
276,180,244935,1,0,0:0:0:0:
218,274,245104,1,0,0:0:0:0:
287,357,245273,1,0,0:0:0:0:
387,315,245442,1,0,0:0:0:0:
380,207,245611,1,0,0:0:0:0:
380,208,245948,6,0,L|428:132,1,90
287,357,246286,1,0,0:0:0:0:
276,180,246455,1,0,0:0:0:0:
387,315,246624,1,0,0:0:0:0:
218,274,246792,1,0,0:0:0:0:
380,207,246961,1,0,0:0:0:0:
380,207,247299,6,0,P|388:124|312:80,1,180
236,128,247805,1,0,0:0:0:0:
156,168,247974,1,0,0:0:0:0:
96,100,248143,1,0,0:0:0:0:
144,24,248312,2,0,P|196:100|156:168,1,180
84,220,248818,1,0,0:0:0:0:
104,308,248987,6,0,P|160:348|256:304,1,180
276,220,249494,1,0,0:0:0:0:
356,260,249662,2,0,P|420:212|404:120,1,180
276,220,250169,1,0,0:0:0:0:
184,68,250338,1,0,0:0:0:0:
284,112,250507,1,0,0:0:0:0:
112,224,250675,1,0,0:0:0:0:
184,68,250844,1,0,0:0:0:0:
112,224,251013,1,0,0:0:0:0:
112,224,251351,6,0,L|68:312,1,90
184,68,251688,2,0,P|252:96|264:196,1,180
204,260,252195,1,0,0:0:0:0:
268,124,252364,2,0,P|344:104|408:172,1,180
380,256,252870,1,0,0:0:0:0:
392,136,253039,6,0,L|427:53,1,90
304,204,253377,2,0,L|268:286,1,90
264,104,253714,1,0,0:0:0:0:
264,104,254052,5,0,0:0:0:0:
168,156,254221,1,0,0:0:0:0:
84,92,254389,2,0,P|168:156|152:220,1,180
84,276,254896,1,0,0:0:0:0:
168,156,255065,2,0,P|216:108|316:140,1,180
336,224,255571,1,0,0:0:0:0:
332,116,255740,5,0,0:0:0:0:
336,224,255909,1,0,0:0:0:0:
428,168,256078,1,0,0:0:0:0:
320,88,256247,1,0,0:0:0:0:
336,224,256415,2,0,L|312:312,1,90
199,310,256753,2,0,L|176:224,1,90
224,96,257091,6,0,P|152:120|100:40,1,180
88,180,257597,1,0,0:0:0:0:
99,44,257766,1,0,0:0:0:0:
108,60,258104,6,0,L|160:140,1,90
240,172,258441,1,0,0:0:0:0:
324,140,258610,1,0,0:0:0:0:
408,168,258779,2,0,P|412:120|388:80,1,90
240,172,259117,2,0,P|235:216|255:255,1,90
324,140,259454,2,0,P|304:104|256:84,1,90
56,260,259792,6,0,L|72:192,2,67.5000025749208
116,312,260298,2,0,P|180:312|212:256,1,135.000005149842
188,176,260805,1,0,0:0:0:0:
188,176,261142,6,0,L|236:128,1,67.5000025749208
292,72,261480,1,0,0:0:0:0:
348,132,261649,2,0,P|408:100|408:40,1,135.000005149842
340,8,262155,1,0,0:0:0:0:
324,280,262577,6,0,P|360:228|432:232,1,135.000005149842
426,228,263168,2,0,B|424:200|424:200|436:168|436:168|420:120|420:120|440:72|440:72|380:116,1,236.250009012223
368,128,263844,2,0,L|336:152,2,33.7500012874604
256,192,264097,12,0,270597,0:0:0:0:
