osu file format v9

[General]
AudioFilename: Maaya Sakamoto - Yakusoku wa Iranai.mp3
AudioLeadIn: 1000
PreviewTime: 34952
Countdown: 0
SampleSet: Soft
StackLeniency: 0.5
Mode: 0
LetterboxInBreaks: 0

[Editor]
Bookmarks: 3503,21527,35046,53071,71096
DistanceSpacing: 1.1
BeatDivisor: 4
GridSize: 8

[Metadata]
Title:Yakusoku wa Iranai (TV Size)
Artist:Sakamoto Maaya
Creator:ykcarrot
Version:Hard
Source:The Vision of Escaflowne
Tags:Lissette

[Difficulty]
HPDrainRate:8
CircleSize:4
OverallDifficulty:7
ApproachRate:7
SliderMultiplier:1.8
SliderTickRate:1

[Events]
//Background and Video events
Video,0,"Escaflowne OP.avi"
0,0,"BG.jpg"
//Break Periods
//Storyboard Layer 0 (Background)
//Storyboard Layer 1 (Fail)
//Storyboard Layer 2 (Pass)
//Storyboard Layer 3 (Foreground)
//Storyboard Sound Samples
//Background Colour Transformations
3,100,0,0,0

[TimingPoints]
1250,375.516334960571,3,2,0,90,1,0
53071,-200,3,2,0,90,0,1
66402,-133.333333333333,3,2,0,90,0,1
70720,-133.333333333333,3,2,0,90,0,0
71096,-100,3,2,0,90,0,0
86961,-100,3,2,0,50,0,0
89308,-100,3,2,0,40,0,0
89496,-100,3,2,0,30,0,0
89684,-100,3,2,0,20,0,0
89871,-100,3,2,0,10,0,0
90059,-100,3,2,0,0,0,0

[Colours]
Combo1 : 70,70,255
Combo2 : 252,230,139
Combo3 : 124,63,63
Combo4 : 255,255,255

[HitObjects]
312,288,1249,2,0,B|336:336|392:352,1,90,0|2
360,192,1625,2,0,B|400:216|448:192,1,90,0|2
312,96,2001,2,0,B|360:80|368:24,1,90,0|2
200,96,2376,2,0,B|152:80|144:24,1,90,0|2
152,192,2752,2,0,B|112:216|64:192,1,90,0|2
200,288,3127,2,0,B|176:336|120:352,1,90,0|2
360,192,3503,6,0,B|328:96|184:96|152:192,1,270,4|0
144,280,4254,2,0,B|96:296|56:248,1,90,2|0
0,192,4629,1,2
256,24,5005,1,0
512,192,5380,1,2
256,360,5756,2,0,B|160:360|88:288,1,180,2|0
16,256,6319,2,0,B|32:200|104:208,1,90,0|2
328,80,6882,6,0,B|312:40|256:16|200:40|184:80,1,180,2|0
256,136,7446,1,0
176,192,7633,2,0,B|112:240|160:304|80:360,2,180,2|2|0
256,136,8572,1,0
336,192,8760,2,0,B|400:240|352:304|432:360,2,180,2|2|0
256,136,9699,1,0
184,80,9886,6,0,B|200:40|256:16|312:40|328:80,2,180,2|2|0
120,144,10825,1,0
64,216,11013,1,2
64,304,11201,1,0
120,376,11388,2,0,B|216:376,1,90,2|0
304,376,11764,5,2
432,328,11952,1,0
344,224,12139,1,2
472,176,12327,1,0
384,72,12515,6,0,B|328:24|184:24|128:72,1,270,4|0
48,112,13266,1,2
88,192,13454,1,0
0,192,13642,1,2
256,360,14017,1,0
512,192,14393,1,2
256,24,14768,2,0,B|160:24|88:96,1,180,2|0
40,160,15331,2,0,B|8:208|48:256,1,90,0|2
328,280,15895,6,0,B|320:336|192:336|184:280,1,180,2|0
256,224,16458,1,0
312,152,16646,2,0,B|416:152|384:216|504:216,2,180,2|2|0
256,80,17584,1,0
200,152,17772,2,0,B|96:152|128:216|8:216,2,180,2|2|0
256,224,18711,1,0
312,152,18899,6,0,B|336:104|384:104,1,90,2|0
472,104,19274,2,0,B|440:192|496:192|472:288,1,180,2|0
424,360,19838,1,0
336,360,20025,2,0,B|288:360|256:320,1,90,2|0
192,256,20401,6,0,B|120:184,1,90,2|0
256,224,20776,2,0,B|256:120,1,90,2|0
320,256,21152,2,0,B|384:192,1,90,2|0
448,128,21527,6,0,B|408:40|296:40,1,180,4|0
256,120,22091,1,0
208,40,22278,2,0,B|144:40|112:72,1,90
48,112,22654,2,0,B|0:136|0:248|48:272,2,180,2|0|0
96,192,23593,1,0
176,240,23780,6,0,B|208:288|304:288|336:240,1,180,2|0
416,192,24344,1,0
336,144,24532,2,0,B|304:96|208:96|176:144,1,180,0|2
96,192,25095,1,0
96,280,25283,2,0,B|96:336|152:352,1,90,2|0
232,352,25658,2,0,B|328:352,2,90,2|0|2
32,232,26409,5,0
136,24,26785,1,0
376,24,27160,1,2
480,232,27536,1,0
256,304,27911,1,0
256,80,28287,2,0,B|200:80|136:104|96:192|136:280|200:304|256:304,1,360,2|2
256,304,29225,1,0
256,304,29413,1,2
328,80,29789,6,0,B|400:80|400:136|400:192|456:192,2,180,0|0|4
256,304,30915,2,0,B|256:200,2,90,2|0|2
184,80,31666,2,0,B|112:80|112:136|112:192|56:192,2,180,2|0|2
256,304,32793,6,0,B|256:208,1,90,2|0
328,160,33168,2,0,B|304:112|256:104|208:112|184:160,1,180,2|0
328,272,33919,2,0,B|304:320|256:328|208:320|184:272,2,180,2|0|2
168,72,35046,6,0,B|64:72|40:200,2,180,4|0|2
256,72,35985,1,0
344,72,36173,2,0,B|448:72|472:200,2,180,2|0|2
256,72,37111,1,0
256,160,37299,6,0,B|256:352,2,180,2|0|2
256,72,38238,1,0
168,72,38426,2,0,B|124:48|80:72,1,90,2|0
128,144,38801,2,0,B|78:149|55:194,1,90,2|0
136,232,39177,2,0,B|98:265|105:314,1,90,2|0
192,312,39552,6,0,B|280:352|368:312,3,180,4|0|0|2
440,264,40866,1,0
360,224,41054,1,2
432,176,41242,1,0
352,136,41430,1,2
424,88,41618,1,0
344,48,41805,6,0,B|256:8|168:48,3,180,2|0|0|2
160,136,43120,1,2
168,224,43307,2,0,B|256:264|344:224,1,180,2|2
256,32,44058,5,4
0,192,44434,1,0
296,272,44809,2,0,B|272:248|232:248|208:280,1,90,2|0
256,352,45185,1,2
512,192,45560,1,0
216,112,45936,2,0,B|240:136|280:136|304:104,1,90,2|0
256,32,46311,6,0,B|256:224,2,180,2|0|0
344,40,47250,1,0
432,64,47438,2,0,B|432:152,1,90,2|0
432,248,47814,1,2
392,328,48001,1,0
296,328,48189,1,2
256,248,48377,1,0
344,248,48565,6,0,B|344:136|464:136,2,180,4|0|0
168,248,49691,2,0,B|168:136|48:136,2,180,2|0|0
256,88,50818,2,0,B|256:288,2,180,2|0|0
40,88,51944,5,2
72,192,52132,1,0
152,264,52320,1,2
256,296,52507,1,0
360,264,52695,1,2
440,192,52883,1,0
472,88,53071,6,0,B|448:56|392:40|336:56|312:88,1,180,4|0
176,320,54197,2,0,B|200:352|256:368|312:352|336:320,1,180,0|0
200,88,55324,2,0,B|176:56|120:40|64:56|40:88,1,180,0|0
176,320,56450,6,0,B|136:280,1,45,2|0
256,288,56826,2,0,B|256:232,1,45,2|0
336,320,57201,2,0,B|376:280,1,45,2|0
336,64,57577,6,0,B|312:32|256:16|200:32|176:64,1,180,4|0
440,136,58703,2,0,B|440:240|336:264,1,180
256,272,59642,1,0
176,264,59830,2,0,B|72:240|72:136,1,180
336,64,60957,6,0,B|376:104,1,45,2|0
256,96,61332,2,0,B|256:160,1,45,2|0
176,64,61708,2,0,B|136:104,1,45,2|0
336,216,62083,6,0,B|384:216|408:240|408:280|408:280|408:360,1,180,4|0
176,216,63210,2,0,B|128:216|104:240|104:280|104:280|104:360,1,180,0|0
256,128,64336,2,0,B|256:232,2,90,0|2|0
352,328,65463,5,0
256,352,65838,1,2
160,328,66214,1,0
480,104,66589,6,0,B|464:0|296:0|288:112,1,269.999991953373,4|0
384,344,67716,2,0,B|400:280|368:280|384:208,2,134.999995976687,0|2|0
128,344,68842,2,0,B|112:280|144:280|128:208,2,134.999995976687,0|2|0
32,104,69969,2,0,B|48:0|216:0|224:112,1,269.999991953373,0|0
256,360,71096,5,4
512,224,71471,1,0
296,32,71847,1,2
256,112,72034,1,0
216,32,72222,1,2
0,224,72598,1,0
256,360,72973,1,2
256,272,73161,1,0
304,192,73349,6,0,B|392:240|392:144|488:192,2,180,2|0|2
256,112,74287,1,0
208,192,74475,2,0,B|120:240|120:144|24:192,1,180,2|2
32,280,75038,1,0
80,360,75226,1,2
168,360,75414,1,0
216,280,75602,6,0,B|240:304|272:304|296:280,1,90,4|0
296,104,75977,2,0,B|272:80|240:80|216:104,1,90,0|0
352,232,76353,2,0,B|376:208|376:176|352:152,2,90,2|2|2
256,192,76916,1,0
160,152,77104,2,0,B|136:176|136:208|160:232,2,90,2|2|2
256,192,77667,1,0
352,232,77855,6,0,B|400:248|416:304,1,90
256,264,78230,2,0,B|256:368,1,90
160,232,78606,2,0,B|112:248|96:304,1,90
256,192,78981,1,2
256,192,79169,1,2
256,192,79357,2,0,B|296:104|216:104|256:16,1,180,2|2
336,120,79920,5,0
336,120,80014,1,0
336,120,80108,2,0,B|312:88|256:72|200:88|176:120,2,180,4|0|2
256,192,81047,1,0
176,264,81234,2,0,B|200:296|256:312|312:296|336:264,2,180,2|0|2
256,192,82173,1,0
344,168,82361,6,0,B|416:168|416:48|344:48,2,180,2|0|2
256,192,83300,1,0
168,168,83488,2,0,B|96:168|96:48|168:48,1,180,2|2
256,32,84051,2,0,B|256:128,2,90,0|2|0
360,24,84614,5,4
488,192,84990,1,0
360,360,85365,1,0
152,360,85741,1,0
24,192,86116,1,0
152,24,86492,1,0
256,192,86867,1,4
256,192,86961,12,0,90058
