osu file format v9

[General]
AudioFilename: Maaya Sakamoto - Yakusoku wa Iranai.mp3
AudioLeadIn: 1000
PreviewTime: 34952
Countdown: 0
SampleSet: Soft
StackLeniency: 0.5
Mode: 0
LetterboxInBreaks: 0

[Editor]
Bookmarks: 3503,21527,35046,53071,71096
DistanceSpacing: 1
BeatDivisor: 2
GridSize: 8

[Metadata]
Title:Yakusoku wa Iranai (TV Size)
Artist:Sakamoto Maaya
Creator:ykcarrot
Version:Easy
Source:The Vision of Escaflowne
Tags:Lissette

[Difficulty]
HPDrainRate:2
CircleSize:3
OverallDifficulty:2
ApproachRate:2
SliderMultiplier:0.799999999999999
SliderTickRate:1

[Events]
//Background and Video events
Video,0,"Escaflowne OP.avi"
0,0,"BG.jpg"
//Break Periods
2,21728,24474
//Storyboard Layer 0 (Background)
//Storyboard Layer 1 (Fail)
//Storyboard Layer 2 (Pass)
//Storyboard Layer 3 (Foreground)
//Storyboard Sound Samples
//Background Colour Transformations
3,100,0,0,0

[TimingPoints]
1250,375.516334960571,3,2,0,90,1,0
30728,-100,3,2,0,60,0,0
34295,-100,3,2,0,0,0,0
34670,-100,3,2,0,90,0,0
53071,-100,3,2,0,90,0,1
69969,-100,3,2,0,90,0,0
71096,-100,3,2,0,90,0,0
86961,-100,3,2,0,50,0,0
89308,-100,3,2,0,40,0,0
89496,-100,3,2,0,30,0,0
89684,-100,3,2,0,20,0,0
89871,-100,3,2,0,10,0,0
90059,-100,3,2,0,0,0,0

[Colours]
Combo1 : 70,70,255
Combo2 : 252,230,139
Combo3 : 124,63,63
Combo4 : 255,255,255

[HitObjects]
296,208,1250,2,0,B|328:192|352:168|360:128|360:80|344:48|304:24|256:8|208:24|168:48|152:80|152:128|160:168|184:192|216:208,1,479.999999999999,0|4
304,344,4254,2,0,B|352:336|368:288,1,79.9999999999999,2|2
208,344,5380,2,0,B|160:336|144:288,1,79.9999999999999,2|2
96,144,6507,5,2
144,80,6882,2,0,B|200:32|312:32|368:80,2,240,2|2|2
56,216,9886,1,2
136,216,10262,2,0,B|136:336|232:336,1,160,2|2
296,336,11388,2,0,B|376:328|376:208,1,160,2|2
456,216,12515,5,4
368,80,13266,2,0,B|320:80|288:128,1,79.9999999999999,2|2
144,80,14393,2,0,B|192:80|224:128,1,79.9999999999999,2|2
348,204,15519,5,2
312,276,15895,2,0,B|406:321|478:196|391:137,2,240,2|2|2
164,204,18899,1,2
200,276,19275,2,0,B|105:321|33:196|120:137,2,240,2|2|4
344,192,26034,5,2
344,112,26409,2,0,B|336:64|296:56,1,79.9999999999999
216,56,27160,2,0,B|168:72|168:120,1,79.9999999999999,2|0
168,192,27911,1,0
176,272,28287,6,0,B|176:368|336:368|336:272,1,240,2|2
256,264,29789,2,0,B|256:88,1,160,0|4
256,192,30915,12,0,34295
408,152,35046,6,0,B|408:112|368:80,2,79.9999999999999,4|0|2
408,232,36173,2,0,B|408:272|368:304,2,79.9999999999999,2|0|2
336,192,37299,2,0,B|160:192,1,160,2|2
104,232,38426,2,0,B|80:192|104:152,1,79.9999999999999,2|2
256,112,39552,6,0,B|256:8,3,79.9999999999999,4|0|0|2
256,272,41805,2,0,B|256:360,3,79.9999999999999,2|0|0|2
104,152,44058,6,0,B|104:112|144:80,2,79.9999999999999,4|0|2
104,232,45185,2,0,B|104:272|144:304,2,79.9999999999999,2|0|2
176,192,46311,2,0,B|352:192,1,160,2|2
408,232,47438,2,0,B|432:192|408:152,1,79.9999999999999,2|2
248,152,48565,6,0,B|88:152,1,160,4|0
88,232,49691,2,0,B|248:232,1,160,2|0
312,280,50818,2,0,B|400:272|400:104|304:104,1,240,2|2
136,272,53071,6,0,B|80:160|192:160|136:40,3,240,4|0|0|0
376,40,57577,2,0,B|320:152|432:152|376:272,3,240,4|0|0|0
168,152,62083,6,0,B|80:160|80:320|168:328,3,240,4|0|0|0
344,152,66589,2,0,B|432:160|432:320|344:328,3,240,4|0|0|0
216,128,71096,6,0,B|216:80|168:48,2,79.9999999999999,4|0|2
296,128,72222,2,0,B|296:80|344:48,2,79.9999999999999,2|0|2
336,200,73349,2,0,B|336:296|176:296|176:200,1,240,2|2
256,192,74851,1,2
368,80,75602,6,0,B|456:80,1,79.9999999999999,4|0
448,160,76353,2,0,B|360:160,1,79.9999999999999,2|2
144,80,77855,2,0,B|56:80,1,79.9999999999999,2|0
64,160,78606,2,0,B|152:160,1,79.9999999999999,2|2
296,344,80108,6,0,B|336:360|336:328|376:344,2,79.9999999999999,4|0|2
216,344,81234,2,0,B|176:360|176:328|136:344,2,79.9999999999999,2|0|2
216,264,82361,2,0,B|216:208|216:208|216:168|256:152|296:168|296:208|296:208|296:272,1,240,2|2
256,336,83863,1,2
216,184,84614,6,0,B|184:160|184:112,2,79.9999999999999,4|0|0
296,184,85741,2,0,B|328:160|328:112,2,79.9999999999999,0|0|0
256,256,86867,1,4
256,192,86961,12,0,90059
