osu file format v5

[General]
AudioFilename: 01 - Triangular.mp3
AudioLeadIn: 1974
PreviewTime: 77076
Countdown: 1
SampleSet: Normal
StackLeniency: 0.7
Mode: 0
LetterboxInBreaks: 1
EditorDistanceSpacing: 0.899999976158142

[Metadata]
Title:Triangular
Artist:Sakamoto Maaya
Creator:tieff
Version:Normal
Source:Macross Frontier
Tags:May'n Nakajima Megumi Triangular Macross Frontier

[Difficulty]
HPDrainRate:5
CircleSize:4
OverallDifficulty:5
SliderMultiplier:1.4
SliderTickRate:1

[Events]
//Background and Video events
0,0,"macross_frontier_triangle.jpg"
//Break Periods
2,19668,24740
2,70120,74859
2,96367,101103
2,147848,151221
//Storyboard Layer 0 (Background)
//Storyboard Layer 1 (Failing)
//Storyboard Layer 2 (Passing)
//Storyboard Layer 3 (Foreground)
//Storyboard Sound Samples
//Background Colour Transformations
3,100,163,162,255

[TimingPoints]
719,340.909090909091,4,2,2,51,1,0
16912,-100,4,1,2,51,0,0
17433,-100,4,1,1,51,0,0
17603,-100,4,1,1,51,0,0
25946,-100,4,1,1,70,0,0
67195,-100,4,1,1,72,0,0
68217,-100,4,1,1,70,0,0
68643,-100,4,1,1,69,0,0
69665,-100,4,1,1,68,0,0
69923,-100,4,1,1,72,0,0
76059,-100,4,1,1,70,0,0
77091,-100,4,1,1,71,0,1
102319,-100,4,2,1,51,0,0
112195,-100,4,2,1,51,0,0
112205,-100,4,1,1,74,0,0
147649,-100,4,1,1,69,0,0
152421,-100,4,1,1,73,0,0
153454,-100,4,1,1,68,0,1

[Colours]
Combo1 : 111,111,255
Combo2 : 0,255,128
Combo3 : 255,255,128

[HitObjects]
96,192,713,2,0,B|96:96|160:64,1,140,0|2
288,64,1394,2,8,B|416:96|416:128,1,140,8|0
416,256,2076,1,0
288,256,2417,2,0,B|128:256,2,140,0|8|0
384,160,3440,1,2
352,48,3781,2,0,B|256:80,1,70,0|2
144,64,4292,2,0,B|80:128,3,70,0|0|0|0
128,288,6167,6,0,B|288:288,1,140,0|0
336,288,6678,1,2
336,224,6849,2,0,B|176:224,1,140
128,224,7360,1,2
128,160,7531,2,0,B|288:160,1,140
336,160,8042,1,2
336,96,8213,1,0
304,40,8383,1,0
304,40,8553,2,0,B|208:40|144:72,1,140,2|0
64,192,9576,6,2,B|128:256,1,70,2|4
256,256,10087,1,4
384,256,10428,2,2,B|416:192,1,70,4|4
256,192,11622,5,0
256,64,11962,1,0
384,64,12303,2,0,B|384:224,1,140,8|0
384,352,12985,1,0
256,352,13326,2,0,B|96:352,1,140,0|8
128,224,14008,1,0
128,96,14349,1,2
256,96,14690,2,0,B|320:160,1,70,2|0
320,288,15201,1,2
440,256,15542,1,0
32,80,16735,6,0,B|96:16,1,70
272,48,17417,2,0,B|336:112,1,70
400,264,18099,2,0,B|304:264,1,70,0|4
136,264,18787,2,4,B|56:264,1,70,0|4
136,160,19298,2,4,B|64:160,1,70
224,128,25940,6,0,B|288:128|320:160,1,70,0|0
384,256,26451,1,0
184,320,26962,2,8,B|56:256,1,140,0|8
104,120,27644,2,0,B|232:24,1,140
384,96,28326,1,0
448,96,28497,1,8
448,320,29008,2,0,B|288:320,1,140
160,320,29690,1,0
96,320,29860,1,8
128,192,31394,6,0,B|192:160,1,70
256,128,31735,2,0,B|320:128|320:160,1,70
416,352,32417,1,0
384,288,32587,1,0
320,320,32758,2,0,B|192:224,1,140
80,176,33440,2,0,B|112:112|304:112,1,210,4|0
480,128,34462,2,0,B|416:96|384:224,1,140,0|4
384,272,34974,1,8
384,272,35315,1,4
240,272,35656,2,4,B|240:192,1,70,4|8
96,96,36849,5,8
96,96,37190,2,0,B|160:96|160:128,1,70,8|0
320,256,37872,2,0,B|384:192|320:128,1,140,0|8
224,128,38553,1,0
128,256,38894,1,4
256,288,39235,2,0,B|352:288,1,70,0|8
320,224,39576,2,0,B|224:224,1,70,0|8
256,160,39917,1,0
320,160,40087,6,0,B|320:64,1,70,0|4
448,96,40769,2,0,B|448:192,1,70
448,368,41451,2,0,B|448:288,1,70,0|4
128,192,42303,6,0,B|192:128|256:96|320:128|384:192,1,280
352,320,43326,1,0
288,288,43497,1,8
224,320,43667,1,0
168,280,43837,1,0
96,256,44008,2,0,B|96:160|160:128,1,140,8|4
272,304,45031,5,0
272,304,45372,2,0,B|400:224,1,140
272,32,46394,2,0,B|272:128,1,70,8|0
272,168,46735,1,8
272,168,46906,1,4
96,192,48099,5,8
144,144,48269,1,0
344,72,48781,1,0
384,128,48951,1,8
384,264,49292,1,0
240,264,49633,1,0
200,320,49803,2,0,B|104:320,1,70,8|0
88,264,50144,2,0,B|184:264,1,70,0|8
160,112,50656,1,4
296,112,50997,1,4
384,216,51337,2,0,B|384:312,1,70
240,280,51849,6,0,B|176:216,3,70
384,216,53212,5,0
272,136,53553,2,0,B|176:104,1,70,8|0
64,288,54235,1,2
200,288,54576,1,2
336,288,54917,1,2
472,288,55258,1,4
384,128,55940,5,0
320,128,56110,1,8
256,128,56281,2,0,B|160:128,1,70,0|8
128,320,56962,2,0,B|288:320,2,140,4|0|0
128,256,57815,1,0
160,128,58667,5,0
224,128,58837,1,0
296,128,59008,2,0,B|296:224,1,70,8|0
416,336,59690,1,8
416,208,60031,1,8
288,192,60372,2,0,B|296:128|256:136|216:128|224:200,1,140,0|8
48,320,61224,1,0
80,256,61394,1,8
128,48,61906,5,8
192,80,62076,1,0
128,112,62247,2,0,B|128:208,1,70,8|0
264,192,62758,5,2
400,192,63099,2,0,B|400:288,1,70,8|2
64,152,64122,1,4
208,152,64469,2,0,B|208:224,1,70,8|0
344,64,65150,2,0,B|416:112|384:192,3,140,8|0|8|4
280,96,66508,1,8
144,136,66849,6,0,B|64:280|64:280,1,140,4|8
336,136,67878,1,8
472,136,68212,6,0,B|408:296,1,140,4|4
48,248,69576,6,0,B|112:120,1,140,4|0
256,192,76053,12,4,77076
128,224,77417,5,0
128,96,77758,2,8,B|288:96,1,140,8|0
416,96,78440,1,0
384,224,78781,2,0,B|256:288,2,140,0|8|0
352,96,79803,1,0
224,96,80144,1,0
160,96,80315,1,0
16,96,80656,2,2,B|16:160|80:224,1,140,2|2
256,256,82531,5,0
256,192,82701,12,0,83553
96,192,83894,5,8
224,128,84235,2,0,B|352:224,1,140,0|8
448,128,84917,1,2
416,264,85258,1,2
128,256,85940,2,0,B|128:160,1,70,0|2
256,192,86451,1,2
384,192,86792,2,0,B|384:288,1,70,2|8
256,288,87985,5,4
256,192,88156,12,0,89008
160,224,89349,5,0
160,160,89519,1,8
160,96,89690,2,8,B|224:96|320:96,1,140,0|8
448,96,90372,1,0
320,32,90713,1,2
192,64,91053,2,0,B|160:96|192:128,1,70,2|0
192,256,91565,2,0,B|227:291|195:323,2,70,0|2|2
256,32,93099,5,8
288,96,93269,1,0
96,192,93781,1,0
128,256,93951,1,8
320,288,94463,1,0
384,256,94633,2,2,B|288:224|352:64,1,210,2|2
288,96,95315,2,0,B|224:128,3,70,2|2|2|2
288,96,96167,5,4
256,192,102303,6,0,B|192:128,1,70,0|2
320,64,102815,1,0
448,224,103326,1,0
320,288,103667,2,0,B|288:256|224:288|192:256|192:224,1,140,2|0
96,128,104349,2,0,B|64:160|96:192|128:224|96:288,3,140,0|0|8|0
256,256,105713,2,0,B|224:224|256:192|288:160|256:96,3,140,0|0|8|0
416,96,107758,6,0,B|416:160|384:160,1,70,0|2
384,288,108269,1,0
176,288,108781,2,0,B|80:160,2,140,0|8|0
312,288,109803,1,2
416,224,110144,2,0,B|352:160|288:192,1,140,0|2
160,192,110826,1,0
64,96,111167,2,0,B|128:64|224:96,1,140,2|0
352,96,111849,1,2
480,96,112190,5,0
416,288,113213,2,0,B|320:288,3,70,0|8|0|0
128,288,114235,2,0,B|128:128,1,140,0|8
256,160,114917,2,0,B|256:320,1,140,0|4
416,320,115599,2,0,B|416:224,1,70
416,192,115940,1,8
416,64,116281,1,0
288,96,116622,6,2,B|224:96|160:32,1,140
288,96,117303,2,2,B|288:256,1,140
288,236,117985,1,4
32,96,118667,5,0
96,128,118838,1,8
160,160,119008,2,0,B|224:192|256:192,1,70,0|8
448,192,119690,1,0
384,64,120031,2,0,B|320:96|352:192,1,140
352,320,120713,2,4,B|320:288|288:320|256:256|192:288|128:160,2,280
320,96,122588,6,0,B|224:96,5,70
384,256,124463,2,0,B|288:224,1,70,8|0
192,192,124974,1,0
128,64,125315,2,0,B|192:32|256:96,1,140,8|0
352,192,125997,1,0
352,256,126167,6,0,B|288:256|256:256,1,70,4|0
256,192,126508,2,0,B|160:192,1,70,0|4
96,96,127019,1,8
224,96,127360,1,8
352,96,127701,2,0,B|384:128,2,35
384,224,128213,6,0,B|320:256,3,70
64,192,129576,1,0
192,128,129917,2,0,B|288:128,1,70,8|0
480,128,130599,2,0,B|448:192|352:192,2,140,0|8|0
320,320,132303,5,0
256,288,132474,1,8
192,320,132644,1,0
256,352,132815,1,0
288,128,133326,2,0,B|448:128,2,140,8|0|8
128,128,135031,5,0
128,192,135201,2,0,B|128:256|160:288|192:288|224:288,1,140,8|0
416,288,136053,2,0,B|384:256|416:224|448:192|416:160|416:160|416:160|416:128,1,140,0|8
320,64,136735,2,0,B|224:64,2,70
96,64,137588,2,0,B|96:160,1,70
256,256,138269,2,0,B|224:224|256:192,2,70
384,96,139122,5,2
384,224,139463,2,0,B|320:256|384:288|384:288,1,70,2|2
32,288,140485,1,0
32,160,140826,2,0,B|64:128|96:160,1,70,8|0
288,160,141514,2,4,B|256:128|288:96|320:64|256:0,2,140,4|4|4
256,288,143213,6,0,B|256:192,1,70
256,160,143553,1,8
64,96,144065,2,0,B|160:96,1,70
128,160,144406,2,0,B|32:160,1,70
64,224,144747,2,8,B|128:224|128:256|96:288|96:256,1,70
256,224,145940,6,0,B|256:128,2,70,0|0|8
384,224,146792,2,0,B|384:128,1,70,8|0
352,88,147133,2,0,B|448:88,1,70
352,88,147474,2,8,B|352:-8,1,70,8|8
256,192,152417,12,4,153440
256,224,153781,5,0
256,96,154122,2,0,B|352:96|384:160,1,140,8|0
384,288,154803,1,0
256,288,155144,2,0,B|192:288|128:192,2,140,0|8|0
256,160,156167,1,2
256,32,156508,1,2
320,32,156678,1,0
432,112,157019,2,0,B|400:144|432:176,2,70,2|0|2
192,192,158894,5,4
256,192,159065,12,0,159917
256,256,160258,5,0
160,160,160599,2,0,B|256:96|304:160,1,140,8|0
416,192,161281,2,0,B|416:96,2,70,0|8|0
416,64,161963,1,4
288,64,162303,2,0,B|224:96,1,70,8|0
128,288,162815,1,0
256,288,163156,2,0,B|320:288|352:288,1,70,0|8
256,192,164349,5,4
256,192,164519,12,0,165372
128,192,165713,5,8
128,64,166053,1,0
256,64,166394,2,0,B|320:64|384:128,1,140,8|0
384,256,167076,1,0
256,256,167417,2,0,B|160:256,1,70,8|0
96,160,167928,2,0,B|128:128|160:160|224:128|256:128,1,140,0|8
320,128,169463,5,2
288,192,169633,1,0
96,96,170144,1,0
160,128,170315,1,2
128,320,170826,5,0
192,320,170997,1,2
256,320,171167,2,0,B|256:256,2,35
320,320,171508,1,2
384,320,171678,2,0,B|352:256|384:224,1,70
368,252,172019,2,0,B|384:192|352:160,1,70
256,192,172531,1,4
