osu file format v5

[General]
AudioFilename: 01 - Triangular.mp3
AudioLeadIn: 1974
PreviewTime: 77076
Countdown: 1
SampleSet: Soft
StackLeniency: 0.7
Mode: 0
LetterboxInBreaks: 1
EditorDistanceSpacing: 1.60000002384186

[Metadata]
Title:Triangular
Artist:Sakamoto Maaya
Creator:tieff
Version:Hard
Source:Macross Frontier
Tags:May'n Nakajima Megumi Triangular Macross Frontier

[Difficulty]
HPDrainRate:7
CircleSize:5
OverallDifficulty:6
SliderMultiplier:1.4
SliderTickRate:0.5

[Events]
//Background and Video events
0,0,"macross_frontier_triangle.jpg"
//Break Periods
2,20000,24355
2,51705,61855
2,96367,101403
2,128067,138218
2,172395,182013
2,194554,204363
//Storyboard Layer 0 (Background)
//Storyboard Layer 1 (Failing)
//Storyboard Layer 2 (Passing)
//Storyboard Layer 3 (Foreground)
//Storyboard Sound Samples
//Background Colour Transformations
3,100,163,162,255

[TimingPoints]
719,340.909090909091,4,2,2,51,1,0
17252,-100,4,1,2,70,0,0
62585,-100,4,2,2,71,0,0
74261,-100,4,1,2,71,0,0
77091,-100,4,1,1,70,0,1
99581,-100,4,1,1,70,0,0
102138,-100,4,2,1,69,0,0
112025,-100,4,1,1,65,0,0
153454,-100,4,1,1,71,0,1
172536,-100,4,2,1,51,0,0
182763,-100,4,1,1,69,0,0
205263,-100,4,2,1,51,0,0
214467,-100,4,1,1,72,0,0
221797,-100,4,1,1,0,0,0
221967,-100,4,1,1,10,0,1
222137,-100,4,1,1,20,0,1
222307,-100,4,1,1,30,0,1
222477,-100,4,1,1,40,0,1
222647,-100,4,1,1,50,0,1
222817,-100,4,1,1,61,0,1
222987,-100,4,1,1,76,0,1
223157,-100,4,1,1,81,0,1
223327,-100,4,1,1,91,0,1
223497,-100,4,1,1,100,0,1
223667,-100,4,1,1,100,0,1
223837,-100,4,1,1,100,0,1
224007,-100,4,1,1,100,0,1
224177,-100,4,1,1,100,0,1
224347,-100,4,1,1,100,0,1
224524,-100,4,1,1,100,0,1
227081,-100,4,1,1,70,0,1
253501,-100,4,1,1,49,0,0

[Colours]
Combo1 : 111,111,255
Combo2 : 0,255,128
Combo3 : 255,255,128

[HitObjects]
256,192,713,6,0,L|320:64|320:64,1,140
318,66,1224,1,0
384,144,1394,1,8
400,288,1735,5,0
256,288,2076,1,0
112,288,2417,2,0,B|112:192,1,70
112,144,2758,1,8
200,32,3099,1,0
336,24,3440,2,0,L|368:88,1,70
440,88,3781,1,8
368,88,3951,1,8
448,192,4292,6,8,L|448:288,3,70
328,192,5144,1,0
184,192,5485,1,8
40,192,5826,1,0
40,192,6167,6,2,L|136:192|136:192,1,70
168,192,6508,2,2,L|168:120,1,70
168,122,6849,2,2,L|96:96|96:32,1,140
272,64,7531,5,0
416,64,7872,2,0,B|448:96|416:128,1,70
418,125,8213,1,0
272,192,8553,1,0
128,192,8894,1,0
16,96,9235,5,4
128,32,9576,2,0,B|208:32,1,70
320,32,10088,1,0
320,160,10428,2,0,B|320:232,1,70
256,192,10769,12,4,11622
240,224,11962,5,0
384,224,12303,1,8
384,224,12644,2,0,L|384:128,1,70
384,80,12985,1,0
240,80,13326,5,0
96,80,13667,1,8
96,224,14008,1,0
240,224,14349,5,0
384,224,14690,2,0,L|480:224,1,70,8|8
384,64,15201,2,0,B|304:64,1,70
256,64,15542,2,0,L|160:64,1,70
384,64,16735,6,0,B|480:64,1,70,4|0
432,248,17417,1,0
368,248,17587,1,0
160,224,18099,5,0
96,224,18269,1,0
96,96,18610,1,0
96,96,18695,1,0
96,96,18781,1,0
160,96,18951,1,0
224,96,19122,1,0
288,96,19292,1,0
352,96,19462,1,0
352,96,19803,5,4
160,64,25258,5,0
416,64,25940,1,0
416,128,26110,1,0
416,256,26451,1,0
224,256,26962,2,0,B|128:256,1,70,0|0
152,192,27303,2,0,B|248:192,1,70
224,128,27644,2,0,B|128:128,1,70
152,64,27985,2,0,B|248:64,1,70
256,208,28497,5,0
400,96,29008,2,0,L|304:32,2,70
400,224,29690,1,0
400,224,29860,1,0
304,96,30712,5,4
32,192,31394,5,0
96,192,31565,1,0
160,192,31735,2,0,L|256:192,1,70
416,192,32417,1,0
288,192,32758,1,0
416,192,33099,2,0,L|416:352,1,140
288,192,33951,1,0
152,328,34462,1,0
128,200,34803,6,8,L|128:104,1,70,0|8
192,128,35144,1,0
256,128,35315,1,8
320,128,35485,1,4
384,128,35656,2,8,L|384:224,1,70,8|0
384,64,36167,5,4
384,352,36849,2,0,L|352:256,1,70
336,224,37190,1,0
272,192,37360,1,0
96,160,37872,2,0,B|160:96,2,70
224,96,38553,1,0
288,96,38724,1,0
288,32,38894,1,0
416,96,39235,5,0
416,160,39406,1,0
416,256,39747,2,0,L|416:336,2,70
352,224,40258,5,0
320,160,40428,1,0
256,192,40599,1,8
224,256,40769,1,8
160,224,40940,1,0
128,160,41110,1,0
64,192,41281,1,8
64,120,41451,1,8
112,64,41622,5,0
176,64,41792,1,0
304,80,42133,1,0
304,144,42303,1,0
192,192,42644,1,0
128,192,42815,1,0
256,328,43326,5,0
128,64,43667,1,0
384,64,44008,1,0
384,64,44349,1,0
392,312,45031,1,0
264,312,45372,2,0,L|104:312,1,140
256,64,46394,5,0
256,128,46565,1,0
256,192,46735,2,0,L|384:192,1,70
448,64,48099,6,0,L|448:160,2,70
448,192,48781,2,0,L|352:192,1,70
248,192,49292,1,0
120,200,49633,5,0
160,152,49803,1,4
120,104,49974,1,8
144,48,50144,1,8
208,48,50315,1,8
336,48,50656,2,8,L|432:48|400:112,1,140
336,184,51337,1,4
336,216,51423,1,4
336,248,51508,1,4
88,80,62758,5,0
216,80,63099,2,0,B|320:80,1,70
328,200,63610,1,0
328,200,63695,1,0
328,200,63781,1,4
200,200,64122,5,0
72,200,64462,1,0
136,200,64633,1,0
200,304,64974,1,0
200,304,65059,1,0
200,304,65144,5,4
336,56,65485,1,0
448,304,65826,1,4
336,56,66167,2,0,B|336:208,1,140,0|8
32,336,66849,6,0,L|32:176,1,140,0|8
192,160,67531,1,0
256,160,67701,1,0
320,160,67872,1,8
480,336,68212,6,0,L|480:176,1,140,0|8
320,160,68894,1,0
256,160,69065,1,0
192,160,69235,1,8
224,64,69576,6,0,B|128:64,1,70
224,64,69917,2,0,B|250:32|314:32|352:96,1,140
88,320,70769,5,0
88,320,70855,1,0
88,320,70940,1,4
440,64,71451,5,0
440,64,71536,1,0
440,64,71622,1,4
128,256,72303,5,0
128,128,72644,2,0,L|224:128,2,70
200,24,73326,1,0
272,128,73667,1,0
352,224,74008,2,0,L|352:320,1,70
320,352,74349,5,4
192,320,74690,1,4
128,320,74860,1,4
128,192,75201,1,4
128,128,75372,1,4
192,128,75542,2,4,L|288:128,1,70
328,128,75883,2,4,L|328:224,1,70
256,192,76224,12,4,77076
256,304,77417,5,0
192,192,77758,2,0,B|192:112|192:48,1,140,8|0
384,192,78440,1,0
320,192,78610,1,8
256,192,78781,1,0
128,192,79122,2,0,L|128:32,1,140
256,64,79803,1,0
320,64,79974,1,8
384,64,80144,2,0,L|384:136,1,70
376,256,80656,1,0
320,288,80826,1,0
320,224,80997,5,0
320,160,81167,2,0,L|264:160,2,35
320,96,81508,1,0
256,96,81678,1,0
192,96,81849,2,0,L|96:96,1,70
192,96,82190,1,0
192,96,82360,1,0
192,96,82531,1,0
256,192,82701,12,0,83553
128,160,83894,5,0
128,64,84235,1,0
224,64,84576,1,4
320,64,84917,2,0,B|384:128|384:192,1,140
384,288,85599,1,4
256,288,85940,2,0,B|128:288,1,70
64,288,86451,1,0
64,160,86792,1,0
64,160,86963,1,4
256,64,87985,6,0,B|256:224,2,140,4|0|8
352,64,89008,1,0
352,112,89184,1,0
352,160,89349,1,0
352,256,89690,2,0,B|256:256,1,70
224,256,90031,1,8
96,256,90372,1,0
96,128,90713,1,0
192,64,91053,2,0,B|256:160,1,70
288,224,91565,1,0
352,224,91735,1,0
416,224,91906,1,4
352,64,93099,5,0
352,128,93269,1,0
224,64,93781,1,0
160,64,93951,1,0
192,224,94463,2,0,B|256:192|288:192,1,70
416,224,95144,1,0
352,224,95315,1,0
352,160,95485,1,0
352,96,95656,2,0,B|256:96|256:96,1,70
352,96,96167,5,4
320,256,102303,6,0,B|320:160,1,70
320,96,102815,1,8
160,64,103326,2,0,B|160:160,1,70
160,192,103667,1,0
256,192,104008,5,0
384,192,104349,2,0,L|384:112|240:112,1,210,8|0
256,304,105372,1,0
128,112,105713,2,0,L|128:192|288:192,1,210,8|0
416,160,107758,5,0
416,224,107928,1,2
416,320,108269,1,0
256,256,108781,2,0,B|256:96,1,140
144,144,109463,1,0
144,272,109803,2,0,B|240:272,1,70
96,192,110315,5,0
144,144,110485,1,0
192,96,110656,1,0
192,96,110826,2,0,B|288:96,1,70,0|0
328,96,111167,1,0
328,224,111508,2,0,B|328:304,1,70
192,288,112190,1,4
128,160,113213,5,0
128,96,113383,1,0
192,96,113553,2,0,B|288:96,1,70
416,96,114235,1,0
416,96,114406,1,0
416,96,114576,2,0,B|416:192,3,70
352,192,115258,5,0
224,192,115599,2,0,B|224:96,1,70
320,64,116110,2,0,B|416:64,1,70
456,64,116451,1,0
456,128,116622,1,0
448,344,117133,2,0,B|384:280,1,70,0|0
264,144,117815,2,0,B|200:80,1,70
256,320,118667,5,0
320,320,118838,1,0
320,256,119008,2,0,B|400:232,2,70
320,128,119690,2,0,B|192:160,1,70
192,168,120031,1,0
192,256,120372,1,0
288,288,120713,6,0,B|352:192|320:96,1,140,0|0
224,192,121394,2,0,B|192:128|224:32,1,140
320,64,122076,1,0
192,160,122588,5,0
136,200,122758,1,8
192,232,122928,1,0
256,256,123099,2,0,B|352:256,1,70
392,256,123440,1,8
384,96,124463,6,0,B|288:96,1,70
160,96,124974,1,0
160,192,125315,1,0
224,288,125656,2,0,B|288:320|352:256,1,140
352,192,126167,6,8,B|352:96,1,70,4|0
352,64,126508,1,0
352,64,126678,1,4
224,64,127019,1,0
224,160,127360,1,0
224,264,127701,1,0
208,288,127786,1,0
240,288,127872,1,4
392,200,139122,6,0,B|424:104,1,70
376,80,139463,1,8
312,80,139633,1,0
128,288,140485,5,0
128,224,140656,1,0
128,160,140826,2,0,B|224:160,1,70,8|0
416,160,141508,1,0
384,256,141849,1,0
288,192,142190,1,0
128,320,143213,5,0
128,256,143383,1,0
128,192,143553,1,8
128,128,143724,1,0
256,96,144065,1,0
256,160,144235,1,0
256,224,144406,1,0
256,288,144576,2,0,B|328:320,1,70
384,320,144917,1,8
384,256,145088,1,0
352,64,145940,6,0,B|256:64,1,70,0|0
216,64,146281,1,8
144,64,146451,1,0
144,208,146792,2,8,B|240:208,1,70,0|8
144,272,147133,2,8,B|48:272,1,70,0|8
144,336,147474,2,8,B|240:336,1,70
464,48,148667,5,0
416,96,148838,1,0
368,144,149008,2,0,B|296:208,1,70,4|0
64,64,149690,1,4
64,64,150031,2,4,B|224:160,1,140
288,192,150713,5,0
352,96,151053,2,0,B|384:192,1,70
320,256,151565,2,0,B|224:160,1,70
224,160,151906,1,0
128,128,152247,1,0
128,192,152417,1,0
256,192,153440,12,0,154463
128,192,154803,5,0
128,64,155144,1,0
256,64,155485,2,0,B|320:160|288:192,1,140,8|0
320,320,156167,1,0
384,320,156338,1,0
384,256,156508,1,8
384,192,156678,1,0
288,128,157019,5,0
224,128,157190,1,0
160,128,157360,1,0
160,192,157531,1,0
160,256,157701,2,0,B|160:352,1,70,0|8
224,256,158042,2,0,B|224:160,1,70
288,256,158383,2,8,B|288:352,1,70
416,256,158894,6,0,B|416:96,2,140,4|0|0
128,192,159917,2,0,B|128:144|128:32,1,140
256,48,160599,1,0
320,48,160769,1,0
384,48,160940,2,0,B|384:144,1,70
448,112,161281,2,0,B|448:16,1,70
512,40,161622,2,0,B|512:232,1,140
480,320,162303,5,0
480,320,162474,1,0
352,320,162815,1,0
224,320,163156,2,0,B|128:320,1,70
160,256,163497,1,0
160,256,163667,2,0,B|224:256,2,35
160,192,164008,1,0
160,128,164178,1,0
224,128,164349,1,4
256,192,164519,12,0,165372
256,96,165713,5,0
256,192,166053,1,0
320,192,166224,1,0
384,192,166394,1,8
384,288,166735,1,0
320,288,166906,1,0
256,288,167076,2,0,B|160:288,1,70
192,224,167417,2,0,B|288:224,1,70
256,160,167758,2,0,B|160:160,1,70,8|0
192,96,168099,2,0,B|288:96,1,70
328,96,168440,5,0
392,96,168610,1,0
456,96,168781,2,0,B|488:160|456:256,1,140
320,272,169463,6,0,B|256:240,1,70
192,224,169803,2,0,B|160:256,2,35
128,176,170144,2,0,B|224:144,1,70
256,128,170485,1,0
256,128,170570,1,0
256,128,170656,1,0
328,104,170826,2,0,B|328:200,1,70
328,240,171167,2,0,B|392:240,2,35
328,312,171508,1,0
264,312,171678,5,0
200,312,171849,1,0
200,312,171934,1,0
200,312,172019,1,0
136,312,172190,1,4
400,208,182758,5,0
400,208,182928,1,0
192,208,183440,2,4,L|192:112,1,70
320,96,183951,2,0,L|400:96,2,70
320,240,184633,1,4
320,240,184803,1,4
320,240,184974,1,4
176,256,185315,5,4
144,192,185485,1,4
208,192,185656,1,4
176,128,185826,1,4
240,128,185997,1,4
256,64,186167,5,0
256,64,186337,1,0
400,64,186678,1,4
400,64,186849,2,4,L|400:160,1,70
400,272,187360,2,4,L|496:272,2,70
256,272,188042,5,0
192,272,188212,2,0,L|112:272,3,70,0|0|0|0
128,208,188894,6,4,L|128:112,1,70
256,80,189406,2,4,L|336:80,2,70
256,224,190087,1,0
256,224,190258,2,0,L|336:224,1,70
448,144,190769,5,0
448,208,190940,2,0,L|496:208,2,35
448,272,191281,2,0,L|400:272,2,35
448,336,191622,6,0,L|352:336,1,70
336,288,191962,1,0
288,336,192133,1,0
224,304,192303,2,0,L|224:208,1,70
160,256,192644,1,0
112,208,192815,1,0
160,160,192985,2,0,L|256:160,1,70
256,192,193326,12,4,194349
320,112,205258,6,0,L|320:176|240:176|240:256|152:256,2,280,0|0|0
256,24,206962,5,0
96,256,207303,1,8
416,256,207644,1,0
352,96,207985,6,0,L|352:192|320:256,1,140
332,231,208497,1,0
224,320,208837,2,0,L|64:320,1,140
80,256,209349,1,0
208,256,209690,1,0
208,192,209860,1,0
144,64,210201,2,0,L|288:64,1,140
320,128,210712,6,0,L|320:256|480:256,2,280
48,80,212758,2,0,L|48:144|128:144|128:288,2,280
160,128,214633,5,4
224,128,214803,1,4
368,128,215144,1,4
432,128,215315,1,4
496,128,215485,1,4
480,192,215656,5,4
480,192,215741,1,4
480,192,215826,2,4,L|400:192|400:256,1,140
376,272,216252,1,0
352,304,216337,1,0
224,320,216678,2,0,L|224:224,1,70
224,112,217190,2,0,L|304:112,1,70
328,112,217445,1,0
368,112,217531,1,0
368,256,217872,5,0
368,256,218042,1,0
368,256,218212,1,0
368,256,218383,1,0
368,256,218553,2,0,L|224:256,1,140
80,256,219235,5,0
80,192,219406,1,0
80,128,219576,1,0
80,128,219747,2,0,L|224:128,1,140
288,128,220258,1,0
416,64,220599,1,0
416,64,220769,1,0
480,192,221110,1,0
480,192,221281,1,4
416,320,221622,5,4
416,320,221792,1,4
416,320,221962,1,4
416,320,222133,1,4
416,320,222303,1,4
416,320,222474,1,4
416,320,222644,1,4
416,320,222815,1,4
352,320,222985,5,4
352,320,223156,1,4
352,320,223326,1,4
352,320,223497,1,4
352,320,223667,1,4
352,320,223837,1,4
352,320,224008,1,4
352,320,224178,1,4
352,320,224349,1,4
256,192,224519,12,4,227076
