osu file format v5

[General]
AudioFilename: 01 - Triangular.mp3
AudioLeadIn: 1974
PreviewTime: 77076
Countdown: 1
SampleSet: Normal
StackLeniency: 0.7
Mode: 0
LetterboxInBreaks: 1
EditorDistanceSpacing: 1

[Metadata]
Title:Triangular
Artist:Sakamoto Maaya
Creator:tieff
Version:Easy
Source:Macross Frontier
Tags:May'n Nakajima Megumi Triangular Macross Frontier

[Difficulty]
HPDrainRate:2
CircleSize:3
OverallDifficulty:4
SliderMultiplier:0.7
SliderTickRate:1

[Events]
//Background and Video events
0,0,"macross_frontier_triangle.jpg"
//Break Periods
2,20009,24626
2,52737,61444
2,71828,75762
//Storyboard Layer 0 (Background)
//Storyboard Layer 1 (Failing)
//Storyboard Layer 2 (Passing)
//Storyboard Layer 3 (Foreground)
//Storyboard Sound Samples
//Background Colour Transformations
3,100,163,162,255

[TimingPoints]
719,340.909090909091,4,2,2,51,1,0
17934,-100,4,1,2,60,0,0
66684,-100,4,2,2,70,0,0
76741,-100,4,1,2,69,0,0
77082,-100,4,1,2,69,0,1
101542,-100,4,2,2,0,0,0

[Colours]
Combo1 : 111,111,255
Combo2 : 0,255,128
Combo3 : 255,255,128

[HitObjects]
408,80,719,2,0,B|408:168|360:248|304:280|264:288|248:288,1,280
280,152,2764,1,2
160,224,3446,2,0,B|160:136|208:56|264:24|304:16|328:16,1,280
392,128,5491,1,2
392,264,6173,6,0,B|312:264|280:312|232:312|184:264|104:264,1,280
120,120,8218,1,2
256,128,8900,2,0,B|320:160|280:224|256:256,1,140,0|2
136,304,10264,2,0,B|72:272|112:208|136:176,1,140,0|2
248,112,11628,6,0,B|336:112,3,70,0|0|8|0
384,112,12991,2,0,B|384:264,1,140,0|8
264,328,14355,2,0,B|240:272|160:256|112:288|40:240|40:168,1,280
144,88,16400,1,8
280,80,17082,6,0,B|336:136|304:232,1,140
304,280,18105,2,0,B|248:304,1,35,4|0
168,288,18787,1,0
112,88,19809,1,4
128,80,25946,6,0,B|232:88|272:208|344:240|376:232,1,280
448,336,27991,2,0,B|376:288|320:296,1,105,0|8
176,280,29355,2,0,B|104:232|48:240,1,105,0|8
112,64,30718,1,0
248,64,31400,6,0,B|312:104|312:152,1,105,8|0
288,248,32423,1,0
224,272,32764,1,8
160,296,33105,1,0
96,328,33446,6,0,B|16:192|152:64,1,280,4|4
280,80,35491,1,4
416,80,36173,1,4
416,216,36855,6,0,B|392:288|336:296,1,105,8|0
248,296,37878,2,0,B|160:296,3,70,0|8|0|4
112,168,39582,1,0
216,80,40264,6,0,B|296:80,1,70,0|8
352,80,40946,2,0,B|352:168,2,70,0|8|8
352,216,42309,6,0,B|304:272|216:272,2,140,0|8|0
416,88,44355,1,2
272,88,45037,1,2
128,88,45719,1,2
128,224,46400,6,0,B|184:248|208:200|240:200|264:240,1,140,4|4
480,56,48446,6,0,B|416:120,1,70,0|8
384,160,49128,2,0,B|312:232,1,70,8|0
280,256,49809,5,4
208,256,50150,2,0,B|160:264,1,35,0|8
104,264,50662,2,0,B|96:160,1,70,8|0
168,112,51514,1,4
376,120,52537,5,4
104,88,62764,6,0,B|176:128|168:192,1,105,0|4
280,304,64128,2,0,B|352:248|328:200,1,105,0|4
336,112,65150,2,0,B|280:64,4,70,0|0|0|4|0
352,176,66855,6,0,B|400:232|360:312,1,140,2|0
224,304,68219,2,0,B|168:240|216:168,1,140,4|0
320,88,69582,2,0,B|256:48|184:96,1,140,2|0
96,200,70946,5,0
216,272,71628,1,4
104,88,77082,6,2,B|208:88|200:248,1,210
200,312,78446,1,2
336,312,79128,1,0
336,168,79809,6,0,B|304:128|200:136,2,140,8|8|8
424,272,81855,1,4
280,272,82537,6,0,B|184:272,1,70,0|2
136,272,83219,2,0,B|136:168,1,70,2|8
136,128,83900,1,2
208,128,84241,2,0,B|256:120|288:88,1,70,8|0
336,112,84923,2,0,B|392:144|384:192,1,70,2|8
352,296,85946,6,4,B|200:296,2,140
352,152,87991,6,0,B|200:152,2,140,0|0|4
272,32,90037,1,8
144,96,90719,5,0
144,168,91059,2,0,B|144:208|144:208,1,35,0|4
144,272,91571,2,0,B|240:272,1,70,4|0
256,192,93105,12,4,96173
