osu file format v5

[General]
AudioFilename: purachira(TV size).mp3
AudioLeadIn: 0
PreviewTime: -1
Countdown: 1
SampleSet: Normal
StackLeniency: 0.7
Mode: 0
LetterboxInBreaks: 1

[Metadata]
Title:Platinum--Purachina(TV size)
Artist:Sakamoto Maaya
Creator:abcdefghri
Version:Easy
Source:
Tags:

[Difficulty]
HPDrainRate:3
CircleSize:3
OverallDifficulty:3
SliderMultiplier:0.9
SliderTickRate:1

[Events]
//Background and Video events
0,0,"1238553330065.jpg"
1,0,"CCS_OP3.avi"
//Break Periods
2,7906,12535
//Storyboard Layer 0 (Background)
//Storyboard Layer 1 (Failing)
//Storyboard Layer 2 (Passing)
//Storyboard Layer 3 (Foreground)
//Storyboard Sound Samples
//Background Colour Transformations
3,100,163,162,255

[TimingPoints]
2065,358.208955223881,4,1,0,30,1,0

[HitObjects]
64,192,2064,2,8,B|256:192,3,180
416,192,4841,2,12,B|224:192,4,180,8|8|8|8|4
256,192,13975,6,4,B|80:112,1,180
256,192,15587,1,0
256,304,15945,1,0
336,288,16214,1,0
384,224,16482,1,0
256,192,18721,5,0
368,192,19079,1,0
480,80,19617,1,0
304,64,20154,1,0
160,64,20691,1,0
384,272,21587,1,0
272,272,21945,2,0,B|64:64,2,270
256,192,25706,5,0
464,256,26422,1,0
288,112,27139,1,0
96,240,27856,1,4
96,320,28393,6,0,B|288:320|288:320,3,180
256,192,31438,5,0
432,64,32154,1,0
320,256,32871,1,0
112,176,33587,1,4
272,288,34214,5,0
336,80,34930,1,0
352,304,35646,1,0
192,144,36363,1,4
400,64,37079,6,0,B|208:48,1,180
288,208,38512,1,0
80,128,39229,1,4
288,272,40035,6,0,B|144:144,1,180
320,96,41468,1,0
112,192,42184,1,4
400,288,43259,5,0
368,240,43438,1,4
256,192,45050,5,0
352,64,45587,2,0,B|480:160|480:288|400:352|336:352,1,360
240,192,47916,1,0
64,144,48453,2,0,B|208:64|336:64|448:96|496:160,1,450
256,192,50602,5,2
480,224,51319,1,0
256,256,52035,1,0
480,288,52752,1,0
272,96,53646,5,2
48,64,54363,1,0
256,160,54721,1,0
336,224,54900,2,0,B|400:304,3,90
192,192,56602,5,0
416,176,57318,1,0
256,336,58035,1,0
16,64,59198,5,2
224,128,59915,1,0
128,320,60631,1,0
336,96,61527,5,2
112,96,62243,1,0
320,160,62960,1,0
224,208,63318,1,0
160,208,63497,1,0
304,288,64035,1,0
352,256,64214,1,0
192,288,64751,1,0
144,272,64930,1,0
176,112,65467,1,0
224,96,65647,1,0
336,128,66005,1,0
352,240,66363,1,4
240,192,67259,5,0
304,288,67617,1,4
256,192,67975,12,4,69050
256,192,70124,5,0
368,192,70482,1,4
256,192,70841,12,4,71557
256,192,72094,5,0
336,272,72453,1,0
448,240,72810,1,0
480,128,73169,1,0
384,64,73527,1,0
272,48,73885,1,0
240,48,74065,2,0,B|144:64|80:96|48:160|48:224|80:256|112:272|144:288|192:304|224:304|272:288|288:272|320:240,1,540
256,192,76751,12,0,79796
