osu file format v9

[General]
AudioFilename: Loop.mp3
AudioLeadIn: 500
PreviewTime: 38545
Countdown: 0
SampleSet: Soft
StackLeniency: 0.7
Mode: 0
LetterboxInBreaks: 0

[Editor]
Bookmarks: 56192
DistanceSpacing: 1
BeatDivisor: 4
GridSize: 4

[Metadata]
Title:Loop (TV Size)
Artist:Sakamoto Maaya
Creator:hoLysoup
Version:Normal
Source:Tsubasa Chronicle
Tags:clamp reservoir

[Difficulty]
HPDrainRate:4
CircleSize:4
OverallDifficulty:4
ApproachRate:5
SliderMultiplier:1.8
SliderTickRate:2

[Events]
//Background and Video events
0,0,"sakushao01.jpg"
Video,0,"levideo.avi"
//Break Periods
//Storyboard Layer 0 (Background)
//Storyboard Layer 1 (Fail)
//Storyboard Layer 2 (Pass)
//Storyboard Layer 3 (Foreground)
//Storyboard Sound Samples
//Background Colour Transformations
3,100,163,162,255

[TimingPoints]
2074.95921892926,588.235294117647,4,2,1,60,1,0
2222,-100,4,2,1,40,0,0
4280,-100,4,2,1,60,0,0
4574,-100,4,2,1,40,0,0
6633,-100,4,2,1,60,0,0
6927,-100,4,2,1,40,0,0
8986,-100,4,2,1,60,0,0
9280,-100,4,2,1,40,0,0
11339,-100,4,2,1,60,0,0
11633,-100,4,2,1,40,0,0
13692,-100,4,2,1,60,0,0
13986,-100,4,2,1,40,0,0
16045,-100,4,2,1,60,0,0
16339,-100,4,2,1,40,0,0
18398,-100,4,2,1,60,0,0
18692,-100,4,2,1,40,0,0
20751,-100,4,2,1,50,0,0
21045,-100,4,2,1,40,0,0
23104,-100,4,2,1,60,0,0
23398,-100,4,2,1,40,0,0
25457,-100,4,2,1,60,0,0
25751,-100,4,2,1,40,0,0
27810,-100,4,2,1,60,0,0
28104,-100,4,2,1,40,0,0
30163,-100,4,2,1,50,0,0
30457,-100,4,2,1,40,0,0
32516,-100,4,2,1,60,0,0
32810,-100,4,2,1,40,0,0
38839,-100,4,2,1,40,0,0
39722,-100,4,2,1,60,0,1
39869,-100,4,2,1,45,0,1
41339,-100,4,1,2,45,0,1
41633,-100,4,2,1,45,0,1
41927,-100,4,2,1,60,0,1
42222,-100,4,2,1,45,0,1
43692,-100,4,1,2,45,0,1
43986,-100,4,2,1,45,0,1
44354,-100,4,2,1,60,0,1
44574,-100,4,2,1,45,0,1
46633,-100,4,2,1,60,0,1
46927,-100,4,2,1,45,0,1
49574,-100,4,1,2,45,0,1
49869,-100,4,2,1,45,0,1
51339,-100,4,2,1,60,0,1
51927,-100,4,1,2,45,0,1
52222,-100,4,2,1,45,0,1
54280,-100,4,1,2,45,0,1
54574,-100,4,2,1,45,0,1
56633,-100,4,1,2,45,0,1
56927,-100,4,2,1,45,0,1
57883,-100,4,2,1,40,0,1
58472,-100,4,2,1,60,0,1
58692,-100,4,2,1,45,0,1
60163,-100,4,1,2,45,0,1
60457,-100,4,2,1,45,0,1
60751,-100,4,2,1,60,0,1
61045,-100,4,2,1,45,0,1
62516,-100,4,1,2,45,0,1
62810,-100,4,2,1,45,0,1
63177,-100,4,2,1,50,0,1
63324,-100,4,2,1,45,0,1
65457,-100,4,2,1,60,0,1
65751,-100,4,2,1,45,0,1
67883,-100,4,2,1,55,0,1
68104,-100,4,2,1,45,0,1
70163,-100,4,2,1,60,0,1
70457,-100,4,2,1,45,0,1
73104,-100,4,1,2,45,0,1
73398,-100,4,2,1,45,0,1
75457,-100,4,1,2,45,0,1
75751,-100,4,2,1,45,0,1
77369,-100,4,2,1,40,0,0
79307,-100,4,2,1,20,0,0
86045,-100,4,2,1,10,0,0
91339,-100,4,2,1,5,0,0

[Colours]
Combo1 : 239,180,140
Combo2 : 107,188,84
Combo3 : 158,225,151
Combo4 : 128,184,253
Combo5 : 217,125,113
SliderBorder : 255,255,255

[HitObjects]
100,120,2074,6,0,B|128:64|224:64|248:120,1,180,4|8
324,168,2957,2,8,B|296:224|200:224|176:168,1,180
100,216,3839,2,0,B|80:260|100:304,1,90,8|0
188,304,4427,6,0,B|336:304,1,135,2|8
408,224,5310,2,8,B|216:224,1,180
140,224,6192,2,0,B|96:200|88:152,1,90,8|0
140,80,6780,6,0,B|176:36|280:120|312:68,1,180,2|8
312,176,7663,2,8,B|282:127|178:211|142:167,1,180
60,200,8545,2,0,B|36:236|44:288,1,90,8|0
124,328,9133,6,0,B|168:328|168:328|224:356|224:356|272:356,1,135,2|8
308,268,10016,2,8,B|252:268|252:268|188:240|188:240|124:240,1,180
156,152,10898,2,0,B|192:120|208:72,1,90,8|0
284,32,11486,6,0,B|368:72|440:140,1,180,4|8
420,224,12369,2,8,B|336:184|264:116,1,180
204,64,13251,2,0,B|154:62|104:84,1,90,8|0
60,148,13839,6,0,B|36:240|84:332,1,180,2|8
164,356,14722,2,8,B|188:264|140:172,1,180
144,92,15604,2,0,B|184:108|236:112,1,90,8|0
276,188,16192,6,0,B|348:200|420:120|388:28|316:4,2,270,4|8|8
204,240,18251,1,0
192,152,18545,2,0,B|120:140|48:220|80:312|152:336,2,270,2|8|8
244,228,20604,1,0
300,156,20898,6,0,B|336:100|340:28,2,135,4|8|8
240,88,22074,2,0,B|184:156|192:264,1,180,0|8
260,316,22957,1,0
332,264,23251,2,0,B|376:236|432:264|432:264|512:216|500:120,2,270,2|8|8
160,324,25604,6,0,B|96:296|60:236,2,135,2|8|8
188,240,26780,2,0,B|136:160|140:56,1,180,0|8
224,32,27663,1,0
256,116,27957,2,0,B|312:124|348:64|348:64|416:88|444:192,2,270,2|8|8
96,200,30310,6,0,B|124:268|192:288,2,135,4|8|8
184,184,31486,2,0,B|272:200|372:180,1,180,0|8
404,100,32369,1,0
456,176,32663,2,0,B|456:224|484:264|484:264|424:360|332:300,2,270,2|8|8
256,192,35016,12,2,37369
348,300,38545,6,0,B|164:300,1,180,2|8
96,136,39722,6,0,B|32:164|32:252|96:280,1,180,4|10
148,208,40604,2,0,B|208:234|208:322|144:350,2,180
192,128,42074,2,0,B|384:128,1,180,2|10
420,204,42957,2,0,B|228:204,2,180
372,280,44427,6,0,B|436:208|440:112,1,180,2|10
368,60,45310,1,0
296,8,45604,2,0,B|232:80|228:176,2,180,0|8|2
368,60,47074,1,0
439,117,47369,2,0,B|436:208|372:280,1,180,10|4
300,228,48251,1,0
228,172,48545,1,12
152,220,48839,1,0
212,280,49133,6,0,B|188:304|144:320|88:304|68:240|68:240|20:264|20:316,2,270,4|2|8
144,212,51192,1,0
84,152,51486,2,0,B|108:128|152:112|208:128|228:192|228:192|276:168|276:116,2,270,2|2|8
144,212,53545,1,0
192,288,53839,6,0,B|256:324|328:288|328:288|396:252|452:284,2,270,2|2|8
192,196,55898,1,0
192,108,56192,2,0,B|248:76|316:112|316:112|388:148|452:112,2,270,2|2|8
124,276,58545,6,0,B|60:248|60:160|124:132,1,180,4|10
176,204,59427,2,0,B|236:177|236:89|172:61,2,180
220,284,60897,2,0,B|412:284,1,180,2|10
448,208,61780,2,0,B|256:208,2,180
400,132,63250,6,0,B|464:204|468:300,1,180,2|10
376,284,64133,1,0
288,272,64427,2,0,B|224:200|220:104,2,180,0|8|2
376,284,65898,1,0
467,294,66192,2,8,B|464:204|400:132,1,180,10|12
316,100,67074,1,0
228,120,67369,1,12
192,204,67663,1,0
212,288,67957,6,0,B|108:288|64:192,2,180,4|10|0
216,196,69427,1,0
220,108,69722,2,0,B|324:108|368:204,2,180,8|4|12
144,152,71192,1,0
67,199,71486,2,0,B|108:288|212:288,1,180,4|8
300,296,72369,1,0
392,300,72663,6,0,B|428:236|392:164|392:164|356:96|388:40,2,270,4|2|8
300,304,74722,1,0
212,304,75016,2,0,B|176:240|212:168|212:168|248:100|216:44,2,270,2|2|8
300,304,77074,1,0
392,304,77369,1,2
136,48,79722,6,0,B|48:88|8:192|56:296|144:332,1,360
368,331,82074,6,0,B|456:296|504:192|464:88|376:48,2,360
256,192,86192,12,0,91486
