osu file format v9

[General]
AudioFilename: Loop.mp3
AudioLeadIn: 500
PreviewTime: 38545
Countdown: 0
SampleSet: Soft
StackLeniency: 0.7
Mode: 0
LetterboxInBreaks: 0

[Editor]
DistanceSpacing: 1.2
BeatDivisor: 4
GridSize: 4

[Metadata]
Title:Loop (TV Size)
Artist:Sakamoto Maaya
Creator:hoLysoup
Version:Hard
Source:Tsubasa Chronicle
Tags:clamp reservoir

[Difficulty]
HPDrainRate:6
CircleSize:4
OverallDifficulty:6
ApproachRate:7
SliderMultiplier:2
SliderTickRate:2

[Events]
//Background and Video events
0,0,"sakushao01.jpg"
Video,0,"levideo.avi"
//Break Periods
//Storyboard Layer 0 (Background)
//Storyboard Layer 1 (Fail)
//Storyboard Layer 2 (Pass)
//Storyboard Layer 3 (Foreground)
//Storyboard Sound Samples
//Background Colour Transformations
3,100,163,162,255

[TimingPoints]
2074.95921892926,588.235294117647,4,2,1,60,1,0
2222,-100,4,2,1,40,0,0
4280,-100,4,2,1,60,0,0
4574,-100,4,2,1,40,0,0
6633,-100,4,2,1,60,0,0
6927,-100,4,2,1,40,0,0
8986,-100,4,2,1,60,0,0
9280,-100,4,2,1,40,0,0
11339,-100,4,2,1,45,0,0
11633,-100,4,2,1,40,0,0
13692,-100,4,2,1,60,0,0
13986,-100,4,2,1,40,0,0
16045,-100,4,2,1,45,0,0
16339,-100,4,2,1,40,0,0
18398,-100,4,2,1,60,0,0
18692,-100,4,2,1,40,0,0
20751,-100,4,2,1,50,0,0
21045,-100,4,2,1,40,0,0
23104,-100,4,2,1,60,0,0
23398,-100,4,2,1,40,0,0
25457,-100,4,2,1,60,0,0
25751,-100,4,2,1,40,0,0
27810,-100,4,2,1,60,0,0
28104,-100,4,2,1,40,0,0
30163,-100,4,2,1,50,0,0
30457,-100,4,2,1,40,0,0
32516,-100,4,2,1,60,0,0
32810,-100,4,2,1,40,0,0
38839,-100,4,2,1,40,0,0
39722,-100,4,2,1,60,0,1
39869,-100,4,2,1,45,0,1
41927,-100,4,2,1,60,0,1
42222,-100,4,2,1,45,0,1
44354,-100,4,2,1,60,0,1
44574,-100,4,2,1,45,0,1
46119,-100,4,1,2,45,0,1
46339,-100,4,2,1,45,0,1
46633,-100,4,2,1,60,0,1
46927,-100,4,2,1,45,0,1
51339,-100,4,2,1,60,0,1
51633,-100,4,2,1,45,0,1
57883,-100,4,2,1,40,0,1
58472,-100,4,2,1,60,0,1
58692,-100,4,2,1,45,0,1
60751,-100,4,2,1,60,0,1
61045,-100,4,2,1,45,0,1
63177,-100,4,2,1,50,0,1
63324,-100,4,2,1,45,0,1
64942,-100,4,1,2,45,0,1
65163,-100,4,2,1,45,0,1
65457,-100,4,2,1,60,0,1
65751,-100,4,2,1,45,0,1
67883,-100,4,2,1,55,0,1
68104,-100,4,2,1,45,0,1
70163,-100,4,2,1,60,0,1
70457,-100,4,2,1,45,0,1
72516,-133.333333333333,4,2,1,45,0,1
76045,-100,4,1,2,30,0,1
76339,-133.333333333333,4,2,1,45,0,1
77369,-100,4,2,1,40,0,0
78986,-133.333333333333,4,2,1,30,0,0
81780,-133.333333333333,4,2,1,20,0,0
86045,-100,4,2,1,10,0,0
91339,-100,4,2,1,5,0,0

[Colours]
Combo1 : 239,180,140
Combo2 : 107,188,84
Combo3 : 158,225,151
Combo4 : 128,184,253
Combo5 : 217,125,113
SliderBorder : 255,255,255

[HitObjects]
216,80,2074,2,0,B|188:44|108:44|80:80,2,150,4|8|8
296,304,3398,2,8,B|324:340|404:340|432:304,1,150
376,248,4133,1,0
444,208,4427,6,0,B|456:112|416:44,2,150,2|8|8
68,176,5751,2,8,B|56:272|96:340,1,150
156,284,6486,1,0
228,320,6780,6,0,B|272:320|272:320|320:296|320:296|384:296,2,150,2|8|8
284,64,8104,2,8,B|240:64|240:64|192:88|192:88|128:88,1,150
76,140,8839,1,0
152,172,9133,6,0,B|176:232|176:328,2,150,2|8|8
360,212,10457,2,8,B|336:152|336:56,1,150
264,32,11192,1,0
248,112,11486,6,0,B|180:136|88:136,2,150,4|8|8
264,272,12810,2,8,B|332:248|424:248,1,150
456,160,13545,1,0
364,128,13839,6,0,B|296:152|204:152,2,150,2|8|8
295,232,15016,2,8,B|216:232|148:256,1,150,8|0
112,240,15604,1,8
52,148,15898,1,0
160,148,16192,6,0,B|216:88|220:8,1,150,4|8
352,236,17074,2,0,B|296:296|292:376,2,150,8|8|8
396,72,18251,1,0
328,112,18545,6,0,B|176:112,2,150,2|8|8
372,180,19722,1,0
308,228,20016,1,8
256,288,20310,1,8
204,228,20604,1,0
140,180,20898,6,0,B|100:204|100:276|140:312,2,150,4|8|8
204,228,22074,2,8,B|244:204|244:124|204:96,1,150,8|0
164,96,22663,1,8
204,228,22957,1,0
372,204,23251,6,8,B|420:184|420:104|372:76,2,150,2|8|8
140,180,24574,2,8,B|92:200|92:280|140:308,1,150
184,244,25310,1,0
184,244,25604,6,0,B|368:244,2,150,2|8|8
328,140,26927,2,8,B|144:140,1,150
96,140,27663,1,0
96,140,27957,6,0,B|60:212|100:288,1,150,2|8
416,244,28839,2,8,B|452:172|412:96,2,150
336,244,30016,1,0
336,244,30310,6,0,B|232:244,1,100,4|0
196,244,30751,2,0,B|136:192|136:112,1,150,8|8
188,52,31486,1,0
244,112,31780,1,8
300,52,32074,1,8
352,112,32369,1,0
352,112,32663,6,8,B|351:192|291:244,2,150,2|8|8
160,112,33839,2,0,B|160:192|220:244,2,150,0|8|8
256,192,35016,12,2,37369
256,60,38545,6,0,B|256:216,1,150,2|8
256,240,39133,2,8,B|256:288,2,50
388,316,39722,6,0,B|448:236|444:112,1,200,4|10
336,32,40604,1,0
312,64,40751,1,2
320,104,40898,2,0,B|328:152,2,50,2|0|0
188,56,41486,1,8
112,148,41780,1,0
236,196,42074,6,0,B|324:140|444:132,1,200,2|10
332,244,42957,1,0
332,244,43104,1,2
332,244,43251,2,0,B|352:292,2,50,2|0|0
144,152,43839,1,8
280,100,44133,5,0
280,100,44280,1,0
280,100,44427,2,0,B|216:176|208:304,1,200,4|10
112,248,45310,1,0
308,324,45604,2,0,B|460:324,2,150,2|2|0
352,232,46780,6,0,B|380:188|384:136,1,100,2|0
296,24,47369,2,0,B|268:68|264:120,1,100,10|0
236,148,47810,1,2
200,168,47957,2,0,B|152:168,2,50,4|0|0
352,232,48545,1,12
236,40,48839,5,8
200,56,48986,1,8
168,80,49133,2,0,B|128:112|120:168,1,100,4|0
208,344,49722,2,0,B|248:312|256:256,1,100,10|0
236,224,50163,1,0
260,192,50310,2,0,B|276:144|304:104,1,100
364,212,50898,2,0,B|348:260|320:300,1,100,8|0
392,124,51486,6,0,B|496:112,2,100,2|0|10
232,284,52369,1,0
132,248,52663,2,0,B|116:200|84:160,1,100
176,80,53251,1,8
232,284,53545,5,8
268,264,53692,1,8
296,236,53839,2,8,B|340:136|336:32,1,200,4|10
80,120,54722,2,0,B|76:224|140:320,1,200
244,312,55604,1,8
316,44,55898,5,0
344,72,56045,1,0
340,112,56192,2,0,B|336:164|312:208,1,100,4|0
200,244,56780,2,0,B|204:192|228:148,1,100,10|0
92,280,57369,2,0,B|64:240,3,50,10|0|0|0
68,200,57957,2,8,B|76:144,3,50
68,112,58545,6,0,B|152:52|264:56,1,200,4|10
424,208,59427,1,0
408,172,59574,1,2
432,140,59722,2,0,B|448:116|448:88,2,50,2|0|0
288,224,60310,1,8
432,312,60604,1,0
288,224,60898,6,0,B|296:172|284:120,1,100,2|0
188,72,61486,2,0,B|180:124|192:176,1,100,10|0
180,212,61927,1,2
156,244,62074,2,0,B|128:260|100:264,2,50,2|0|0
424,152,62663,1,8
272,40,62957,5,0
272,40,63104,1,0
272,40,63251,2,0,B|252:136|272:248,1,200,4|10
368,300,64133,1,0
272,240,64427,2,0,B|212:280|132:288,2,150,2|2|0
340,168,65604,6,0,B|316:120|304:72,1,100
220,48,66192,2,0,B|168:60|124:88,1,100,10|0
196,284,66780,5,12
368,152,67074,1,0
220,48,67369,1,12
240,208,67663,5,8
240,208,67810,1,8
240,208,67957,2,0,B|168:224|84:224,1,150,4|0
56,208,68545,2,0,B|28:164|24:112,1,100,10|0
120,44,69133,2,0,B|148:88|152:140,1,100
271,301,69722,2,0,B|243:257|240:208,1,100,8|0
380,40,70310,6,0,B|408:84|412:136,1,100,2|0
252,136,70898,1,10
412,216,71192,2,0,B|316:244|220:296,1,200,2|0
200,216,72074,2,0,B|192:164|168:120,1,100,8|0
208,44,72663,6,0,B|276:32|360:32,1,149.999995529652,4|10
296,132,73545,2,0,B|220:132|144:120,1,149.999995529652
280,216,74427,1,8
280,216,74722,2,0,B|356:192|436:192,1,149.999995529652,2|0
232,296,75604,1,10
232,296,75751,1,8
232,296,75898,2,0,B|164:280|84:276,1,149.999995529652,8|0
156,184,76780,2,8,B|128:144,2,37.4999988824129
256,192,77369,5,2
168,216,79133,5,0
168,216,79427,1,0
168,216,79722,2,0,B|208:144|208:144|256:192|256:192|304:144|304:144|344:224,1,300
292,300,82074,6,0,B|448:304,1,149.999995529652
484,228,82957,2,0,B|328:224,1,149.999995529652
256,192,83839,2,0,B|228:156|224:112,2,74.9999977648259
256,192,86192,12,0,91486
