osu file format v9

[General]
AudioFilename: 30 minutes night flight.mp3
AudioLeadIn: 0
PreviewTime: 97748
Countdown: 0
SampleSet: Soft
StackLeniency: 0.4
Mode: 0
LetterboxInBreaks: 0
StoryFireInFront: 0

[Editor]
Bookmarks: 35984,43042,57160,71278
DistanceSpacing: 1.5
BeatDivisor: 4
GridSize: 8

[Metadata]
Title:30 Minutes Night Flight
Artist:Sakamoto Maaya
Creator:vivicat
Version:My Night Flight
Source:
Tags:Selee LKs Sandpig

[Difficulty]
HPDrainRate:5
CircleSize:4
OverallDifficulty:5
ApproachRate:7
SliderMultiplier:1.4
SliderTickRate:1

[Events]
//Background and Video events
0,0,"BG.jpg"
//Break Periods
2,113831,126848
//Storyboard Layer 0 (Background)
//Storyboard Layer 1 (Fail)
//Storyboard Layer 2 (Pass)
//Storyboard Layer 3 (Foreground)
//Storyboard Sound Samples
//Background Colour Transformations
3,100,163,162,255

[TimingPoints]
690,441.176470588235,4,2,0,10,1,0
32013,-100,4,2,0,0,0,0
35984,-100,4,2,0,30,0,0
36645,-100,4,2,0,40,0,0
37528,-100,4,2,0,50,0,0
38410,-100,4,2,0,60,0,0
39292,-100,4,2,0,80,0,0
40175,-100,4,2,0,90,0,0
41057,-100,4,1,0,10,0,0
41388,-100,4,1,0,20,0,0
41609,-100,4,1,0,30,0,0
41829,-100,4,1,0,40,0,0
42050,-100,4,1,0,50,0,0
42270,-100,4,1,0,60,0,0
42491,-100,4,1,0,70,0,0
42712,-100,4,1,0,85,0,0
43042,-100,4,2,0,85,0,0
43153,-100,4,1,0,40,0,0
43594,-100,4,2,0,50,0,0
44256,-100,4,1,0,40,0,0
44476,-100,4,2,0,50,0,0
45138,-100,4,1,0,40,0,0
45359,-100,4,2,0,50,0,0
46020,-100,4,1,0,40,0,0
46241,-100,4,2,0,50,0,0
46903,-100,4,1,0,40,0,0
47123,-100,4,2,0,50,0,0
47785,-100,4,1,0,40,0,0
48006,-100,4,2,0,50,0,0
48667,-100,4,1,0,40,0,0
48888,-100,4,2,0,50,0,0
49550,-100,4,1,0,40,0,0
49770,-100,4,2,0,50,0,0
50432,-100,4,1,0,40,0,0
50653,-100,4,2,0,50,0,0
51314,-100,4,1,0,40,0,0
51535,-100,4,2,0,50,0,0
52197,-100,4,1,0,40,0,0
52417,-100,4,2,0,50,0,0
53079,-100,4,1,0,40,0,0
53300,-100,4,2,0,50,0,0
53962,-100,4,1,0,40,0,0
54182,-100,4,2,0,50,0,0
54844,-100,4,1,0,40,0,0
55064,-100,4,2,0,50,0,0
55726,-100,4,1,0,40,0,0
55947,-100,4,2,0,50,0,0
56609,-100,4,1,0,50,0,0
56829,-100,4,2,0,40,0,0
95763,-100,4,1,0,50,0,0
96204,-100,4,2,0,50,0,0
96756,-100,4,1,0,50,0,0
97087,-100,4,2,0,50,0,0
97638,-100,4,1,0,50,0,0
97859,-100,4,2,0,50,0,0
98520,-100,4,1,0,50,0,0
98741,-100,4,2,0,50,0,0
98962,-100,4,1,0,50,0,0
99182,-100,4,2,0,50,0,0
99403,-100,4,1,0,50,0,0
99513,-100,4,1,0,50,0,1
104476,-100,4,2,0,50,0,1
106462,-100,4,1,0,50,0,1
113520,-100,4,2,0,50,0,1
113631,-100,4,2,0,40,0,0
166351,-100,4,1,0,50,0,0
166682,-100,4,2,0,50,0,0
167344,-100,4,1,0,50,0,0
167564,-100,4,2,0,50,0,0
168226,-100,4,1,0,50,0,0
168557,-100,4,2,0,40,0,0
169109,-100,4,1,0,45,0,0
169329,-100,4,2,0,60,0,0
169550,-100,4,1,0,45,0,0
169770,-100,4,2,0,60,0,0
169991,-100,4,1,1,45,0,0
170101,-100,4,1,1,50,0,1
175041,-100,4,2,1,50,0,1
177050,-100,4,1,1,50,0,1
180359,-100,4,2,1,50,0,1
182344,-100,4,1,1,50,0,1
198006,-100,4,2,1,50,0,1
201756,-100,4,1,1,20,0,1
201866,-200,4,2,1,20,0,0
203189,-200,4,1,1,30,0,0

[Colours]
Combo1 : 78,130,177
Combo2 : 198,208,236

[HitObjects]
128,48,18337,6,0,B|32:120|88:376|312:392|432:304,1,560
384,48,20984,1,2
384,48,21866,2,0,B|480:120|424:376|264:104|40:112|80:304,1,560
40,40,24513,1,2
256,216,25395,6,0,B|224:112|56:320|264:360|376:344|452:240|328:80|232:48|240:164|272:152|168:116|184:0|276:16|288:44,1,560,0|0
144,192,28042,1,2
144,192,28925,2,0,B|153:148|209:84|321:36|457:260|345:372|193:404|49:260|209:68|281:188|249:236,2,560
256,192,32565,12,0,35984
256,192,36866,5,0
256,192,37748,5,0
208,293,38189,1,2
256,192,38631,1,0
303,90,39072,1,2
256,192,39513,5,0
138,116,39954,1,2
256,192,40395,1,0
374,266,40836,1,2
35,345,41278,5,0
35,345,41498,1,0
64,296,41719,5,0
64,296,41939,1,0
56,224,42160,5,0
56,224,42381,1,0
112,160,42601,5,0
112,160,42822,1,0
184,88,43042,5,4
184,88,43484,5,0
285,114,43704,1,0
184,88,44145,5,0
240,176,44366,1,0
312,248,44586,1,0
184,88,45028,5,0
168,192,45248,1,0
144,296,45469,1,0
184,88,45910,5,0
104,152,46131,1,0
104,256,46351,1,0
192,320,46572,1,0
192,320,47013,5,0
296,312,47233,1,0
192,320,47675,5,0
264,248,47895,1,0
336,176,48116,1,0
192,320,48557,5,0
208,216,48778,1,0
224,112,48998,1,0
192,320,49439,5,0
144,224,49660,1,0
168,120,49881,1,0
256,64,50101,1,0
256,64,50542,5,0
256,168,50763,1,0
256,64,51204,5,0
312,152,51425,1,0
376,232,51645,1,0
256,64,52086,5,0
352,112,52307,1,0
416,192,52528,1,0
352,272,52748,1,0
256,304,52969,1,0
160,272,53189,1,0
96,192,53410,1,0
160,112,53631,1,0
160,112,54072,5,0
256,152,54292,1,0
160,112,54734,5,0
216,200,54954,1,0
272,288,55175,1,0
160,112,55616,5,0
152,216,55836,1,0
208,304,56057,1,0
320,240,56278,1,0
256,152,56498,1,0
160,112,56719,1,0
168,344,57160,5,4
256,152,57601,1,2
352,192,57822,1,0
408,280,58042,1,0
200,320,58483,1,2
136,232,58704,6,0,L|126:279|134:303,1,70
240,320,59145,2,0,L|246:278|238:246,1,70,0|2
152,192,59586,2,0,L|142:239|150:263,1,70
256,256,60028,2,0,L|262:214|254:182,1,70,0|2
232,88,60469,1,0
160,168,60689,5,0
368,168,61131,1,2
160,168,61572,5,0
160,168,61792,1,0
264,192,62013,1,2
368,168,62233,1,0
176,72,62675,5,0
280,88,62895,1,2
176,104,63116,1,0
280,120,63336,1,0
176,136,63557,1,0
280,160,63778,1,2
176,168,63998,2,0,L|200:200|232:216,1,70,0|0
416,312,64660,1,2
226,213,65101,5,0
123,191,65322,1,0
104,294,65542,1,2
206,319,65763,1,0
408,256,66204,5,0
328,320,66425,1,2
408,256,66645,1,0
304,280,66866,1,0
408,256,67086,1,0
304,240,67307,1,2
408,256,67528,2,0,L|416:218|408:184,1,70,0|0
240,64,68189,1,2
184,264,68631,5,0
256,192,68851,1,0
184,264,69072,1,2
256,192,69292,1,0
392,104,69733,5,0
464,184,69954,1,2
408,272,70175,1,0
304,240,70395,1,0
296,136,70616,1,2
392,104,70836,1,8
200,192,71278,5,6
384,88,71719,1,10
408,192,71939,1,0
384,296,72160,1,0
200,192,72601,5,10
288,248,72822,2,0,L|360:288,1,70,0|0
296,192,73263,2,0,L|366:192,1,70,2|10
272,136,73704,2,0,L|336:72,2,70,0|0|2
200,208,74366,2,0,B|144:264,1,70,10|0
72,328,74807,5,2
288,328,75248,1,10
72,328,75689,5,2
128,240,75910,1,0
232,240,76131,1,8
288,328,76351,1,2
376,136,76792,5,2
272,104,77013,1,10
336,184,77233,1,0
232,152,77454,1,2
296,232,77675,1,0
192,200,77895,1,10
256,280,78116,2,0,L|256:320|280:368,1,70,2|0
408,192,78778,1,10
240,323,79219,5,2
344,304,79439,1,0
304,208,79660,1,8
408,192,79881,1,2
232,80,80322,5,2
128,72,80542,1,10
208,136,80763,1,0
112,168,80983,1,2
208,200,81204,1,0
128,264,81425,1,10
232,256,81645,1,0
304,160,81866,1,2
465,240,82307,1,10
255,240,82748,5,2
360,240,82969,1,0
360,240,83189,1,8
465,240,83410,1,2
88,176,83851,5,2
144,88,84072,1,10
200,176,84292,1,0
256,88,84513,1,0
312,176,84733,1,10
368,88,84954,1,10
424,176,85175,1,0
368,264,85395,6,0,L|351:227|291:227|275:187,1,140,4|10
104,72,86278,1,0
144,280,86719,1,10
376,192,87160,5,2
256,128,87381,1,2
328,256,87601,1,10
328,128,87822,1,0
256,256,88042,1,0
376,192,88263,1,10
216,192,88484,1,10
40,312,88925,6,0,L|76:298|148:330|192:312,1,140,0|10
376,320,89807,1,0
280,136,90248,1,10
112,256,90689,5,0
112,256,90910,1,0
216,224,91131,1,10
216,224,91351,1,10
192,328,91572,1,0
192,328,91792,1,0
80,336,92013,5,8
80,336,92234,2,0,L|80:288|40:248|40:200,1,140,2|0
40,212,92895,2,0,L|40:136,1,70,10|0
40,142,93336,1,0
432,48,93778,1,8
432,48,93998,2,0,L|432:96|472:136|472:184,1,140,2|0
472,172,94660,2,0,L|472:248,1,70,10|0
472,242,95101,1,0
256,192,95542,5,10
384,120,95984,5,0
329,321,96425,1,10
127,267,96866,1,0
181,64,97307,1,10
256,192,97748,5,0
275,330,98189,5,10
388,248,98410,1,2
369,109,98631,1,0
243,56,98851,1,10
128,136,99072,1,0
142,274,99292,1,10
275,330,99513,5,4
369,109,99954,1,8
176,192,100395,1,0
96,128,100616,1,0
168,56,100836,1,8
248,120,101057,1,0
248,120,101498,5,0
352,96,101719,1,8
424,168,101939,1,0
376,264,102160,1,0
272,248,102381,1,0
232,152,102601,1,8
368,120,102822,6,0,B|230:152,1,140,0|0
232,152,103484,1,8
304,232,103704,2,0,L|164:190,1,140,0|0
72,152,104366,1,8
152,88,104586,1,0
168,192,104807,1,2
168,360,105248,5,10
80,304,105469,1,0
168,360,105689,1,0
248,288,105910,1,10
328,216,106131,1,10
408,288,106351,1,0
408,288,106572,6,0,L|426:246|426:128,1,140,0|8
216,120,107454,1,0
232,224,107675,1,0
152,288,107895,1,8
48,280,108116,1,0
48,280,108557,5,0
88,184,108778,1,8
168,112,108998,1,0
168,112,109219,1,0
248,184,109439,1,0
296,280,109660,1,8
400,280,109881,6,0,L|418:252|418:135,1,140,0|0
418,40,110542,1,8
312,40,110763,2,0,L|295:80|295:207,1,140,0|0
220,250,111425,1,8
117,233,111645,1,0
35,167,111866,1,0
35,167,112307,5,8
112,96,112528,1,0
176,176,112748,1,0
232,264,112969,1,0
328,312,113189,1,8
424,272,113410,1,8
464,176,113631,1,4
252,40,127748,5,2
152,224,128189,1,10
256,248,128410,1,0
360,224,128631,1,0
252,40,129072,5,10
354,59,129292,2,0,B|394:67|418:115,1,70,0|0
472,184,129734,2,0,B|490:216|472:254,1,70,2|10
398,325,130175,2,0,B|372:366|327:363,4,70,0|0|2|10|0
419,222,131278,5,2
211,206,131719,1,10
419,222,132160,5,2
315,214,132381,1,0
211,206,132601,1,8
211,206,132822,1,2
136,8,133263,5,2
64,88,133484,1,10
72,192,133704,1,0
160,248,133925,1,2
264,232,134145,1,0
264,232,134366,1,10
264,232,134586,6,0,B|288:200|280:152,1,70,2|0
424,320,135248,1,10
281,165,135689,5,2
184,128,135910,1,0
281,165,136131,1,8
183,202,136351,1,2
183,202,136792,5,2
143,146,137013,1,10
231,258,137234,1,0
239,154,137454,1,0
135,250,137675,1,2
143,146,137895,1,10
231,258,138116,2,0,B|243:294|227:326,1,70,0|2
436,304,138778,1,10
336,120,139219,5,2
424,64,139439,1,0
336,120,139660,1,8
230,120,139881,1,2
230,120,140322,5,0
280,168,140542,1,8
184,64,140763,1,2
280,64,140984,1,2
184,168,141204,1,8
184,168,141425,1,8
159,270,141645,1,0
80,200,141866,6,0,B|40:136|80:40,1,140,4|10
136,144,142528,1,0
70,65,142748,2,0,B|142:57|230:97,1,140,0|10
304,128,143410,2,0,B|384:167|384:263,1,140,0|0
287,190,144072,1,10
382,235,144292,2,0,B|318:267|238:235,1,140,0|2
152,192,144954,2,0,B|120:176|104:112,2,70,10|0|2
360,192,145836,1,10
152,192,146278,5,2
232,120,146498,1,0
328,160,146719,1,8
320,264,146939,1,2
320,264,147381,5,2
245,338,147601,1,10
170,263,147822,1,0
244,188,148042,1,2
318,262,148263,2,0,B|352:192|318:122,1,140
320,126,148925,5,2
88,120,149366,1,10
320,126,149807,5,2
256,208,150028,1,0
152,208,150248,1,8
88,120,150469,1,2
88,120,150910,5,0
104,224,151131,1,8
192,280,151351,1,2
272,208,151572,1,2
360,264,151792,1,0
360,264,152233,6,0,B|379:307|360:344,1,70,0|2
154,332,152895,1,10
365,332,153336,5,2
456,280,153557,1,0
360,232,153778,1,8
452,182,153998,1,2
256,112,154439,5,10
256,320,154881,1,0
255,320,155101,1,10
256,216,155432,1,8
256,216,155542,1,0
355,180,155763,1,10
456,208,155983,6,0,B|472:248|456:296,1,70,4|0
360,304,156425,2,0,B|313:364|217:332,3,140,10|0|10|0
232,336,158189,5,10
152,264,158410,1,0
168,160,158631,1,0
248,88,158851,2,0,B|280:136|264:184,1,70,2|10
168,160,159292,1,0
224,248,159513,6,0,B|248:296|304:296,1,70
376,320,159954,2,0,B|432:336|488:288|464:224,3,140,10|0|10|0
420,42,161719,2,0,B|436:70|420:110,1,70,10|0
420,109,162160,1,0
256,240,162601,5,10
256,240,162822,2,0,B|168:232|168:88|280:88,1,210,2|8
251,91,163704,1,0
280,312,164366,5,10
280,312,164586,2,0,B|361:310|365:171|281:162,1,210,2|8
286,163,165469,1,0
72,192,166131,1,10
342,258,166572,6,0,B|391:184|335:104,1,140,0|10
280,48,167233,1,0
176,48,167454,1,0
81,93,167675,1,0
40,192,167895,2,0,B|16:263|56:351,1,140,10|0
160,192,168778,5,10
208,240,168998,1,0
208,144,169219,1,0
264,280,169439,1,10
264,104,169660,1,0
320,320,169881,1,10
320,64,170101,6,0,B|360:120|336:200,1,140,4|8
152,304,170983,1,0
256,288,171204,1,0
360,304,171425,1,8
462,281,171645,1,0
272,192,172086,5,0
168,192,172307,1,8
112,104,172528,2,0,B|81:133|67:174,1,70
168,192,172969,1,0
168,192,173189,1,8
192,296,173410,2,0,B|272:320|328:256,1,140,0|0
376,176,174072,1,8
376,176,174292,2,0,B|407:107|375:19,1,140,0|0
280,40,174954,1,8
200,112,175175,1,0
296,160,175395,1,2
296,160,175836,5,10
322,294,176057,1,0
194,246,176278,1,0
167,109,176498,1,2
266,14,176719,1,10
394,78,176939,1,0
458,198,177160,6,0,B|466:246|434:286,2,70,0|0|8
284,111,178042,2,0,B|247:131|232:160,1,70
152,232,178483,2,0,B|192:216|216:176,1,70,8|0
376,320,179145,2,0,B|344:300|320:264,1,70,0|8
280,176,179586,1,0
200,104,179807,1,0
104,144,180028,1,0
120,248,180248,1,8
224,264,180469,1,2
224,264,180910,6,0,B|189:276|144:264,2,70,0|10|0
292,64,181792,2,0,B|327:52|372:64,2,70,0|10|0
292,64,182454,1,0
256,272,182895,5,8
256,200,183116,1,0
256,344,183336,1,10
256,128,183557,2,0,L|256:58,2,70,0|10|8
208,224,184219,6,0,B|192:264|136:280,1,70,2|0
56,296,184660,1,10
40,192,184881,1,0
96,104,185101,1,2
192,56,185322,2,0,B|231:47|264:56,2,70,0|10|0
96,104,185983,6,0,B|64:142|72:190,1,70,2|0
88,272,186425,1,10
184,312,186645,1,0
88,352,186866,1,2
184,312,187086,1,0
288,296,187307,1,10
376,240,187528,1,0
416,144,187748,6,0,B|371:119|336:144,1,70,2|0
272,208,188189,1,8
272,208,188410,2,0,B|223:247|167:175|224:136,1,140
288,64,189072,2,0,B|328:56|392:64,3,70,8|0|2|0
440,128,189954,5,8
336,136,190175,1,0
440,128,190395,1,2
368,208,190616,1,0
440,128,190836,1,10
440,232,191057,1,2
360,304,191278,6,0,B|312:312|280:273,1,70,2|0
256,192,191719,1,10
320,112,191939,1,0
256,32,192160,1,2
152,32,192381,1,0
80,112,192601,2,0,B|56:152|80:192,1,70,10|0
152,248,193042,6,0,B|192:264|240:240,2,70,2|0|10
112,152,193704,1,0
160,56,193925,1,2
256,96,194145,1,0
352,56,194366,1,10
400,152,194586,1,0
352,248,194807,6,0,B|344:296|304:312,1,70,2|0
208,312,195248,1,8
208,168,195469,2,0,B|144:152|112:248|184:264,1,140
256,312,196131,1,8
344,256,196351,1,0
424,192,196572,6,0,B|431:157|424:112,3,70,0|0|8|0
352,48,197454,2,0,B|336:88|344:120,1,70
260,179,197895,1,8
260,284,198116,1,10
392,272,198336,6,0,B|328:320|248:280,1,140,6|8
168,232,198998,2,0,B|64:160|124:43,1,210,2|8
200,120,199881,1,0
392,192,200322,1,0
360,288,200542,1,8
256,304,200763,2,0,B|179:308|144:200,1,140,2|0
184,120,201425,1,8
184,120,201645,1,0
184,120,201866,6,0,C|256:128|338:117,1,140,0|2
256,264,203410,2,0,B|256:280,2,17.5,0|0|4
