osu file format v14

[General]
AudioFilename: okaeri.mp3
AudioLeadIn: 0
PreviewTime: -1
Countdown: 1
SampleSet: Normal
StackLeniency: 0.7
Mode: 2
LetterboxInBreaks: 1
WidescreenStoryboard: 0

[Editor]
DistanceSpacing: 1
BeatDivisor: 4
GridSize: 4
TimelineZoom: 1

[Metadata]
Title:Okaerinasai
TitleUnicode:Okaerinasai
Artist:Sakamoto Maaya (tomatomerde remix)
ArtistUnicode:Sakamoto Maaya (tomatomerde remix)
Creator:-Necrophilia-
Version:Okaeri
Source:
Tags:
BeatmapID:768780
BeatmapSetID:348503

[Difficulty]
HPDrainRate:6
CircleSize:4
OverallDifficulty:10
ApproachRate:9.3
SliderMultiplier:2
SliderTickRate:1

[Events]
//Background and Video events
0,0,"bg.jpg",0,0
//Break Periods
//Storyboard Layer 0 (Background)
//Storyboard Layer 1 (Fail)
//Storyboard Layer 2 (Pass)
//Storyboard Layer 3 (Foreground)
//Storyboard Sound Samples

[TimingPoints]
504,285.714285714286,4,1,0,100,1,0

[HitObjects]
80,64,504,6,0,P|48:232|56:252,1,200
104,316,932,1,0,0:0:0:0:
176,360,1075,1,0,0:0:0:0:
256,64,1218,1,0,0:0:0:0:
360,264,1361,1,0,0:0:0:0:
216,196,1504,2,0,P|96:196|84:188,1,100
216,64,1789,2,0,P|104:68|88:80,1,100
312,264,2075,1,0,0:0:0:0:
88,152,2217,1,0,0:0:0:0:
100,200,2289,1,0,0:0:0:0:
124,244,2360,1,0,0:0:0:0:
156,280,2431,1,0,0:0:0:0:
200,308,2503,1,0,0:0:0:0:
408,248,2647,1,0,0:0:0:0:
408,248,2718,1,0,0:0:0:0:
408,248,2789,1,0,0:0:0:0:
320,184,2932,1,0,0:0:0:0:
320,184,3003,1,0,0:0:0:0:
320,184,3075,2,0,L|216:184,1,100
48,64,3361,6,0,L|76:176,1,100
120,216,3646,2,0,L|224:216,1,100
468,56,3932,2,0,L|448:168,1,100
396,216,4218,2,0,L|272:216,1,100
388,48,4504,1,0,0:0:0:0:
420,128,4646,1,0,0:0:0:0:
448,208,4789,1,0,0:0:0:0:
460,292,4932,1,0,0:0:0:0:
336,144,5075,1,0,0:0:0:0:
296,220,5218,1,0,0:0:0:0:
236,276,5361,1,0,0:0:0:0:
168,320,5504,1,0,0:0:0:0:
60,180,5646,6,0,L|132:276,1,100
216,104,5932,2,0,L|168:204,1,100
76,40,6218,2,0,L|128:156,1,100
200,148,6504,1,0,0:0:0:0:
204,324,6646,1,0,0:0:0:0:
392,236,6789,1,0,0:0:0:0:
112,232,6932,1,0,0:0:0:0:
296,352,7075,1,0,0:0:0:0:
304,156,7218,1,0,0:0:0:0:
160,276,7361,1,0,0:0:0:0:
96,176,7504,1,0,0:0:0:0:
96,176,7576,1,0,0:0:0:0:
96,176,7647,2,0,L|200:176,1,100
76,300,7932,2,0,L|188:300,1,100
320,300,8218,2,0,L|432:300,1,100
316,196,8504,2,0,L|432:196,1,100
220,200,8789,2,0,L|100:200,1,100
348,116,9075,2,0,L|456:116,1,100
260,116,9361,2,0,L|144:116,1,100
376,44,9646,6,0,L|500:44,1,100
476,44,9932,1,0,0:0:0:0:
292,40,10075,1,0,0:0:0:0:
292,40,10146,1,0,0:0:0:0:
292,40,10218,2,0,L|152:40,1,100
44,76,10504,2,0,L|64:204,1,100
96,280,10789,2,0,L|236:280,1,100
472,72,11075,2,0,L|440:172,1,100
424,280,11361,2,0,L|320:280,1,100
104,64,11646,2,0,L|200:144,1,100
392,64,11932,2,0,L|312:128,1,100
104,256,12218,1,0,0:0:0:0:
184,64,12361,1,0,0:0:0:0:
192,256,12504,2,0,P|160:352|152:356,1,100
312,152,12789,1,0,0:0:0:0:
120,320,12932,1,0,0:0:0:0:
184,160,13075,2,0,P|252:248|256:268,1,100
368,72,13361,1,0,0:0:0:0:
440,240,13504,1,0,0:0:0:0:
276,140,13646,2,0,L|164:140,1,100
72,308,13932,2,0,L|72:200,1,100
292,52,14218,5,0,0:0:0:0:
424,256,14361,1,0,0:0:0:0:
244,200,14504,2,0,P|128:200|112:192,1,100
240,56,14789,2,0,P|124:56|104:64,1,100
248,324,15075,1,0,0:0:0:0:
240,56,15218,1,0,0:0:0:0:
244,252,15361,1,0,0:0:0:0:
408,152,15504,1,0,0:0:0:0:
68,132,15646,1,0,0:0:0:0:
136,220,15789,2,0,L|264:220,1,100
408,152,16075,2,0,L|292:152,1,100
216,152,16361,1,0,0:0:0:0:
128,152,16504,5,0,0:0:0:0:
48,152,16646,1,0,0:0:0:0:
472,112,16789,1,0,0:0:0:0:
472,264,16932,1,0,0:0:0:0:
256,48,17075,1,0,0:0:0:0:
384,304,17218,1,0,0:0:0:0:
148,48,17361,1,0,0:0:0:0:
288,304,17504,1,0,0:0:0:0:
360,48,17646,1,0,0:0:0:0:
192,304,17789,1,0,0:0:0:0:
148,48,17932,1,0,0:0:0:0:
384,304,18075,1,0,0:0:0:0:
100,232,18218,1,0,0:0:0:0:
124,176,18289,1,0,0:0:0:0:
152,124,18361,1,0,0:0:0:0:
196,80,18432,1,0,0:0:0:0:
248,48,18504,1,0,0:0:0:0:
88,332,18789,6,0,L|88:216,1,100
88,136,19075,1,0,0:0:0:0:
372,64,19218,1,0,0:0:0:0:
392,108,19289,1,0,0:0:0:0:
404,156,19360,1,0,0:0:0:0:
408,208,19432,1,0,0:0:0:0:
404,256,19503,1,0,0:0:0:0:
88,136,19646,1,0,0:0:0:0:
420,148,19789,1,0,0:0:0:0:
388,240,19932,2,0,P|320:324|292:332,1,100
96,324,20218,1,0,0:0:0:0:
388,240,20361,1,0,0:0:0:0:
372,192,20433,1,0,0:0:0:0:
336,156,20504,1,0,0:0:0:0:
296,128,20576,1,0,0:0:0:0:
252,108,20647,1,0,0:0:0:0:
96,324,20789,1,0,0:0:0:0:
392,96,20932,1,0,0:0:0:0:
116,108,21075,2,0,P|148:212|164:224,1,100
220,260,21361,1,0,0:0:0:0:
436,320,21504,5,0,0:0:0:0:
460,276,21575,1,0,0:0:0:0:
468,228,21646,1,0,0:0:0:0:
456,180,21718,1,0,0:0:0:0:
436,136,21789,1,0,0:0:0:0:
88,132,21932,1,0,0:0:0:0:
436,136,22075,1,0,0:0:0:0:
436,136,22146,1,0,0:0:0:0:
436,136,22217,1,0,0:0:0:0:
168,228,22361,1,0,0:0:0:0:
260,80,22504,1,0,0:0:0:0:
368,200,22646,1,0,0:0:0:0:
88,132,22789,2,0,P|180:64|192:64,1,100
436,200,23075,1,0,0:0:0:0:
344,60,23218,1,0,0:0:0:0:
352,320,23360,1,0,0:0:0:0:
216,192,23503,1,0,0:0:0:0:
216,296,23646,2,0,P|112:300|72:284,1,100
420,296,23932,2,0,P|312:296|292:288,1,100
216,192,24218,2,0,P|216:84|224:80,1,100
412,52,24504,2,0,P|288:52|280:48,1,100
220,60,24789,1,0,0:0:0:0:
420,280,24932,5,0,0:0:0:0:
380,248,25004,1,0,0:0:0:0:
332,232,25075,1,0,0:0:0:0:
284,224,25146,1,0,0:0:0:0:
232,220,25218,1,0,0:0:0:0:
184,232,25289,1,0,0:0:0:0:
140,256,25361,1,0,0:0:0:0:
220,60,25504,1,0,0:0:0:0:
220,60,25576,1,0,0:0:0:0:
220,60,25648,2,0,P|288:136|312:140,1,100
368,176,25932,1,0,0:0:0:0:
320,304,26075,1,0,0:0:0:0:
216,280,26218,2,0,P|108:296|96:312,1,100
116,132,26504,1,0,0:0:0:0:
384,256,26646,1,0,0:0:0:0:
288,92,26789,2,0,P|388:92|400:100,1,100
232,196,27075,1,0,0:0:0:0:
184,296,27218,2,0,P|80:296|64:288,1,100
86,298,27432,1,0,0:0:0:0:
86,298,27504,1,0,0:0:0:0:
432,224,27646,2,0,L|432:280,2,50
104,72,27932,6,0,P|112:176|124:192,1,100
160,244,28218,1,0,0:0:0:0:
304,68,28361,1,0,0:0:0:0:
304,68,28432,1,0,0:0:0:0:
304,68,28504,1,0,0:0:0:0:
76,176,28646,1,0,0:0:0:0:
304,68,28789,1,0,0:0:0:0:
160,244,28932,1,0,0:0:0:0:
160,244,29004,1,0,0:0:0:0:
160,244,29075,1,0,0:0:0:0:
304,68,29218,1,0,0:0:0:0:
304,272,29361,1,0,0:0:0:0:
440,164,29504,1,0,0:0:0:0:
204,164,29646,1,0,0:0:0:0:
428,48,29789,1,0,0:0:0:0:
208,256,29932,1,0,0:0:0:0:
56,100,30075,1,0,0:0:0:0:
256,344,30218,1,0,0:0:0:0:
112,188,30361,1,0,0:0:0:0:
192,116,30504,2,0,P|276:52|288:40,1,100
456,236,30789,2,0,P|356:240|328:232,1,100
256,192,31075,1,0,0:0:0:0:
48,240,31218,2,0,P|160:240|176:236,1,100
244,44,31504,1,0,0:0:0:0:
240,312,31646,1,0,0:0:0:0:
104,112,31789,5,0,0:0:0:0:
148,88,31861,1,0,0:0:0:0:
196,76,31932,1,0,0:0:0:0:
244,72,32003,1,0,0:0:0:0:
292,80,32075,1,0,0:0:0:0:
336,100,32146,1,0,0:0:0:0:
380,128,32218,1,0,0:0:0:0:
240,312,32361,1,0,0:0:0:0:
240,312,32433,1,0,0:0:0:0:
240,312,32504,1,0,0:0:0:0:
440,176,32646,1,0,0:0:0:0:
440,176,32789,2,0,L|336:176,1,100
80,184,33075,1,0,0:0:0:0:
304,52,33218,1,0,0:0:0:0:
304,336,33361,1,0,0:0:0:0:
168,44,33504,1,0,0:0:0:0:
424,152,33646,1,0,0:0:0:0:
152,316,33789,1,0,0:0:0:0:
152,216,33933,1,0,0:0:0:0:
152,216,34004,1,0,0:0:0:0:
152,216,34076,2,0,L|152:112,1,100
152,88,34289,1,0,0:0:0:0:
152,40,34361,1,0,0:0:0:0:
424,56,34503,5,0,0:0:0:0:
424,108,34575,1,0,0:0:0:0:
424,156,34646,1,0,0:0:0:0:
96,184,34789,2,0,L|96:240,2,50
184,56,35075,1,0,0:0:0:0:
344,312,35218,1,0,0:0:0:0:
348,80,35360,1,0,0:0:0:0:
376,120,35432,1,0,0:0:0:0:
380,168,35503,1,0,0:0:0:0:
84,184,35646,1,0,0:0:0:0:
124,220,35718,1,0,0:0:0:0:
172,224,35789,1,0,0:0:0:0:
216,196,35861,1,0,0:0:0:0:
256,168,35932,1,0,0:0:0:0:
304,168,36003,1,0,0:0:0:0:
352,184,36075,1,0,0:0:0:0:
396,204,36146,1,0,0:0:0:0:
144,260,36219,2,0,L|112:216,1,50
344,264,36361,2,0,L|376:208,1,50
92,152,36504,2,0,L|64:108,1,50
420,160,36647,2,0,L|448:96,1,50
48,216,36790,1,0,0:0:0:0:
80,252,36861,1,0,0:0:0:0:
120,284,36932,1,0,0:0:0:0:
164,308,37004,1,0,0:0:0:0:
212,320,37075,1,0,0:0:0:0:
452,320,37218,1,0,0:0:0:0:
380,228,37361,6,0,P|300:148|284:144,1,100
152,156,37646,2,0,L|100:196,1,50
80,252,37789,2,0,P|156:324|184:320,1,100
352,184,38075,1,0,0:0:0:0:
224,344,38218,1,0,0:0:0:0:
96,168,38361,1,0,0:0:0:0:
404,244,38504,1,0,0:0:0:0:
376,284,38575,1,0,0:0:0:0:
336,316,38646,1,0,0:0:0:0:
120,112,38790,1,0,0:0:0:0:
152,72,38861,1,0,0:0:0:0:
196,52,38932,1,0,0:0:0:0:
84,216,39075,1,0,0:0:0:0:
88,264,39146,1,0,0:0:0:0:
112,308,39218,1,0,0:0:0:0:
156,332,39289,1,0,0:0:0:0:
212,340,39361,1,0,0:0:0:0:
160,96,39504,1,0,0:0:0:0:
336,324,39646,1,0,0:0:0:0:
308,88,39789,5,0,0:0:0:0:
76,216,39932,1,0,0:0:0:0:
104,260,40003,1,0,0:0:0:0:
144,288,40075,1,0,0:0:0:0:
436,216,40217,1,0,0:0:0:0:
408,260,40289,1,0,0:0:0:0:
368,288,40360,1,0,0:0:0:0:
152,64,40504,2,0,P|132:164|140:176,1,100
172,224,40790,1,0,0:0:0:0:
360,48,40933,2,0,P|432:116|432:132,1,100
64,176,41218,1,0,0:0:0:0:
300,176,41361,1,0,0:0:0:0:
180,32,41504,1,0,0:0:0:0:
64,228,41647,2,0,P|112:308|156:316,1,100
300,176,41933,1,0,0:0:0:0:
152,208,42076,1,0,0:0:0:0:
340,336,42218,1,0,0:0:0:0:
452,44,42361,1,0,0:0:0:0:
480,232,42504,1,0,0:0:0:0:
204,260,42646,2,0,L|88:260,1,100
356,264,42932,2,0,L|460:264,1,100
272,168,43218,2,0,L|148:168,1,100
352,228,43504,2,0,L|464:228,1,100
112,64,43789,2,0,L|112:132,2,50
356,76,44075,2,0,L|400:132,1,50
196,168,44218,6,0,P|264:248|280:248,1,100
352,276,44504,1,0,0:0:0:0:
104,212,44646,2,0,L|144:176,1,50
420,156,44789,1,0,0:0:0:0:
392,88,44932,2,0,L|372:36,1,50
76,40,45075,1,0,0:0:0:0:
76,40,45218,1,0,0:0:0:0:
76,40,45289,1,0,0:0:0:0:
76,40,45361,1,0,0:0:0:0:
416,84,45504,1,0,0:0:0:0:
428,132,45576,1,0,0:0:0:0:
424,180,45647,1,0,0:0:0:0:
404,224,45719,1,0,0:0:0:0:
380,268,45790,1,0,0:0:0:0:
144,260,45861,2,0,L|100:212,1,50
376,196,46004,2,0,L|408:156,1,50
112,136,46146,2,0,L|68:88,1,50
48,224,46361,5,0,0:0:0:0:
140,296,46504,1,0,0:0:0:0:
260,280,46646,1,0,0:0:0:0:
176,136,46789,1,0,0:0:0:0:
176,136,46861,1,0,0:0:0:0:
176,136,46932,2,0,P|120:228|112:232,1,100
56,284,47218,1,0,0:0:0:0:
416,68,47361,2,0,P|456:172|472:184,1,100
180,128,47646,2,0,P|120:212|112:216,1,100
368,192,47932,2,0,P|424:284|452:296,1,100
152,264,48218,2,0,P|64:328|56:328,1,100
248,184,48504,1,0,0:0:0:0:
336,100,48646,1,0,0:0:0:0:
128,296,48789,2,0,L|256:296,1,100
448,296,49075,2,0,L|308:296,1,100
248,204,49361,2,0,L|104:204,1,100
336,208,49646,2,0,L|456:208,1,100
216,116,49932,2,0,L|112:116,1,100
308,120,50218,2,0,L|412:120,1,100
184,36,50504,1,0,0:0:0:0:
464,36,50646,1,0,0:0:0:0:
464,36,50718,1,0,0:0:0:0:
464,36,50789,1,0,0:0:0:0:
52,92,50932,6,0,L|108:196,1,100
432,252,51218,2,0,L|312:252,1,100
128,248,51504,2,0,L|248:248,1,100
428,136,51789,2,0,L|320:136,1,100
216,172,52075,2,0,L|104:172,1,100
40,292,52361,2,0,L|144:292,1,100
320,296,52646,2,0,L|420:296,1,100
96,224,52932,2,0,L|152:116,1,100
424,224,53218,2,0,L|368:116,1,100
144,280,53504,2,0,L|56:184,1,100
384,284,53789,2,0,L|460:168,1,100
88,148,54075,2,0,L|132:48,1,100
440,148,54361,2,0,L|388:40,1,100
308,344,54646,1,0,0:0:0:0:
208,44,54789,1,0,0:0:0:0:
204,344,54932,1,0,0:0:0:0:
308,48,55075,1,0,0:0:0:0:
256,192,55217,5,0,0:0:0:0:
256,192,55289,1,0,0:0:0:0:
256,192,55361,2,0,P|424:324|316:124,1,600
232,72,56361,1,0,0:0:0:0:
120,112,56504,1,0,0:0:0:0:
76,216,56646,1,0,0:0:0:0:
164,316,56789,1,0,0:0:0:0:
392,76,56932,1,0,0:0:0:0:
164,316,57075,1,0,0:0:0:0:
392,152,57361,1,0,0:0:0:0:
392,152,57504,1,0,0:0:0:0:
392,152,57646,2,0,P|392:272|332:328,1,200
224,328,58075,1,0,0:0:0:0:
140,248,58218,1,0,0:0:0:0:
192,88,58361,1,0,0:0:0:0:
236,64,58433,1,0,0:0:0:0:
284,80,58504,1,0,0:0:0:0:
372,196,58646,1,0,0:0:0:0:
332,304,58789,1,0,0:0:0:0:
72,108,58932,6,0,L|52:168,2,50
372,196,59218,1,0,0:0:0:0:
140,248,59361,1,0,0:0:0:0:
392,52,59504,2,0,L|432:108,2,50
88,68,59789,1,0,0:0:0:0:
88,68,59932,2,0,P|96:168|104:184,1,100
140,248,60218,1,0,0:0:0:0:
256,48,60361,1,0,0:0:0:0:
296,296,60504,2,0,P|412:308|416:304,1,100
460,248,60789,2,0,L|460:136,1,100
456,48,61075,2,0,P|328:72|320:80,1,100
396,324,61361,1,0,0:0:0:0:
96,220,61504,2,0,L|200:220,1,100
284,104,61789,2,0,L|392:104,1,100
96,220,62075,1,0,0:0:0:0:
96,48,62218,1,0,0:0:0:0:
432,48,62361,1,0,0:0:0:0:
432,48,62504,1,0,0:0:0:0:
104,76,62647,1,0,0:0:0:0:
92,124,62718,1,0,0:0:0:0:
100,172,62789,1,0,0:0:0:0:
380,56,62932,1,0,0:0:0:0:
144,244,63075,1,0,0:0:0:0:
432,132,63218,1,0,0:0:0:0:
444,180,63290,1,0,0:0:0:0:
432,220,63361,1,0,0:0:0:0:
312,308,63504,1,0,0:0:0:0:
432,220,63646,1,0,0:0:0:0:
172,288,63789,6,0,L|140:228,1,50
392,200,63932,2,0,L|420:152,1,50
112,176,64075,2,0,L|84:124,1,50
420,144,64217,1,0,0:0:0:0:
444,100,64289,1,0,0:0:0:0:
424,52,64361,1,0,0:0:0:0:
376,36,64432,1,0,0:0:0:0:
328,48,64504,1,0,0:0:0:0:
204,48,64646,1,0,0:0:0:0:
204,268,64789,1,0,0:0:0:0:
384,152,64932,1,0,0:0:0:0:
112,152,65075,1,0,0:0:0:0:
304,268,65218,1,0,0:0:0:0:
312,64,65361,1,0,0:0:0:0:
96,248,65504,1,0,0:0:0:0:
252,52,65647,1,0,0:0:0:0:
300,64,65718,1,0,0:0:0:0:
344,88,65790,1,0,0:0:0:0:
372,128,65861,1,0,0:0:0:0:
388,176,65933,1,0,0:0:0:0:
390,224,66004,1,0,0:0:0:0:
376,272,66075,1,0,0:0:0:0:
348,312,66147,1,0,0:0:0:0:
120,288,66218,2,0,L|84:232,1,50
376,272,66361,2,0,L|396:204,1,50
64,184,66504,2,0,L|96:120,1,50
408,164,66646,2,0,L|376:104,1,50
120,288,66789,1,0,0:0:0:0:
216,328,66932,5,0,0:0:0:0:
320,296,67075,1,0,0:0:0:0:
80,132,67218,1,0,0:0:0:0:
104,88,67289,1,0,0:0:0:0:
148,64,67361,1,0,0:0:0:0:
376,272,67504,1,0,0:0:0:0:
104,88,67646,1,0,0:0:0:0:
320,296,67789,1,0,0:0:0:0:
364,272,67861,1,0,0:0:0:0:
392,228,67932,1,0,0:0:0:0:
256,44,68075,1,0,0:0:0:0:
256,340,68218,1,0,0:0:0:0:
72,256,68361,2,0,L|32:208,1,50
128,196,68504,2,0,P|144:136|216:104,1,100
256,44,68789,1,0,0:0:0:0:
440,256,68932,2,0,L|496:192,1,50
384,196,69075,2,0,P|376:144|332:104,1,100
344,110,69361,1,0,0:0:0:0:
256,340,69504,1,0,0:0:0:0:
172,104,69646,1,0,0:0:0:0:
344,110,69789,1,0,0:0:0:0:
40,224,69932,1,0,0:0:0:0:
464,228,70075,1,0,0:0:0:0:
464,228,70218,1,0,0:0:0:0:
112,240,70504,6,0,P|216:292|320:236,1,200
388,204,70932,1,0,0:0:0:0:
424,100,71075,1,0,0:0:0:0:
112,240,71217,1,0,0:0:0:0:
112,240,71289,1,0,0:0:0:0:
112,240,71360,1,0,0:0:0:0:
372,124,71504,1,0,0:0:0:0:
112,240,71646,1,0,0:0:0:0:
336,76,71789,1,0,0:0:0:0:
364,120,71861,1,0,0:0:0:0:
372,168,71932,1,0,0:0:0:0:
112,240,72075,1,0,0:0:0:0:
448,76,72218,1,0,0:0:0:0:
192,324,72361,1,0,0:0:0:0:
160,272,72432,2,0,L|124:212,1,50
420,256,72575,2,0,L|464:208,1,50
120,204,72718,2,0,L|80:152,1,50
432,160,72861,2,0,L|480:108,1,50
84,156,73004,2,0,L|40:108,1,50
448,76,73146,2,0,L|488:28,1,50
56,100,73289,2,0,L|24:48,1,50
300,288,73432,2,0,L|336:232,1,50
356,204,73575,1,0,0:0:0:0:
380,160,73646,1,0,0:0:0:0:
412,100,73932,1,0,0:0:0:0:
452,32,74218,1,0,0:0:0:0:
412,100,74504,1,0,0:0:0:0:
376,160,74789,1,0,0:0:0:0:
208,44,74932,1,0,0:0:0:0:
308,348,75075,1,0,0:0:0:0:
424,44,75218,1,0,0:0:0:0:
76,348,75361,1,0,0:0:0:0:
300,48,75504,1,0,0:0:0:0:
208,348,75646,1,0,0:0:0:0:
204,148,75932,2,0,L|112:76,1,100
125,86,76218,1,0,0:0:0:0:
448,152,76361,1,0,0:0:0:0:
448,204,76433,1,0,0:0:0:0:
436,252,76504,1,0,0:0:0:0:
408,292,76575,1,0,0:0:0:0:
364,320,76647,1,0,0:0:0:0:
184,128,76789,1,0,0:0:0:0:
184,288,76932,1,0,0:0:0:0:
56,212,77075,1,0,0:0:0:0:
256,68,77218,1,0,0:0:0:0:
256,332,77361,1,0,0:0:0:0:
448,88,77504,2,0,L|400:128,4,50
184,264,77932,1,0,0:0:0:0:
236,88,78075,1,0,0:0:0:0:
368,192,78218,1,0,0:0:0:0:
64,168,78361,2,0,P|76:288|88:300,1,100
124,80,78646,1,0,0:0:0:0:
224,44,78789,1,0,0:0:0:0:
324,68,78932,1,0,0:0:0:0:
412,124,79075,1,0,0:0:0:0:
208,224,79218,2,0,L|60:224,1,100
260,292,79504,2,0,L|380:292,1,100
244,140,79789,2,0,L|132:140,1,100
388,68,80075,1,0,0:0:0:0:
392,232,80218,1,0,0:0:0:0:
92,148,80360,1,0,0:0:0:0:
92,148,80432,1,0,0:0:0:0:
92,148,80503,2,0,P|112:264|124:272,1,100
260,292,80789,1,0,0:0:0:0:
436,240,80933,1,0,0:0:0:0:
436,240,81004,1,0,0:0:0:0:
436,240,81076,2,0,P|432:132|416:112,1,100
256,80,81361,1,0,0:0:0:0:
180,280,81504,1,0,0:0:0:0:
180,280,81575,1,0,0:0:0:0:
180,280,81647,2,0,P|284:300|296:288,1,100
364,268,81932,1,0,0:0:0:0:
104,76,82075,2,0,L|68:160,1,50
252,132,82218,2,0,L|252:224,1,50
420,76,82361,2,0,L|440:168,1,50
252,168,82504,2,0,L|224:256,1,50
104,108,82646,2,0,L|80:164,1,50
248,208,82789,1,0,0:0:0:0:
