osu file format v9

[General]
AudioFilename: Refrain.mp3
AudioLeadIn: 0
PreviewTime: 75644
Countdown: 0
SampleSet: Soft
StackLeniency: 0.7
Mode: 0
LetterboxInBreaks: 1

[Editor]
DistanceSpacing: 1
BeatDivisor: 4
GridSize: 8

[Metadata]
Title:Refrain
Artist:Sakakibara yui
Creator:Goisuke
Version:Insane
Source:natsusora kanata
Tags:

[Difficulty]
HPDrainRate:8
CircleSize:4
OverallDifficulty:7
ApproachRate:8
SliderMultiplier:1.5
SliderTickRate:2

[Events]
//Background and Video events
0,0,"InsaneBG.jpg"
//Break Periods
2,72295,74874
2,104500,110168
2,167589,170168
2,231779,243404
//Storyboard Layer 0 (Background)
//Storyboard Layer 1 (Fail)
//Storyboard Layer 2 (Pass)
//Storyboard Layer 3 (Foreground)
//Storyboard Sound Samples
//Background Colour Transformations
3,100,163,162,255

[TimingPoints]
1507,441.176470588235,4,2,1,50,1,0

[Colours]
Combo1 : 128,255,128
Combo2 : 255,255,255
Combo3 : 255,128,255
Combo4 : 24,153,231

[HitObjects]
96,224,15624,2,0,B|272:224,1,150,0|2
304,320,16286,1,0
360,224,16506,1,0
304,128,16727,1,0
360,224,16948,1,0
304,320,17168,1,0
416,224,17389,2,0,B|240:224,1,150,0|2
208,320,18051,1,0
152,224,18271,1,0
208,128,18492,1,0
152,224,18713,1,0
208,320,18933,1,0
464,208,19154,2,0,B|464:120|384:72,1,150,0|2
200,72,20036,5,0
200,72,20146,1,0
200,72,20256,1,0
112,144,20477,2,0,B|88:224,1,75,0|0
200,72,20918,1,0
248,72,21029,1,0
296,72,21139,1,2
392,72,21359,2,0,B|392:160,2,75,8|0|8
24,96,22683,6,0,B|24:184,2,75
128,56,23345,1,2
240,64,23565,1,0
176,160,23786,1,0
104,248,24006,1,0
216,288,24448,1,0
216,288,24558,1,0
216,288,24668,2,0,B|368:288,1,150,0|2
360,176,25330,1,0
88,200,25551,1,0
288,56,25771,1,0
144,288,25992,1,0
104,120,26212,2,0,B|64:184|104:272,1,150,0|8
320,304,27095,5,0
400,144,27315,1,8
248,56,27536,1,0
88,176,27756,1,8
168,296,27977,1,0
168,296,28087,1,0
168,296,28198,2,0,B|232:248,2,75
320,184,28859,1,2
96,80,29742,5,2
96,80,29852,1,0
96,80,29962,2,0,B|96:256,1,150
224,48,30624,1,0
392,104,30845,1,0
224,192,31065,1,0
392,280,31286,1,0
224,320,31506,2,0,B|128:320|64:256,1,150,0|2
104,104,32389,5,0
104,104,32499,1,0
104,104,32609,1,0
96,216,32830,1,0
184,280,33051,1,0
256,192,33271,1,0
256,192,33381,1,0
256,192,33492,2,8,B|352:224|336:216,2,75
104,104,34154,6,8,B|16:56,2,75
336,88,35036,1,0
336,144,35146,1,0
336,200,35256,1,0
336,256,35367,1,0
336,312,35477,2,0,B|184:312,1,150,0|2
64,192,36801,5,0
64,192,36911,1,0
64,192,37021,1,0
256,64,37242,1,0
464,192,37462,1,0
256,312,37683,1,0
464,192,37904,1,0
256,64,38124,1,0
64,192,38345,1,0
256,192,38565,2,0,B|184:216|168:304,1,150,0|2
144,72,39448,5,0
144,72,39558,1,0
144,72,39668,1,0
368,72,39889,1,0
144,72,40109,1,0
368,72,40330,1,0
144,72,40551,1,0
368,72,40771,1,0
368,72,40881,1,0
368,72,40992,1,0
72,112,41212,5,8
192,200,41433,1,0
48,160,41654,1,0
192,136,41874,1,8
96,248,42095,1,0
128,104,42315,1,0
160,248,42536,1,8
80,120,42756,1,0
96,248,42977,2,0,B|248:248,1,150,0|2
416,96,43859,5,0
416,96,43970,1,0
416,96,44080,2,0,B|416:192,1,75,0|8
416,171,44521,1,0
304,168,44742,1,0
304,168,44852,1,0
304,168,44962,2,0,B|304:93,1,75,0|8
192,88,45404,2,0,B|104:88,1,75,0|8
120,200,45845,1,0
120,312,46065,2,0,B|216:312,2,75
400,280,46727,1,8
400,80,46948,1,8
88,320,47389,5,0
88,320,47499,1,0
88,320,47609,1,0
184,320,47830,1,0
184,224,48051,1,0
184,112,48271,2,0,B|280:112,2,75
376,280,48933,1,2
280,280,49154,2,0,B|192:280,2,75
128,88,50036,5,0
128,88,50146,1,0
128,88,50256,1,0
128,184,50477,2,0,B|208:184,2,75,0|0|0
120,296,51139,1,0
448,288,51359,1,8
200,144,51580,1,0
440,144,51801,2,0,B|290:144,1,150,0|2
200,144,52462,1,0
64,144,52683,2,0,B|64:240,1,75,0|8
64,219,53124,1,0
64,219,53234,1,0
64,219,53345,1,0
272,256,53565,5,0
368,256,53786,2,0,B|368:176,2,75,8|0|8
464,256,54448,1,0
368,256,54668,1,0
368,160,54889,1,8
368,256,55109,1,0
272,256,55330,2,0,B|176:256,1,75,0|2
200,160,55771,1,0
200,160,55881,1,0
200,160,55992,2,0,B|200:64,1,75,0|8
80,64,56654,5,4
80,176,56874,1,0
80,176,56984,1,0
80,176,57095,2,0,B|80:272,1,75
160,328,57536,1,0
272,328,57756,1,0
400,96,57977,2,0,B|400:192,1,75,0|2
400,171,58418,1,0
400,171,58529,1,0
400,171,58639,1,0
208,176,58859,6,0,B|208:88,1,75
112,104,59301,1,8
112,200,59521,1,0
112,296,59742,2,0,B|208:296,1,75,0|2
187,200,60183,2,0,B|91:200,2,75
192,104,60845,1,8
192,200,61065,1,8
360,96,61286,5,0
360,96,61396,1,0
360,96,61506,2,0,B|360:248,1,150,0|2
464,192,62168,1,0
320,40,62389,1,8
256,320,62609,1,0
160,40,62830,1,8
88,320,63051,1,0
32,56,63271,1,8
32,192,63492,1,0
32,192,63602,1,0
32,192,63712,2,0,B|136:192,1,75,0|2
392,248,64154,5,0
296,248,64374,1,0
200,248,64595,1,0
104,248,64815,1,0
104,152,65036,2,4,B|264:152,1,150
424,56,65918,1,0
424,56,66029,1,0
424,56,66139,1,0
360,128,66359,1,0
440,184,66580,1,0
440,280,66801,2,8,B|352:280,2,75
328,288,67462,5,0
224,240,67683,1,0
320,184,67904,1,0
224,128,68124,1,0
320,64,68345,1,0
88,184,68565,2,0,B|264:184,1,150,2|0
296,184,69117,1,0
352,184,69227,1,0
256,192,69448,12,4,72095
112,80,75624,5,0
112,136,75734,1,0
112,192,75845,2,0,B|112:288,1,75,0|2
112,312,76506,1,0
112,312,76617,1,0
112,312,76727,2,0,B|200:312,1,75,0|2
184,216,77168,2,0,B|88:216,2,75
264,216,77830,2,0,B|416:216,1,150,2|0
416,128,78492,1,0
416,128,78602,1,0
416,128,78712,1,2
352,64,78933,5,8
96,168,79154,1,0
320,272,79374,1,8
168,64,79595,1,2
192,280,79815,1,8
272,64,80036,2,0,B|352:96|352:176|336:224|272:240,1,225,0|2
240,296,80918,1,0
240,296,81029,1,0
240,296,81139,1,0
240,296,81249,1,0
240,296,81359,2,0,B|80:296,1,150,0|2
88,200,82021,5,0
88,104,82242,1,0
88,200,82462,1,0
184,200,82683,1,2
184,200,82793,1,0
184,200,82904,2,0,B|288:200,1,75,0|0
376,200,83565,2,0,B|376:104|280:104,2,150,2|0|2
280,200,84889,1,0
224,200,84999,1,0
168,200,85109,2,0,B|64:200|64:208,1,75,0|2
296,334,85551,1,0
296,334,85771,1,0
208,336,85992,1,0
208,240,86212,2,0,B|208:144,2,75,2|0|0
400,88,86874,5,0
400,88,86984,1,0
400,88,87095,2,0,B|400:184,1,75,2|0
392,272,87536,1,0
248,320,87756,1,0
120,272,87977,1,2
120,96,88198,1,0
256,32,88418,2,0,B|256:136,2,75,0|0|2
256,144,89080,1,0
256,256,89301,1,0
424,112,89742,5,2
424,112,89852,1,0
424,112,89962,2,0,B|424:200,2,75,0|8|0
208,280,90624,2,0,B|152:208|224:128,1,150,2|0
304,120,91286,1,0
304,120,91396,1,0
304,120,91506,2,0,B|360:136|376:176,1,75,2|0
136,112,91948,6,0,B|136:272,1,150,0|0
248,264,92609,1,0
136,262,92830,1,2
248,264,93051,1,0
248,152,93271,2,0,B|352:152,2,75,0|8|0
72,256,93933,1,0
72,256,94043,1,0
72,256,94154,2,0,B|72:192|112:160,1,75,0|2
184,176,94595,1,0
280,176,94815,1,0
376,176,95036,5,0
376,176,95146,1,0
376,176,95256,1,2
376,176,95367,1,0
376,176,95477,2,0,B|392:80|288:48,1,150,0|0
200,56,96139,1,2
112,128,96359,1,0
128,240,96580,1,0
128,64,96801,2,0,B|96:152|128:224,1,150,0|2
122,210,97462,5,0
208,48,97683,1,0
240,328,97904,1,0
352,64,98124,1,2
392,336,98345,1,0
480,200,98565,2,0,B|328:200,1,150,0|2
112,88,99227,5,0
112,88,99337,1,0
112,88,99448,2,0,B|112:184,1,75
120,296,99889,1,2
328,296,100109,1,0
192,168,100330,1,0
384,176,100551,1,0
224,40,100771,1,2
136,184,100992,1,0
136,184,101102,1,0
136,184,101212,2,0,B|176:112|264:128,1,150,0|2
336,56,101874,1,0
408,128,102095,1,0
344,200,102315,1,0
432,240,102536,6,0,B|384:312,1,75,2|0
296,320,102977,1,0
232,248,103198,1,0
304,176,103418,1,2
216,128,103639,1,0
288,64,103859,2,0,B|224:16|128:64,1,150,0|4
80,72,110918,5,0
80,72,111029,1,0
80,72,111139,2,0,B|80:176,2,75,0|8|0
280,264,111801,1,0
280,264,111911,1,0
280,264,112021,1,0
232,176,112242,1,0
312,224,112462,1,0
224,264,112683,2,0,B|136:240|168:128,1,150,0|2
280,144,113345,1,0
280,32,113565,1,0
224,32,113676,1,0
168,32,113786,1,0
80,104,114006,5,2
304,184,114227,1,0
184,304,114448,2,0,B|120:256|120:144,1,150,0|2
264,56,115330,2,0,B|200:48|176:64,1,75
104,104,115771,1,2
72,200,115992,1,0
160,240,116212,1,0
160,240,116323,1,0
160,240,116433,1,0
160,240,116543,1,0
160,240,116654,2,0,B|320:240,1,150,2|0
424,240,117315,1,0
424,128,117536,1,2
312,128,117756,1,0
200,136,117977,5,0
200,136,118087,1,0
200,136,118198,2,0,B|200:232,1,75,0|2
416,264,118639,1,0
416,264,118749,1,0
416,264,118859,2,0,B|328:264,1,75,0|0
128,264,119301,2,0,B|208:264,1,75,2|0
320,264,119742,1,0
320,168,119962,2,0,B|320:88,2,75,0|2|0
320,264,120624,2,0,B|216:264,2,75,0|0|2
320,136,121506,5,0
320,136,121617,1,0
320,136,121727,2,0,B|224:136,1,75,0|2
224,32,122389,1,0
224,32,122499,1,0
224,32,122609,1,0
224,32,122720,1,0
224,32,122830,2,0,B|224:200,1,150,2|0
224,182,123492,1,0
224,272,123712,2,8,B|328:272|304:272,1,75
400,272,124154,1,4
400,216,124264,1,0
400,160,124374,1,0
400,104,124484,1,0
400,48,124595,1,0
72,64,125036,6,0,B|72:168,2,75,2|0|0
72,304,125918,1,2
72,304,126029,1,0
72,304,126139,1,0
232,152,126359,1,0
40,240,126580,1,0
272,232,126801,1,2
56,160,127021,1,0
224,304,127242,2,0,B|320:320|368:248,1,150,0|2
192,64,127904,1,0
248,64,128014,1,0
288,64,128124,1,0
480,64,128565,6,0,B|480:224,1,150,2|0
480,216,129448,1,2
480,216,129558,1,0
480,216,129668,1,0
368,328,129889,1,0
288,120,130109,1,0
176,320,130330,1,2
144,280,130440,1,0
128,224,130551,1,0
136,168,130661,1,0
152,112,130771,2,0,B|336:112,1,150,0|2
416,88,131433,1,0
352,184,131654,1,0
432,264,131874,1,0
168,48,132095,5,2
168,48,132205,1,0
168,48,132315,1,0
256,120,132536,1,0
152,152,132756,1,0
240,216,132977,1,2
336,152,133198,1,0
344,48,133418,1,0
344,48,133528,1,0
344,48,133638,1,0
264,104,133859,1,2
360,128,134079,5,0
280,192,134301,2,0,B|280:296,2,75,0|0|2
280,192,134962,1,0
280,192,135073,1,0
280,192,135183,1,0
168,192,135404,1,0
56,192,135624,2,0,B|56:105|153:105,1,150,2|0
80,136,136506,5,2
80,192,136617,1,0
96,248,136727,1,0
136,288,136837,1,0
184,320,136948,1,0
240,328,137058,1,0
296,320,137168,1,0
344,296,137279,1,0
384,256,137389,1,2
408,208,137499,1,0
408,152,137609,2,0,B|408:104|344:96,1,75
72,80,139154,5,0
72,80,139264,1,0
72,80,139374,1,0
160,152,139595,1,2
72,224,139815,1,0
152,304,140036,2,0,B|248:304,2,75,0|0|2
392,296,140698,2,0,B|392:216,1,75
280,224,141139,2,0,B|280:299,1,75,0|2
144,296,141580,1,0
144,184,141801,5,0
144,184,141911,1,0
144,184,142021,2,0,B|144:88,2,75,0|2|0
256,184,142683,1,0
312,184,142793,1,0
368,184,142904,1,0
424,184,143014,1,0
480,184,143124,1,2
232,80,143565,5,0
232,80,143676,1,0
232,80,143786,1,0
360,288,144006,1,2
168,144,144227,1,0
400,184,144448,1,0
176,280,144668,1,0
336,72,144889,2,0,B|248:56|184:120,1,150,2|0
80,96,145551,1,0
80,152,145661,1,0
80,208,145771,1,2
272,88,146212,6,0,B|272:176,1,75,0|0
272,280,146654,1,2
160,280,146874,1,0
160,168,147095,2,0,B|72:176|72:288,1,150,0|2
72,272,147756,1,0
160,280,147977,1,0
160,280,148087,1,0
160,280,148198,1,0
112,192,148418,1,2
176,120,148639,1,0
272,88,148859,1,0
368,88,149080,1,0
464,88,149301,2,0,B|464:256,1,150,2|0
272,256,149962,5,0
272,256,150073,1,0
272,256,150183,2,0,B|272:160,1,75,2|0
272,80,150624,1,0
272,80,150734,1,0
272,80,150845,1,0
160,80,151065,1,2
272,80,151286,1,0
160,80,151506,1,0
272,80,151727,1,0
160,80,151948,2,0,B|64:96|64:200,1,150,2|0
64,288,152609,1,4
368,128,153271,6,0,B|368:232|368:304,1,150
368,278,153933,1,0
288,280,154154,1,2
288,280,154264,1,0
288,280,154374,1,0
288,168,154595,1,0
288,56,154815,1,0
176,56,155036,2,0,B|176:224,1,150,2|8
176,304,155918,6,0,B|264:304,1,75,2|0
360,264,156359,1,0
368,48,156580,1,0
256,224,156801,1,2
456,112,157021,1,0
296,112,157242,2,0,B|224:152|224:240,1,150,0|2
248,328,157904,1,0
160,296,158124,1,0
136,200,158345,1,0
152,104,158565,2,0,B|304:104,1,150,2|0
302,104,159227,1,0
320,224,159448,5,2
320,224,159558,1,0
320,224,159668,2,8,B|232:224,2,75
112,88,160330,2,0,B|112:192,1,75,2|0
112,163,160771,1,0
112,248,161212,1,2
112,248,161323,1,0
112,248,161433,1,0
296,224,161654,1,0
128,320,161874,1,0
272,160,162095,1,2
192,336,162315,1,0
200,160,162536,2,0,B|200:64|288:48,1,150,0|2
384,88,163198,2,8,B|480:88,1,75
432,312,163859,5,2
376,312,163970,1,0
320,312,164080,1,0
264,312,164190,1,0
208,312,164301,1,0
256,192,164742,12,2,167389
408,48,170918,5,0
408,104,171029,1,0
408,160,171139,2,0,B|408:256,1,75,0|2
408,236,171801,1,0
408,236,171911,1,0
408,236,172021,1,0
296,232,172242,1,2
184,232,172462,1,0
296,232,172683,1,0
296,120,172904,1,0
296,232,173124,2,0,B|304:328|192:320,1,150,2|0
112,312,173786,2,0,B|112:224,1,75,0|2
64,160,174448,5,0
96,112,174558,1,0
136,80,174668,1,0
184,56,174779,1,0
240,56,174889,1,2
296,56,174999,1,0
344,80,175109,1,0
392,112,175220,1,0
432,152,175330,2,0,B|376:216|312:264,1,150,0|2
96,256,176212,5,8
136,296,176323,1,0
192,312,176433,1,0
248,296,176543,1,0
296,272,176654,2,0,B|296:112,1,150,0|2
128,48,177756,5,0
128,48,177867,1,0
128,48,177977,2,0,B|72:120|72:200,1,150,2|0
80,296,178639,1,0
176,232,178859,1,2
240,328,179080,1,0
328,256,179301,2,0,B|416:208|400:120,1,150,0|2
192,96,180183,5,0
192,96,180293,1,0
192,96,180404,1,0
192,208,180624,1,2
192,320,180845,1,0
304,320,181065,1,0
304,208,181286,1,0
304,96,181506,2,0,B|392:96|392:224,1,150,2|0
472,64,182389,5,2
472,120,182499,1,0
456,176,182609,1,0
424,224,182720,1,0
376,256,182830,1,0
328,288,182940,1,0
272,304,183051,1,0
216,304,183161,1,0
160,288,183271,1,2
120,248,183381,1,0
88,200,183492,1,0
72,144,183602,1,0
64,88,183712,1,0
416,304,185036,5,2
416,304,185147,1,0
416,304,185257,2,0,B|416:208,2,75
408,64,185918,1,2
408,64,186029,1,0
408,64,186139,2,0,B|336:64|312:64,1,75
336,160,186580,1,0
336,256,186801,1,2
336,160,187021,1,0
336,64,187242,2,0,B|248:72|248:176,1,150,0|2
240,256,188124,6,0,B|160:256,1,75,0|0
168,160,188565,1,2
168,64,188786,1,0
168,160,189006,1,0
168,256,189227,1,0
264,256,189448,2,0,B|264:80,1,150,2|0
472,104,190330,5,2
424,80,190440,1,0
368,72,190551,1,0
312,80,190661,1,0
256,96,190771,2,0,B|168:128|184:240,1,150,0|2
120,88,192095,1,2
120,88,192205,1,0
120,88,192315,2,0,B|120:184,1,75
120,248,192756,2,0,B|120:336,1,75,0|2
216,328,193198,1,0
312,328,193418,1,0
408,328,193639,1,0
408,232,193859,2,0,B|400:136|304:144,1,150,2|0
120,112,194742,6,0,B|120:216,1,75,2|0
216,184,195183,2,0,B|216:109,1,75
312,112,195624,1,2
400,144,195845,1,0
448,232,196065,1,0
448,328,196286,1,0
352,328,196506,2,0,B|168:328,1,150,2|0
200,232,197168,1,0
200,136,197389,1,2
200,232,197609,1,0
296,232,197830,2,0,B|296:152|192:136,1,150,0|4
80,96,200256,6,0,B|136:168,1,75,0|8
192,80,200698,1,0
216,136,200808,1,0
240,184,200918,1,0
280,88,201139,1,0
328,192,201359,2,0,B|432:192|416:304,1,150,8|0
417,284,202021,1,0
200,72,202242,1,8
200,128,202352,1,0
200,184,202462,1,0
200,240,202573,1,0
200,296,202683,1,0
408,88,203345,5,0
408,88,203455,1,0
408,88,203565,2,0,B|408:176,2,75,0|0|8
320,160,204448,2,0,B|320:72,2,75,0|0|8
104,88,205330,1,0
216,96,205551,1,0
136,176,205771,1,8
248,200,205992,1,0
168,280,206212,1,0
280,304,206433,1,0
384,272,206654,1,8
416,160,206874,1,0
256,192,207095,12,0,208418
256,112,208639,1,0
256,112,208749,1,0
256,112,208859,2,0,B|256:216,2,75,0|0|8
144,112,209521,2,0,B|80:176,1,75
368,112,209962,2,0,B|432:176,1,75,0|8
64,64,210624,1,0
64,80,210734,1,0
64,96,210845,1,0
64,112,210955,1,0
64,128,211065,1,8
64,144,211176,1,0
64,160,211286,1,0
72,176,211396,1,0
80,192,211506,1,0
96,208,211617,1,0
112,216,211727,1,0
128,224,211837,1,0
144,232,211948,1,8
160,240,212058,1,0
176,248,212168,1,0
192,256,212279,1,0
208,256,212389,2,0,B|288:256,1,75
272,112,212830,2,0,B|320:48,1,75,8|0
432,48,213271,5,0
432,64,213381,1,0
432,80,213492,1,0
432,96,213602,1,0
432,112,213712,1,8
432,128,213823,1,0
432,144,213933,1,0
432,160,214043,1,0
432,176,214154,2,0,B|432:256,1,75,0|0
176,288,214595,2,0,B|352:288,1,150,8|0
336,192,215256,6,0,B|248:192,2,75,0|8|0
336,96,215918,2,0,B|248:96,1,75
168,96,216359,2,0,B|168:264,1,150,8|0
40,88,217683,2,0,B|120:88,1,75,8|0
120,184,218124,2,0,B|208:184,1,75
192,280,218565,1,8
304,280,218786,2,0,B|272:256|272:256|323:241|323:241|294:212|294:212|342:206|342:206|311:158|311:158,1,225,0|4
256,192,219668,12,0,220771
464,80,221212,6,0,B|440:160,1,75,8|0
442,151,221654,2,0,B|376:208,1,75,0|0
385,200,222095,2,0,B|304:240,1,75,8|0
317,233,222536,2,0,B|240:256,1,75
245,254,222977,2,0,B|152:240,1,75,8|0
171,242,223418,2,0,B|96:208,1,75
104,216,223859,2,0,B|72:136,1,75,8|0
160,72,224742,5,8
160,88,224852,1,0
160,104,224962,1,0
160,120,225073,1,0
160,136,225183,1,0
160,152,225293,1,0
168,168,225404,1,0
176,184,225514,1,0
184,200,225624,1,8
192,216,225734,1,0
200,232,225845,1,0
208,248,225955,1,0
224,256,226065,2,0,B|400:256,1,150,4|8
374,256,226617,5,0
376,240,226727,1,0
376,224,226837,1,0
376,208,226948,1,0
376,192,227058,1,0
376,176,227168,1,0
376,160,227279,1,0
376,144,227389,1,8
376,128,227499,1,0
376,112,227609,1,0
376,96,227720,1,0
376,80,227830,2,0,B|352:40|304:32,1,75
128,96,228271,6,0,B|160:144,3,37.5,8|0|0|0
148,127,228712,2,0,B|128:168,3,37.5
131,160,229154,2,0,B|240:280,1,150,8|4
208,48,230036,5,8
208,64,230146,1,0
208,80,230256,1,0
208,96,230367,1,0
208,112,230477,1,0
208,128,230587,1,0
208,144,230698,1,0
208,160,230808,1,0
208,176,230918,2,0,B|184:192|184:192|224:208|224:208|184:224|184:224|256:240|184:256|184:256|224:272|224:272,1,225,8|4
88,80,244154,6,0,B|88:176,1,75,2|0
184,152,244595,2,0,B|184:64,1,75
296,48,245036,1,2
392,104,245256,1,0
392,216,245477,1,0
304,288,245698,1,0
192,288,245918,1,2
184,48,246139,5,0
88,112,246359,1,0
96,224,246580,1,0
192,288,246801,1,2
248,280,246911,1,0
296,248,247021,1,0
328,200,247131,1,0
328,144,247242,2,4,B|336:64|216:48,1,150,4|2
416,184,248124,2,0,B|416:288,1,75,0|0
320,256,248565,1,2
128,232,249006,6,0,B|128:128|176:96,1,150,0|2
176,95,249668,1,8
176,95,249889,1,8
368,88,250330,1,2
368,88,250440,1,0
368,88,250551,2,0,B|368:192,1,75
256,230,251212,2,0,B|256:136,2,75,2|0|0
88,80,252095,1,2
88,136,252205,1,0
104,192,252315,1,0
128,240,252426,1,0
176,264,252536,2,0,B|336:264,1,150,0|2
432,272,253859,6,0,B|432:112,1,150,2|0
432,120,254742,1,2
432,120,254852,1,0
432,120,254962,1,0
336,120,255183,1,0
240,120,255404,1,0
240,216,255624,2,0,B|136:200|144:112,1,150,2|0
336,48,256506,6,0,B|384:64|408:112,1,75,2|0
376,288,256948,1,0
264,72,257168,1,0
216,296,257389,1,2
128,72,257609,1,0
72,296,257830,1,0
352,56,258271,1,2
144,248,258492,1,0
408,144,258712,1,0
104,136,258933,1,0
368,264,259154,1,2
160,48,259374,1,0
256,152,259595,2,0,B|216:240|128:264,1,150,0|2
320,80,260918,5,2
320,80,261029,1,0
320,80,261139,2,0,B|416:80,1,75
472,80,261801,1,2
472,80,261911,1,0
472,80,262021,2,0,B|472:184,1,75
472,256,262462,1,0
376,256,262683,1,2
272,256,263124,6,0,B|272:160,2,75,0|0|2
272,106,263786,1,0
272,106,264006,2,0,B|112:104,1,150,0|2
272,176,264668,1,0
120,216,264889,1,0
272,248,265109,1,0
120,312,265330,2,0,B|288:312,1,150,2|0
384,56,266212,5,2
408,104,266323,1,0
432,152,266433,1,0
456,208,266543,1,0
472,264,266654,2,0,B|424:320|312:328,1,150,0|2
72,64,267977,1,2
72,64,268087,1,0
72,64,268198,2,0,B|72:144,2,75
72,144,268859,1,2
176,88,269080,1,0
160,200,269301,1,0
264,144,269521,1,0
272,248,269742,2,0,B|352:248|416:192,1,150,2|0
80,80,270624,6,0,B|80:168,1,75,2|0
176,152,271065,2,0,B|176:248,1,75
408,128,271506,1,2
376,216,271727,1,0
304,256,271948,2,0,B|152:256,1,150,0|2
256,192,272609,12,4,274154
112,80,275036,5,2
112,80,275146,1,0
112,80,275256,2,0,B|112:176,1,75
360,112,275918,1,2
112,248,276139,1,0
392,264,276359,1,0
168,72,276580,1,0
336,328,276801,1,2
320,64,277021,1,0
160,184,277242,2,0,B|160:344,1,150,0|2
64,312,278124,6,0,B|64:232,1,75
160,240,278565,2,0,B|160:320,1,75,2|0
264,312,279006,1,0
360,312,279227,1,0
432,248,279448,2,0,B|480:168|432:80,1,150,2|0
64,88,280330,1,2
80,144,280440,1,0
112,192,280551,1,0
152,224,280661,1,0
200,256,280771,2,0,B|248:304|344:288,1,150,0|2
360,288,282095,6,0,B|384:208|352:120,1,150,2|0
160,136,282977,2,0,B|144:216|168:312,1,150,2|0
258,194,283859,1,2
255,41,284080,1,0
257,194,284301,1,0
104,192,284521,1,0
256,192,284742,1,2
256,344,284962,1,0
256,192,285183,1,0
408,192,285404,1,0
256,192,285624,2,0,B|256:40,1,150,2|0
256,192,286506,12,4,289154
