osu file format v12

[General]
AudioFilename: Tokitsukasadoru Juuni no Meiyaku (TV Size).mp3
AudioLeadIn: 1750
PreviewTime: 40083
Countdown: 0
SampleSet: None
StackLeniency: 0.7
Mode: 0
LetterboxInBreaks: 0
WidescreenStoryboard: 1

[Editor]
DistanceSpacing: 1.78
BeatDivisor: 1
GridSize: 4

[Metadata]
Title:Toki Tsukasodoru Juuni no Meiyaku (TV Size)
TitleUnicode:刻司ル十二ノ盟約 (TV Size)
Artist:Sakakibara Yui
ArtistUnicode:榊原ゆい
Creator:Pagno
Version:Normal
Source:Steins;Gate
Tags:ending FES PHANTASM Kishimoto Ayase
BeatmapID:340305
BeatmapSetID:135887

[Difficulty]
HPDrainRate:4
CircleSize:3
OverallDifficulty:5
ApproachRate:6
SliderMultiplier:1.5
SliderTickRate:1

[Events]
//Background and Video events
0,0,"bg.jpg",0,0
//Break Periods
//Storyboard Layer 0 (Background)
//Storyboard Layer 1 (Fail)
//Storyboard Layer 2 (Pass)
//Storyboard Layer 3 (Foreground)
//Storyboard Sound Samples
//Background Colour Transformations
3,100,163,162,255

[TimingPoints]
639,555.555555555556,4,3,0,50,1,0
2861,-100,4,3,0,40,0,0
3139,-100,4,3,0,50,0,0
7305,-100,4,3,0,40,0,0
7583,-100,4,3,0,50,0,0
27305,-95.2380952380952,4,3,0,50,0,0
40639,-95.2380952380952,4,3,0,50,0,0
43416,-95.2380952380952,4,3,2,50,0,0
43694,-95.2380952380952,4,3,0,50,0,0
44250,-95.2380952380952,4,3,3,50,0,0
44805,-95.2380952380952,4,3,4,50,0,0
45083,-90.9090909090909,4,3,2,70,0,1
45222,-90.9090909090909,4,3,2,55,0,1
69527,-90.9090909090909,4,3,2,65,0,1
69666,-90.9090909090909,4,3,2,55,0,1
78416,-95.2380952380952,4,3,2,65,0,0
78486,-95.2380952380952,4,3,0,10,0,0
80639,-95.2380952380952,4,3,0,50,0,0
85500,-90.9090909090909,4,3,0,40,0,0
85916,-90.9090909090909,4,3,0,30,0,0
86333,-90.9090909090909,4,3,0,10,0,0

[Colours]
Combo1 : 197,145,255
Combo2 : 140,142,244
Combo3 : 147,201,255
Combo4 : 113,131,255
Combo5 : 125,184,255

[HitObjects]
104,52,639,2,0,B|136:20|180:40|180:40|196:96|252:112,1,150,4|2,0:0|0:0,0:0:0:0:
376,184,1750,2,0,B|425:222|425:222|472:259|460:312,1,150,2|2,0:0|0:0,0:0:0:0:
372,300,2583,1,2,0:0:0:0:
284,304,2861,6,0,B|160:312|160:312|128:268,1,150,4|2,0:0|0:0,0:0:0:0:
92,120,3972,2,0,B|144:112|144:112|176:160|240:156,1,150,2|2,0:0|0:0,0:0:0:0:
316,156,4805,1,2,0:0:0:0:
408,152,5083,6,0,B|416:192|380:228|380:228|364:276|416:344,1,150,4|2,0:0|0:0,0:0:0:0:
316,156,6194,2,0,B|268:136|260:80|260:80|240:48|184:60,1,150,2|2,0:0|0:0,0:0:0:0:
136,100,7027,1,2,0:0:0:0:
56,56,7305,6,0,B|32:104|60:152|60:152|108:176|128:244,1,150,4|2,0:0|0:0,0:0:0:0:
200,332,8416,1,2,0:0:0:0:
372,276,8972,1,2,0:0:0:0:
432,108,9527,6,0,B|400:56|324:56|324:56|292:40|296:4,1,150,4|2,0:0|0:0,0:0:0:0:
316,224,10639,2,0,P|244:243|136:184,1,150,0|2,0:0|0:0,0:0:0:0:
124,144,11472,1,0,0:0:0:0:
176,72,11750,2,0,P|248:56|340:84,2,150,4|2|2,0:0|0:0|0:0,0:0:0:0:
244,240,13416,1,2,0:0:0:0:
404,324,13972,6,0,B|440:272|424:204|424:204|436:132,1,150,4|2,0:0|0:0,0:0:0:0:
320,36,15083,2,0,B|286:106|286:106|281:110|281:110|224:228,1,150,2|0,0:0|0:0,0:0:0:0:
184,228,15916,1,0,0:0:0:0:
116,168,16194,2,0,B|72:76|72:76|24:44,2,150,4|2|0,0:0|0:0|0:0,0:0:0:0:
184,336,17861,1,2,0:0:0:0:
304,204,18416,6,0,B|329:178|322:134|318:113|318:113|315:88|336:56,1,150,4|2,0:0|0:0,0:0:0:0:
188,148,19527,2,0,B|120:128|120:128|60:136|48:248,1,150,0|2,0:0|0:0,0:0:0:0:
112,252,20361,1,0,0:0:0:0:
164,328,20639,2,0,B|232:348|232:348|292:340|304:228,1,150,4|2,0:0|0:0,0:0:0:0:
392,152,21750,6,0,B|352:120|292:120|292:120|248:120|228:56,1,150
164,124,22583,1,0,0:0:0:0:
76,144,22861,2,0,P|116:200|224:192,1,150,4|2,0:0|0:0,0:0:0:0:
372,184,23972,6,0,B|404:168|404:168|441:60,2,150,0|2|4,0:0|0:0|0:0,0:0:0:0:
288,152,25361,1,0,0:0:0:0:
228,220,25639,2,0,B|196:220|172:264|172:264|144:300|68:280,2,150,2|0|2,0:0|0:0|0:0,0:0:0:0:
256,304,27027,1,2,0:0:0:0:
344,340,27305,6,0,B|360:308|350:276|338:252|338:252|332:185|396:169,1,157.499995193482,4|2,0:0|0:0,0:0:0:0:
236,68,28416,2,0,B|200:92|188:136|188:136|184:212|104:208,1,157.499995193482,0|2,0:0|0:0,0:0:0:0:
108,268,29250,1,2,0:0:0:0:
156,340,29527,2,0,B|190:321|195:280|195:280|232:268|248:236|276:164,1,157.499995193482,4|2,0:0|0:0,0:0:0:0:
380,108,30639,6,0,B|329:111|329:111|289:85|248:80|192:104,1,157.499995193482,2|0,0:0|0:0,0:0:0:0:
160,144,31472,1,0,0:0:0:0:
168,232,31750,2,0,B|170:255|198:285|243:302|243:302|270:345,1,157.499995193482,4|2,0:0|0:0,0:0:0:0:
284,172,32861,2,0,P|244:116|120:92,1,157.499995193482,0|2,0:0|0:0,0:0:0:0:
96,144,33694,1,0,0:0:0:0:
48,216,33972,6,0,B|94:244|144:215|144:215|184:224|220:304,1,157.499995193482,4|2,0:0|0:0,0:0:0:0:
236,112,35083,2,0,B|190:140|140:111|140:111|100:120|64:200,1,157.499995193482,0|2,0:0|0:0,0:0:0:0:
48,216,35916,1,2,0:0:0:0:
112,276,36194,6,0,B|184:296|236:268|236:268|268:256|332:292,1,157.499995193482,4|2,0:0|0:0,0:0:0:0:
168,124,37305,2,0,P|236:72|340:112,2,157.499995193482,0|2|4,0:0|0:0|0:0,0:0:0:0:
180,208,38694,1,4,0:0:0:0:
192,292,38972,2,0,P|248:260|236:144,2,157.499995193482,2|2|0,0:0|0:0|0:0,0:0:0:0:
180,208,40361,1,0,0:0:0:0:
176,120,40639,6,0,B|254:116|254:116|255:111|255:111|260:116|260:116|352:112,1,157.499995193482,4|2,0:2|0:0,0:0:0:0:
412,104,41472,1,0,0:0:0:0:
488,148,41750,2,0,B|463:192|407:194|407:194|372:204|356:292,2,157.499995193482,2|2|4,0:0|0:0|0:0,0:0:0:0:
412,104,43139,1,4,0:0:0:0:
332,68,43416,6,0,P|288:48|208:48,1,78.7499975967408,8|4,0:0|0:0,0:0:0:0:
172,44,43972,1,2,0:0:0:0:
88,68,44250,2,0,P|48:92|8:184,2,78.7499975967408,8|8|12,0:0|0:0|0:0,0:0:0:0:
172,44,45083,6,0,B|184:88|155:126|155:126|132:180|148:240,2,165.000005035401,12|2|2,0:0|0:0|0:0,0:0:0:0:
264,52,46472,1,2,0:0:0:0:
348,92,46750,1,2,0:0:0:0:
384,176,47027,1,2,0:0:0:0:
396,268,47305,6,0,P|328:248|304:128,2,165.000005035401,4|2|2,0:0|0:0|0:0,0:0:0:0:
384,176,48694,1,0,0:0:0:0:
340,96,48972,1,2,0:0:0:0:
256,64,49250,1,2,0:0:0:0:
164,56,49527,6,0,P|80:68|16:180,2,165.000005035401,12|2|0,0:0|0:0|0:0,0:0:0:0:
232,116,50916,1,2,0:0:0:0:
300,56,51194,1,2,0:0:0:0:
356,128,51472,1,2,0:0:0:0:
424,68,51750,6,0,B|460:123|440:164|423:187|423:187|452:256,1,165.000005035401,12|0,0:0|0:0,0:0:0:0:
264,272,52861,2,0,B|250:237|250:237|221:232|179:217|159:147,1,165.000005035401,0|2,0:0|0:0,0:0:0:0:
256,144,53694,1,2,0:0:0:0:
344,168,53972,6,0,L|400:340,2,165.000005035401,12|0|0,0:0|0:0|0:0,0:0:0:0:
256,144,55361,1,2,0:0:0:0:
176,188,55639,1,2,0:0:0:0:
148,272,55916,1,2,0:0:0:0:
68,312,56194,6,0,B|44:252|84:208|84:208|76:168|100:124,1,165.000005035401,12|2,0:0|0:0,0:0:0:0:
220,32,57305,2,0,B|260:60|268:100|268:100|296:176|400:160,1,165.000005035401,2|2,0:0|0:0,0:0:0:0:
400,200,58139,1,2,0:0:0:0:
328,256,58416,6,0,B|304:268|260:272|260:272|200:268|132:332,2,165.000005035401,12|0|0,0:0|0:0|0:0,0:0:0:0:
400,200,59805,1,2,0:0:0:0:
336,132,60083,1,2,0:0:0:0:
248,104,60361,1,2,0:0:0:0:
156,100,60639,6,0,P|80:120|-4:224,1,165.000005035401,12|0,0:0|0:0,0:0:0:0:
168,276,61750,2,0,P|244:256|328:152,1,165.000005035401,4|0,0:0|0:0,0:0:0:0:
352,120,62583,1,2,0:0:0:0:
408,47,62861,6,0,B|411:81|411:81|431:111|417:148|417:148|424:212,2,165.000005035401,12|6|2,0:0|0:0|0:0,0:0:0:0:
256,144,64527,1,2,0:0:0:0:
424,212,65083,2,0,P|364:296|260:328,2,165.000005035401,14|4|2,0:0|0:0|0:0,0:0:0:0:
256,144,66750,1,2,0:0:0:0:
76,108,67305,6,0,P|68:160|140:280,1,165.000005035401,14|2,0:0|0:0,0:0:0:0:
192,216,68139,1,2,0:0:0:0:
260,272,68416,2,0,P|302:240|336:105,1,165.000005035401,2|0,0:0|0:0,0:0:0:0:
424,104,69250,1,2,0:0:0:0:
484,36,69527,6,0,B|453:38|453:38|437:34|415:27|393:38|379:47|379:47|296:56,1,165.000005035401,12|2,0:0|0:0,0:0:0:0:
236,60,70361,1,0,0:0:0:0:
145,66,70639,2,0,B|148:100|167:142|226:153|226:153|272:224,1,165.000005035401,2|0,0:0|0:0,0:0:0:0:
280,260,71472,1,2,0:0:0:0:
320,340,71750,6,0,B|364:328|372:272|372:272|380:224|416:184,2,165.000005035401,12|2|0,0:0|0:0|0:0,0:0:0:0:
280,260,73139,1,0,0:0:0:0:
204,212,73416,1,0,0:0:0:0:
124,256,73694,1,2,0:0:0:0:
68,328,73972,6,0,P|157:339|214:258,2,165.000005035401,12|2|0,0:0|0:0|0:0,0:0:0:0:
124,256,75361,1,0,0:0:0:0:
160,172,75639,1,2,0:0:0:0:
224,108,75916,1,2,0:0:0:0:
312,92,76194,6,0,P|368:104|392:232,1,165.000005035401,14|0,0:0|0:0,0:0:0:0:
412,288,77027,2,0,P|356:276|332:148,1,165.000005035401,12|0,0:0|0:0,0:0:0:0:
312,92,77861,1,0,0:0:0:0:
232,48,78139,1,2,0:0:0:0:
156,88,78416,1,14,0:0:0:0:
256,192,78555,12,4,80639,0:0:0:0:
176,176,81194,6,0,P|193:242|303:258,2,157.499995193482,2|0|2,0:0|0:0|0:0,0:0:0:0:
253,39,82861,2,0,P|272:115|256:192,2,157.499995193482,4|2|2,0:0|0:0|0:0,0:0:0:0:
100,120,84527,1,2,0:0:0:0:
212,252,85083,1,2,0:0:0:0:
256,192,85222,12,0,87861,0:0:0:0:
