osu file format v12

[General]
AudioFilename: Tokitsukasadoru Juuni no Meiyaku (TV Size).mp3
AudioLeadIn: 1750
PreviewTime: 40083
Countdown: 0
SampleSet: None
StackLeniency: 0.7
Mode: 0
LetterboxInBreaks: 0
WidescreenStoryboard: 1

[Editor]
DistanceSpacing: 1.78
BeatDivisor: 4
GridSize: 4

[Metadata]
Title:Toki Tsukasodoru Juuni no Meiyaku (TV Size)
TitleUnicode:刻司ル十二ノ盟約 (TV Size)
Artist:Sakakibara Yui
ArtistUnicode:榊原ゆい
Creator:Pagno
Version:Hard
Source:Steins;Gate
Tags:ending FES PHANTASM Kishimoto Ayase
BeatmapID:340303
BeatmapSetID:135887

[Difficulty]
HPDrainRate:5
CircleSize:4
OverallDifficulty:6
ApproachRate:8
SliderMultiplier:1.8
SliderTickRate:1

[Events]
//Background and Video events
0,0,"bg.jpg",0,0
//Break Periods
//Storyboard Layer 0 (Background)
//Storyboard Layer 1 (Fail)
//Storyboard Layer 2 (Pass)
//Storyboard Layer 3 (Foreground)
//Storyboard Sound Samples
//Background Colour Transformations
3,100,163,162,255

[TimingPoints]
639,555.555555555556,4,3,0,50,1,0
2861,-100,4,3,1,40,0,0
3139,-100,4,3,1,50,0,0
7305,-100,4,3,1,40,0,0
7583,-100,4,3,1,50,0,0
8972,-100,4,3,1,40,0,0
9527,-100,4,3,1,50,0,0
10222,-100,4,3,1,30,0,0
10361,-100,4,3,1,50,0,0
11750,-100,4,3,1,40,0,0
12305,-100,4,3,1,50,0,0
12444,-100,4,3,1,30,0,0
12583,-100,4,3,1,50,0,0
14666,-100,4,3,1,30,0,0
14805,-100,4,3,1,50,0,0
18139,-100,4,3,1,40,0,0
18416,-100,4,3,1,50,0,0
19111,-100,4,3,1,30,0,0
19250,-100,4,3,1,50,0,0
23555,-100,4,3,1,30,0,0
23694,-100,4,3,1,50,0,0
27305,-90.9090909090909,4,3,1,50,0,0
28000,-90.9090909090909,4,3,1,30,0,0
28139,-90.9090909090909,4,3,1,50,0,0
32444,-90.9090909090909,4,3,1,30,0,0
32583,-90.9090909090909,4,3,1,50,0,0
34666,-90.9090909090909,4,3,1,30,0,0
34805,-90.9090909090909,4,3,1,50,0,0
36889,-90.9090909090909,4,3,1,30,0,0
37027,-90.9090909090909,4,3,1,50,0,0
40639,-86.9565217391304,4,3,1,50,0,0
41194,-86.9565217391304,4,3,1,65,0,0
41472,-86.9565217391304,4,3,1,30,0,0
41750,-86.9565217391304,4,3,1,50,0,0
42305,-86.9565217391304,4,3,2,50,0,0
42444,-86.9565217391304,4,3,1,50,0,0
42861,-86.9565217391304,4,3,2,50,0,0
43000,-86.9565217391304,4,3,1,50,0,0
43416,-86.9565217391304,4,3,2,60,0,0
43555,-86.9565217391304,4,3,1,50,0,0
44111,-86.9565217391304,4,3,3,50,0,0
44805,-86.9565217391304,4,3,4,55,0,0
45083,-76.9230769230769,4,3,2,70,0,1
45222,-76.9230769230769,4,3,2,55,0,1
47722,-76.9230769230769,4,3,2,40,0,1
47861,-76.9230769230769,4,3,2,55,0,1
52930,-76.9230769230769,4,3,2,45,0,1
53416,-76.9230769230769,4,3,2,55,0,1
69527,-76.9230769230769,4,3,2,65,0,1
69666,-76.9230769230769,4,3,2,55,0,1
78416,-90.9090909090909,4,3,2,65,0,0
78486,-90.9090909090909,4,3,1,10,0,0
80639,-90.9090909090909,4,3,1,50,0,0
85500,-90.9090909090909,4,3,1,40,0,0
85916,-90.9090909090909,4,3,1,30,0,0
86333,-90.9090909090909,4,3,1,10,0,0
86472,-90.9090909090909,4,3,1,30,0,0
87583,-90.9090909090909,4,3,1,20,0,0
87861,-90.9090909090909,4,3,1,10,0,0

[Colours]
Combo1 : 197,145,255
Combo2 : 140,142,244
Combo3 : 147,201,255
Combo4 : 113,131,255
Combo5 : 125,184,255

[HitObjects]
108,104,639,2,0,P|156:120|200:204,1,135,4|0,0:0|0:0,0:0:0:0:
100,200,1194,2,0,B|104:244|148:276|148:276|120:336,1,135,2|0,0:0|0:0,0:0:0:0:
220,332,1750,2,0,B|248:272|248:272|296:236|288:192,1,135,2|0,0:0|0:0,0:0:0:0:
330,131,2305,2,0,P|364:159|384:200,1,90,2|2,0:0|0:0,0:0:0:0:
250,75,2861,6,0,P|284:47|328:36,1,90,4|0,0:0|0:0,0:0:0:0:
384,200,3416,2,0,B|356:212|352:248|352:248|332:300|256:280,1,135,2|0,0:0|0:0,0:0:0:0:
216,348,3972,2,0,B|180:296|200:244|200:244|168:200,1,135,2|0,0:0|0:0,0:0:0:0:
124,156,4527,1,2,0:0:0:0:
292,284,4805,1,2,0:0:0:0:
388,116,5083,6,0,B|372:148|384:180|384:180|428:220|420:268,1,135,4|0,0:0|0:0,0:0:0:0:
504,295,5639,2,0,P|449:333|384:328,1,135,2|0,0:0|0:0,0:0:0:0:
292,284,6194,2,0,B|240:260|240:260|184:276|140:232,1,135,2|0,0:0|0:0,0:0:0:0:
212,168,6750,1,2,0:0:0:0:
384,328,7027,1,2,0:0:0:0:
440,96,7305,6,0,P|460:144|448:216,1,90,4|0,0:0|0:0,0:0:0:0:
384,328,7861,2,0,B|338:314|324:280|324:280|288:264|240:292,1,135,2|0,0:0|0:0,0:0:0:0:
172,244,8416,2,0,P|208:196|308:184,1,135,2|0,0:0|0:0,0:0:0:0:
368,176,8972,2,0,L|256:99,1,135,2|0,0:0|0:0,0:0:0:0:
152,64,9527,6,0,L|76:88,1,45,12|4,0:0|0:0,0:0:0:0:
24,40,9805,2,0,P|20:88|48:144,1,90,4|2,0:0|0:0,0:0:0:0:
32,216,10222,2,0,P|96:188|120:136,1,90,4|0,0:0|0:0,0:0:0:0:
164,104,10639,2,0,B|200:124|204:164|204:164|188:208|208:248,1,135,2|0,0:0|0:0,0:0:0:0:
273,285,11194,2,0,P|290:244|288:200,1,90,2|0,0:0|0:0,0:0:0:0:
392,52,11750,6,0,P|373:39|353:29,1,45,4|4,0:0|0:0,0:0:0:0:
264,36,12027,2,0,P|280:80|352:116,2,90,4|2|0,0:0|0:0|0:0,0:0:0:0:
400,232,12861,2,0,B|408:192|408:192|436:164|428:116,2,90,2|2|2,0:0|0:0|0:0,0:0:0:0:
332,288,13555,1,0,0:0:0:0:
243,300,13694,2,0,P|242:277|248:256,2,45,0|0|4,0:0|0:0|0:0,0:0:0:0:
400,232,14250,5,4,0:0:0:0:
289,129,14527,2,0,P|258:189|248:256,1,135,2|0,0:0|0:0,0:0:0:0:
218,341,15083,2,0,P|168:297|160:232,1,135
88,176,15639,2,0,P|120:152|200:152,1,90,2|0,0:0|0:0,0:0:0:0:
260,148,16055,1,0,0:0:0:0:
348,144,16194,2,0,P|376:133|424:104,2,45,4|4|4,0:0|0:0|0:0,0:0:0:0:
125,98,16750,6,0,B|115:109|115:145|115:145|88:176,1,90,2|0,0:0|0:0,0:0:0:0:
16,232,17166,1,0,0:0:0:0:
88,288,17305,2,0,B|116:320|116:320|116:356|126:366,2,90,2|2|2,0:0|0:0|0:0,0:0:0:0:
236,328,18139,2,0,L|279:315,1,45
364,284,18416,5,4,0:0:0:0:
364,284,18555,1,4,0:0:0:0:
364,284,18694,2,0,B|396:268|396:268|396:224|424:200,1,90,4|2,0:0|0:0,0:0:0:0:
498,180,19111,2,0,P|501:225|488:268,1,90,4|0,0:0|0:0,0:0:0:0:
475,355,19527,2,0,B|431:351|411:313|411:313|360:281,1,135,2|0,0:0|0:0,0:0:0:0:
283,245,20083,2,0,P|276:288|288:332,1,90,2|0,0:0|0:0,0:0:0:0:
488,268,20639,6,0,L|484:224,1,45,4|4,0:0|0:0,0:0:0:0:
468,136,20916,2,0,P|416:168|400:228,2,90,4|2|0,0:0|0:0|0:0,0:0:0:0:
302,254,21750,2,0,P|286:212|288:168,1,90,2|0,0:0|0:0,0:0:0:0:
448,195,22305,2,0,L|404:192,2,45,2|0|0,0:0|0:0|0:0,0:0:0:0:
420,108,22722,1,0,0:0:0:0:
352,48,22861,5,4,0:0:0:0:
188,120,23139,2,0,B|169:137|152:132|152:132|108:128|80:176,1,90,4|2,0:0|0:0,0:0:0:0:
63,229,23555,2,0,P|106:240|148:224,1,90,4|0,0:0|0:0,0:0:0:0:
188,304,23972,2,0,B|232:280|236:228|236:228|236:196|276:172,1,135,2|0,0:0|0:0,0:0:0:0:
312,140,24527,2,0,B|248:143|248:143|241:141|241:141|145:145,1,135,2|0,0:0|0:0,0:0:0:0:
96,104,25083,6,0,P|88:128|92:184,1,45,4|4,0:0|0:0,0:0:0:0:
96,236,25361,2,0,P|96:288|72:352,1,90,4|0,0:0|0:0,0:0:0:0:
176,328,25777,1,2,0:0:0:0:
264,316,25916,1,2,0:0:0:0:
172,308,26055,1,2,0:0:0:0:
272,336,26194,2,0,B|288:352|316:348|316:348|348:336|396:352,1,90,2|0,0:0|0:0,0:0:0:0:
472,204,26750,2,0,B|464:232|464:232|491:268|504:320,1,90,4|0,0:0|0:0,0:0:0:0:
320,112,27305,5,4,0:2:0:0:
228,76,27444,1,4,0:0:0:0:
144,132,27583,2,0,P|99:151|44:152,1,99.0000030212403,4|2,0:0|0:0,0:0:0:0:
160,213,28000,2,0,P|207:187|227:147,1,99.0000030212403,4|0,0:0|0:0,0:0:0:0:
320,112,28416,1,2,0:0:0:0:
144,132,28694,1,2,0:0:0:0:
340,188,28972,6,0,P|364:180|388:148,1,49.5000015106202,2|0,0:0|0:0,0:0:0:0:
444,100,29250,2,0,P|460:120|468:152,1,49.5000015106202,2|0,0:0|0:0,0:0:0:0:
483,235,29527,2,0,P|459:236|436:228,2,49.5000015106202,6|4|4,0:0|0:0|0:0,0:0:0:0:
243,174,30083,2,0,P|292:173|340:188,1,99.0000030212403,2|0,0:0|0:0,0:0:0:0:
376,352,30639,2,0,P|326:353|279:338,1,99.0000030212403,2|0,0:0|0:0,0:0:0:0:
244,174,31194,2,0,B|208:176|184:204|184:204|163:223|132:224,1,99.0000030212403,2|0,0:0|0:0,0:0:0:0:
72,248,31611,1,0,0:0:0:0:
172,264,31750,6,0,L|232:272,1,49.5000015106202,6|4,0:0|0:0,0:0:0:0:
310,239,32027,2,0,P|287:196|244:174,1,99.0000030212403,4|2,0:0|0:0,0:0:0:0:
260,76,32444,2,0,L|244:174,1,99.0000030212403,4|0,0:0|0:0,0:0:0:0:
221,270,32861,1,2,0:0:0:0:
396,208,33139,1,0,0:0:0:0:
260,76,33416,1,2,0:0:0:0:
244,252,33694,2,0,L|236:336,1,49.5000015106202
328,224,33972,5,6,0:0:0:0:
400,172,34111,1,4,0:0:0:0:
432,88,34250,1,4,0:0:0:0:
260,76,34527,2,0,P|212:108|184:176,1,99.0000030212403,2|0,0:0|0:0,0:0:0:0:
236,220,34944,1,0,0:0:0:0:
328,224,35083,2,0,P|371:255|456:256,1,99.0000030212403,2|0,0:0|0:0,0:0:0:0:
400,172,35500,1,0,0:0:0:0:
320,136,35639,2,0,P|280:152|244:224,1,99.0000030212403,2|0,0:0|0:0,0:0:0:0:
400,172,36194,6,4,L|472:148,1,49.5000015106202,6|4,0:2|0:0,0:0:0:0:
402,81,36472,2,0,L|320:136,1,99.0000030212403,4|2,0:0|0:0,0:0:0:0:
400,172,36889,2,0,L|368:276,1,99.0000030212403,4|0,0:0|0:0,0:0:0:0:
320,136,37305,2,0,B|276:168|232:160|232:160|196:136|152:148,1,148.50000453186,2|0,0:0|0:0,0:0:0:0:
180,232,37861,2,0,P|112:204|88:160,1,99.0000030212403,2|0,0:0|0:0,0:0:0:0:
56,108,38277,1,0,0:0:0:0:
92,24,38416,6,0,P|120:36|136:76,1,49.5000015106202,6|4,0:0|0:0,0:0:0:0:
172,128,38694,1,4,0:0:0:0:
400,56,38972,2,0,B|377:72|371:108|371:108|378:165|332:223,1,148.50000453186,2|0,0:0|0:0,0:0:0:0:
320,276,39527,2,0,B|272:264|260:208|260:208|272:156|228:120,1,148.50000453186,2|0,0:0|0:0,0:0:0:0:
168,184,40083,2,0,P|138:199|120:224,2,49.5000015106202,2|0|4,0:0|0:0|0:0,0:0:0:0:
256,156,40500,1,0,0:0:0:0:
348,136,40639,6,0,B|396:124|396:124|440:112|480:164,1,103.500001974106,4|0,0:2|0:0,0:0:0:0:
496,212,41055,1,4,0:0:0:0:
472,304,41194,2,0,P|420:276|400:192,1,103.500001974106,2|0,0:0|0:0,0:0:0:0:
328,300,41611,1,0,0:0:0:0:
264,232,41750,2,0,B|296:204|336:208|336:208|360:164|412:168,1,155.250002961159,2|0,0:0|0:0,0:0:0:0:
492,168,42305,2,0,P|474:112|416:72,1,103.500001974106,2|0,0:0|0:0,0:0:0:0:
352,52,42722,1,0,0:0:0:0:
260,56,42861,6,0,P|224:72|208:112,1,51.7500009870529,4|2,0:0|0:0,0:0:0:0:
296,156,43139,2,0,P|276:184|272:236,1,51.7500009870529,0|0,0:0|0:0,0:0:0:0:
384,224,43416,2,0,B|384:244|392:260|392:260|408:292|388:352,1,103.500001974106,12|4,0:0|0:0,0:0:0:0:
304,300,43833,2,0,P|240:300|184:256,1,103.500001974106,4|4,0:0|0:0,0:0:0:0:
132,224,44250,1,12,0:0:0:0:
76,152,44389,1,8,0:0:0:0:
44,64,44527,2,0,P|34:40|28:14,1,51.7500009870529,8|8,0:0|0:0,0:0:0:0:
156,64,44805,5,8,0:0:0:0:
156,64,44944,1,8,0:0:0:0:
264,88,45083,6,0,B|296:100|312:128|312:128|316:172|352:192,1,116.999994644165,8|0,0:0|0:0,0:0:0:0:
408,240,45500,1,0,0:0:0:0:
492,184,45639,2,0,B|456:136|408:136|408:136|384:96,2,116.999994644165,2|0|2,0:0|0:0|0:0,0:0:0:0:
284,140,46472,2,0,L|261:86,1,58.4999973220826,2|0,0:0|0:0,0:0:0:0:
164,108,46750,2,0,L|120:56,1,58.4999973220826,2|0,0:0|0:0,0:0:0:0:
56,132,47027,2,0,L|4:100,1,58.4999973220826,2|2,0:0|0:0,0:0:0:0:
127,212,47305,6,0,P|160:165|164:108,1,116.999994644165,12|0,0:0|0:0,0:0:0:0:
244,48,47722,1,4,0:0:0:0:
284,140,47861,2,0,B|320:121|332:92|332:92|348:60|396:44,1,116.999994644165,2|0,0:0|0:0,0:0:0:0:
420,144,48277,1,4,0:0:0:0:
492,212,48416,6,0,P|459:237|404:240,1,58.4999973220826,2|0,0:0|0:0,0:0:0:0:
392,328,48694,2,0,P|360:296|348:264,1,58.4999973220826,2|0,0:0|0:0,0:0:0:0:
252,276,48972,2,0,P|261:241|288:208,1,58.4999973220826,2|0,0:0|0:0,0:0:0:0:
284,124,49250,2,0,P|320:132|344:152,1,58.4999973220826,2|2,0:0|0:0,0:0:0:0:
388,232,49527,6,0,P|428:188|392:60,1,175.499991966248,8|0,0:0|0:0,0:0:0:0:
336,144,50083,2,0,B|292:120|272:128|272:128|244:148|192:148,1,116.999994644165,2|0,0:0|0:0,0:0:0:0:
132,172,50500,1,0,0:0:0:0:
32,188,50639,2,0,P|36:152|56:96,1,58.4999973220826,2|0,0:0|0:0,0:0:0:0:
113,62,50916,2,0,P|138:114|132:172,2,116.999994644165,2|2|2,0:0|0:0|0:0,0:0:0:0:
48,252,51750,6,0,B|76:245|76:245|118:272|159:254,1,116.999994644165,10|0,0:0|0:0,0:0:0:0:
256,228,52166,1,4,0:0:0:0:
352,254,52305,2,0,B|393:272|435:245|435:245|464:252,1,116.999994644165,2|0,0:0|0:0,0:0:0:0:
364,80,52861,2,0,P|256:40|116:112,1,233.999989288331,2|2,0:0|0:0,0:0:0:0:
256,244,53694,2,0,L|256:324,1,58.4999973220826,2|0,0:0|0:0,0:0:0:0:
352,260,53972,6,0,B|337:228|337:228|322:165|244:152,1,116.999994644165,14|0,0:0|0:0,0:0:0:0:
204,149,54389,2,0,P|212:206|256:244,1,116.999994644165,4|0,0:0|0:0,0:0:0:0:
352,260,54805,2,0,B|384:269|424:256|424:256|460:224|440:168,1,116.999994644165,4|0,0:0|0:0,0:0:0:0:
464,124,55222,1,0,0:0:0:0:
478,29,55361,2,0,B|430:21|394:53|394:53|368:52,2,116.999994644165,2|2|2,0:0|0:0|0:0,0:0:0:0:
352,260,56194,6,0,B|356:208|328:168|328:168|268:148|260:60,1,175.499991966248,12|4,0:0|0:0,0:0:0:0:
368,52,56750,2,0,B|344:52|344:52|296:4|228:28,1,116.999994644165,2|0,0:0|0:0,0:0:0:0:
168,28,57166,1,0,0:0:0:0:
76,52,57305,2,0,L|-12:88,1,58.4999973220826,2|0,0:0|0:0,0:0:0:0:
80,184,57583,2,0,L|32:248,1,58.4999973220826,2|0,0:0|0:0,0:0:0:0:
176,304,57861,2,0,B|204:315|234:310|234:310|269:319|292:348,1,116.999994644165,2|2,0:0|0:0,0:0:0:0:
216,156,58416,6,0,B|224:100|276:80|276:80|336:104|392:56,1,175.499991966248,12|4,0:0|0:0,0:0:0:0:
436,52,58972,2,0,P|428:128|360:176,1,116.999994644165,2|0,0:0|0:0,0:0:0:0:
312,184,59389,1,4,0:0:0:0:
216,156,59527,2,0,P|168:148|124:160,1,58.4999973220826,2|0,0:0|0:0,0:0:0:0:
64,160,59805,1,2,0:0:0:0:
312,184,60083,1,2,0:0:0:0:
172,260,60361,2,0,P|147:245|128:224,1,58.4999973220826
216,155,60639,6,0,P|270:145|312:184,1,116.999994644165,12|4,0:0|0:0,0:0:0:0:
336,276,61055,1,4,0:0:0:0:
312,184,61194,2,0,B|296:148|304:120|304:120|316:80|264:36,1,116.999994644165,6|2,0:0|0:0,0:0:0:0:
208,40,61611,1,0,0:0:0:0:
116,52,61750,6,0,L|20:92,1,58.4999973220826,2|0,0:0|0:0,0:0:0:0:
116,152,62027,2,0,L|52:232,1,58.4999973220826,2|0,0:0|0:0,0:0:0:0:
160,248,62305,2,0,L|136:328,1,58.4999973220826,2|0,0:0|0:0,0:0:0:0:
236,320,62583,1,2,0:0:0:0:
324,356,62722,1,2,0:0:0:0:
416,364,62861,6,0,P|412:320|340:268,1,116.999994644165,12|4,0:0|0:0,0:0:0:0:
332,184,63277,1,4,0:0:0:0:
260,124,63416,2,0,P|238:177|256:240,1,116.999994644165,4|0,0:0|0:0,0:0:0:0:
172,76,63972,2,0,P|148:112|92:128,1,58.4999973220826,2|0,0:0|0:0,0:0:0:0:
260,124,64250,2,0,P|312:88|360:88,1,58.4999973220826,2|0,0:0|0:0,0:0:0:0:
332,184,64527,2,0,P|343:215|340:280,1,58.4999973220826,2|0,0:0|0:0,0:0:0:0:
212,304,64805,2,0,P|200:272|204:208,1,58.4999973220826,2|2,0:0|0:0,0:0:0:0:
171,138,65083,6,0,B|232:124|280:168|280:168|304:192|332:184,1,175.499991966248,12|4,0:0|0:0,0:0:0:0:
432,164,65639,2,0,B|440:212|412:248|412:248|395:264|400:296,1,116.999994644165,2|0,0:0|0:0,0:0:0:0:
316,328,66055,1,0,0:0:0:0:
224,292,66194,2,0,P|240:260|272:240,1,58.4999973220826,4|0,0:0|0:0,0:0:0:0:
332,184,66472,2,0,P|304:160|240:144,1,58.4999973220826,4|0,0:0|0:0,0:0:0:0:
192,116,66750,2,0,P|208:84|240:64,1,58.4999973220826,4|0,0:0|0:0,0:0:0:0:
32,48,67027,1,6,0:0:0:0:
60,128,67166,1,2,0:0:0:0:
111,195,67305,6,0,B|139:190|163:158|163:158|179:122|195:114,1,116.999994644165,12|4,0:0|0:0,0:0:0:0:
256,56,67722,1,4,0:0:0:0:
319,116,67861,2,0,B|332:122|348:158|348:158|372:190|401:195,1,116.999994644165,6|2,0:0|0:0,0:0:0:0:
464,256,68277,1,0,0:0:0:0:
432,336,68416,2,0,B|392:328|376:284|376:284|360:263|296:260,2,116.999994644165,4|6|6,0:0|0:0|0:0,0:0:0:0:
244,228,69250,1,2,0:0:0:0:
95,143,69527,6,0,P|161:199|244:228,1,175.499991966248,12|4,0:0|0:0,0:0:0:0:
288,304,70083,2,0,B|298:246|298:246|295:241|295:241|308:160|308:160|388:128,1,175.499991966248,2|0,0:0|0:0,0:0:0:0:
420,120,70639,2,0,P|404:88|352:64,2,58.4999973220826,2|0|2,0:0|0:0|0:0,0:0:0:0:
448,204,71055,1,0,0:0:0:0:
420,288,71194,2,0,P|404:320|352:344,1,58.4999973220826,2|0,0:0|0:0,0:0:0:0:
320,252,71472,1,2,0:0:0:0:
320,252,71611,1,2,0:0:0:0:
220,212,71750,6,0,B|236:172|268:156|268:156|308:132|292:76,1,116.999994644165,12|4,0:0|0:0,0:0:0:0:
320,252,72166,1,4,0:0:0:0:
340,336,72305,2,0,P|385:312|408:244,2,116.999994644165,2|2|2,0:0|0:0|0:0,0:0:0:0:
220,212,73139,2,0,P|278:213|322:251,2,116.999994644165,2|2|2,0:0|0:0|0:0,0:0:0:0:
236,312,73833,1,2,0:0:0:0:
184,220,73972,6,0,B|143:189|145:144|145:144|200:88|148:16,1,175.499991966248,14|4,0:0|0:0,0:0:0:0:
84,80,74527,1,2,0:0:0:0:
204,244,74805,2,0,B|236:272|232:308|232:308|248:348|284:352,1,116.999994644165,2|2,0:0|0:0,0:0:0:0:
308,140,75361,2,0,B|276:112|280:76|280:76|264:36|228:32,1,116.999994644165,2|2,0:0|0:0,0:0:0:0:
168,32,75777,1,2,0:0:0:0:
80,36,75916,2,0,P|40:44|16:60,1,58.4999973220826,2|2,0:0|0:0,0:0:0:0:
84,140,76194,6,0,L|132:292,1,116.999994644165,14|0,0:0|0:0,0:0:0:0:
184,308,76611,1,6,0:0:0:0:
268,328,76750,1,6,0:0:0:0:
240,68,77027,2,0,L|288:220,1,116.999994644165,14|6,0:0|0:0,0:0:0:0:
340,236,77444,1,2,0:0:0:0:
424,256,77583,2,0,L|448:316,1,58.4999973220826,6|2,0:0|0:0,0:0:0:0:
361,181,77861,2,0,L|340:236,1,58.4999973220826,6|2,0:0|0:0,0:0:0:0:
416,100,78139,2,0,L|440:160,1,58.4999973220826,6|2,0:0|0:0,0:0:0:0:
360,44,78416,5,14,0:0:0:0:
256,192,78486,12,0,80361,0:0:0:0:
453,53,80639,6,0,B|435:74|404:70|404:70|348:55|307:100,1,148.50000453186,4|0,0:0|0:0,0:0:0:0:
380,168,81194,2,0,B|352:198|311:195|311:195|225:238,1,148.50000453186,2|0,0:0|0:0,0:0:0:0:
208,320,81750,2,0,B|153:296|145:229|145:229|76:192,1,148.50000453186,2|0,0:0|0:0,0:0:0:0:
36,176,82305,1,2,0:0:0:0:
248,228,82583,1,2,0:0:0:0:
420,180,82861,6,0,B|417:202|417:202|428:264|392:312,1,99.0000030212403,4|0,0:0|0:0,0:0:0:0:
248,228,83416,2,0,B|204:200|174:204|174:204|120:216|80:164,1,148.50000453186,2|0,0:0|0:0,0:0:0:0:
156,116,83972,2,0,B|177:92|174:52|174:52|216:68|280:48,1,148.50000453186,2|0,0:0|0:0,0:0:0:0:
344,40,84527,1,2,0:0:0:0:
111,246,85083,6,0,B|140:237|151:197|151:197|140:149|160:105,3,148.50000453186,6|0|0|0,0:0|0:0|0:0|0:0,0:0:0:0:
192,32,86472,2,0,B|236:44|248:100|248:100|296:136|344:116,1,148.50000453186
384,140,87027,2,0,L|460:160,1,49.5000015106202
484,80,87305,2,0,L|352:44,2,99.0000030212403,2|2|2,0:0|0:0|0:0,0:0:0:0:
