osu file format v11

[General]
AudioFilename: Prism_Ark op-Soshite_Boku_wa(TV size).mp3
AudioLeadIn: 2000
PreviewTime: 36373
Countdown: 0
SampleSet: Normal
StackLeniency: 0.7
Mode: 0
LetterboxInBreaks: 0

[Editor]
DistanceSpacing: 0.8
BeatDivisor: 4
GridSize: 16

[Metadata]
Title:Soshite Boku wa...
TitleUnicode:そして僕は...
Artist:Sakakibara Yui
ArtistUnicode:榊原ゆい
Creator:minyeob
Version:TV-Normal
Source:PRISM ARK
Tags:quintitem
BeatmapID:51080
BeatmapSetID:13886

[Difficulty]
HPDrainRate:2
CircleSize:4
OverallDifficulty:3
ApproachRate:3
SliderMultiplier:1.4
SliderTickRate:1

[Events]
//Background and Video events
0,0,"tv size bg.jpg"
Video,-45,"Prism_Ark_OP.flv"
//Break Periods
2,11773,16846
//Storyboard Layer 0 (Background)
//Storyboard Layer 1 (Fail)
//Storyboard Layer 2 (Pass)
//Storyboard Layer 3 (Foreground)
//Storyboard Sound Samples
//Background Colour Transformations
3,100,163,162,255

[TimingPoints]
-175,419.58041958042,4,1,0,70,1,0
31653,-100,4,2,0,100,0,0
33226,-100,4,1,0,70,0,0
48436,-100,4,2,0,100,0,0
49485,-100,4,1,0,70,0,0
65114,-100,4,2,0,70,0,0
66897,-100,4,1,0,70,0,0
83681,-100,4,2,0,20,0,0

[Colours]
Combo1 : 128,128,255
Combo2 : 255,0,255
Combo3 : 128,255,255
Combo4 : 255,255,255

[HitObjects]
266,44,1503,1,0,0:0:0
195,131,1922,1,0,0:0:0
90,89,2342,2,0,B|46:147|44:250,1,140
133,289,3181,2,0,B|209:348|341:357,1,210
436,294,4230,1,0,0:0:0
436,294,4440,6,0,B|525:294,2,70
439,181,5279,1,0,0:0:0
365,96,5699,2,0,B|284:128,1,70
246,137,6118,1,0,0:0:0
138,169,6538,1,0,0:0:0
42,207,6957,5,0,0:0:0
42,207,7377,1,0,0:0:0
124,283,7797,2,0,B|295:284,2,140
123,227,8845,1,0,0:0:0
123,114,9265,2,0,B|124:33,2,70
179,115,9894,2,0,B|263:137|264:229,2,140
66,113,11153,1,0,0:0:0
65,225,11573,1,4,0:0:0
445,89,18286,5,4,0:0:0
332,89,18706,1,0,0:0:0
220,90,19125,2,0,B|158:118|114:182,1,140
217,226,19964,2,0,B|258:287|356:321,2,140
216,112,21223,6,4,B|215:26,2,70
328,114,22062,1,0,0:0:0
397,202,22482,2,0,B|365:269|279:284,1,140
186,236,23321,1,0,0:0:0
98,166,23741,2,0,B|142:100|217:83,1,140
325,97,24580,6,4,B|325:177,1,70
381,168,24999,2,0,B|418:241|375:331,2,140,4|0|0,0:0|0:0|0:0,0:0:0
284,111,26258,2,0,B|201:112,1,70,0|4,0:0|0:0,0:0:0
213,55,26678,2,0,B|142:33|69:63,2,140
212,166,27936,6,0,B|298:166,2,70
99,167,28776,2,0,B|99:78,2,70
97,279,29615,1,0,0:0:0
97,279,29825,1,0,0:0:0
208,279,30244,1,0,0:0:0
208,279,30454,2,0,B|280:247|304:147,1,140
241,81,31293,5,0,0:0:0
353,81,31713,2,2,B|508:80,2,140,2|2|2,0:0|0:0|0:0,0:0:0
403,180,32971,1,0,0:0:0
312,231,33391,6,0,B|250:301|105:320,1,210,4|0,0:0|0:0,0:0:0
67,220,34440,1,0,0:0:0
67,220,34650,1,0,0:0:0
15,120,35069,2,0,B|71:52|221:40,1,210
408,108,36328,5,4,0:0:0
295,109,36748,2,0,B|272:183|167:206,1,140
91,242,37587,2,0,B|114:322|217:349,1,140
268,263,38426,2,0,B|392:252|453:146,2,210
155,260,40104,6,0,B|155:175,1,70,4|0,0:0|0:0,0:0:0
156,77,40734,1,0,0:0:0
267,77,41153,1,0,0:0:0
267,77,41363,1,0,0:0:0
265,189,41783,2,0,B|389:221|413:350,2,210
153,40,43461,6,0,B|120:100|148:179,2,140
258,109,44720,1,4,0:0:0
372,176,45139,2,0,B|404:109|368:29,2,140
329,212,46188,6,0,B|161:212,1,140
132,212,46818,1,0,0:0:0
127,100,47237,2,0,B|212:100,1,70
253,101,47657,2,0,B|337:115|353:217,2,140,0|0|4,0:0|0:0|0:0,0:0:0
165,31,48915,1,4,0:0:0
63,77,49335,1,4,0:0:0
41,175,49755,6,4,B|40:325,1,140
147,296,50594,2,0,B|223:328,1,70
313,343,51223,2,0,B|398:298,1,70
334,217,51852,2,0,B|486:152,1,140
375,90,52692,2,0,B|233:151,1,140
190,152,53321,6,4,B|189:228,1,70
84,262,53950,1,0,0:0:0
36,232,54160,1,0,0:0:0
62,123,54580,2,0,B|135:79,1,70
201,171,55209,2,0,B|215:239|299:270,2,140
299,85,56468,1,0,0:0:0
299,85,56678,1,0,0:0:0
299,85,56887,5,4,0:0:0
404,128,57307,1,0,0:0:0
326,208,57727,2,0,B|302:271|207:298,1,140
165,292,58356,2,0,B|165:211,1,70
164,125,58985,2,0,B|88:125,2,70
164,125,59825,5,0,0:0:0
258,65,60244,1,4,0:0:0
342,298,61083,5,0,0:0:0
172,300,61503,1,0,0:0:0
254,208,61922,2,0,B|254:118,2,70
253,84,62762,1,0,0:0:0
148,138,63181,2,0,B|218:175,1,70
317,170,63811,2,0,B|385:126,1,70
254,116,64440,6,0,B|253:288,1,140
254,368,65279,1,2,0:0:0
254,368,65699,1,2,0:0:0
220,261,66118,2,0,B|316:262,2,70
346,263,66957,6,0,B|434:243|458:160,1,140
370,101,67797,1,0,0:0:0
57,166,68636,2,0,B|85:230|180:269,1,140
255,203,69475,1,0,0:0:0
352,258,69894,1,0,0:0:0
352,258,70314,2,0,B|514:258,2,140
352,145,71573,6,0,B|352:64,2,70
239,146,72412,1,0,0:0:0
239,146,72831,2,0,B|153:160|140:254,2,140
332,83,74090,5,0,0:0:0
410,161,74510,1,0,0:0:0
327,236,74929,2,0,B|173:235,1,140
74,234,75769,1,0,0:0:0
71,122,76188,2,0,B|105:40|206:76,1,140
281,111,77027,2,0,B|420:70|462:211,2,210
352,192,78706,5,0,0:0:0
256,272,79125,1,0,0:0:0
160,192,79545,1,0,0:0:0
256,112,79964,1,0,0:0:0
256,192,80384,12,0,83321,0:0:0
256,192,83741,12,4,87097,0:0:0
