osu file format v12

[General]
AudioFilename: Prism_Ark op-Soshite_Boku_wa(TV size).mp3
AudioLeadIn: 2000
PreviewTime: 36373
Countdown: 0
SampleSet: Normal
StackLeniency: 0.7
Mode: 0
LetterboxInBreaks: 0

[Editor]
DistanceSpacing: 1
BeatDivisor: 4
GridSize: 16

[Metadata]
Title:Soshite Boku wa...
TitleUnicode:そして僕は...
Artist:Sakakibara Yui
ArtistUnicode:榊原ゆい
Creator:minyeob
Version:TV-Insane
Source:PRISM ARK
Tags:quintitem
BeatmapID:51226
BeatmapSetID:13886

[Difficulty]
HPDrainRate:7
CircleSize:5
OverallDifficulty:7
ApproachRate:7
SliderMultiplier:1.6
SliderTickRate:1

[Events]
//Background and Video events
0,0,"tv size bg.jpg",0,0
Video,-45,"Prism_Ark_OP.flv"
//Break Periods
//Storyboard Layer 0 (Background)
//Storyboard Layer 1 (Fail)
//Storyboard Layer 2 (Pass)
//Storyboard Layer 3 (Foreground)
//Storyboard Sound Samples
//Background Colour Transformations
3,100,163,162,255

[TimingPoints]
-175,419.58041958042,4,1,0,70,1,0
48496,-100,4,1,0,70,0,1
49440,-100,4,2,0,70,0,0
50174,-100,4,1,0,70,0,0
56258,-100,4,2,0,70,0,0
56573,-100,4,1,0,70,0,0
64964,-100,4,2,0,70,0,0
66748,-100,4,1,0,70,0,0
81223,-100,4,1,0,50,0,0
82062,-100,4,1,0,30,0,0
82901,-100,4,1,0,10,0,0
83741,-100,4,1,0,5,0,0

[Colours]
Combo1 : 128,128,255
Combo2 : 255,0,255
Combo3 : 128,255,255
Combo4 : 255,255,255

[HitObjects]
258,74,1503,1,0,0:0:0:0:
188,113,1713,1,0,0:0:0:0:
118,74,1922,1,0,0:0:0:0:
47,111,2132,2,0,B|46:170,1,40
116,190,2447,2,0,B|116:136,1,40
188,113,2762,1,0,0:0:0:0:
256,153,2971,1,0,0:0:0:0:
326,114,3181,2,0,B|352:84|392:66,1,80
449,121,3601,1,0,0:0:0:0:
424,197,3811,2,0,B|352:241|271:253,1,160
198,229,4440,1,0,0:0:0:0:
174,305,4650,1,0,0:0:0:0:
245,340,4859,6,0,B|324:315,1,80
352,241,5279,2,0,B|437:272,1,80
485,212,5699,2,0,B|449:132,1,80
409,71,6118,1,0,0:0:0:0:
338,109,6328,1,0,0:0:0:0:
302,126,6433,1,0,0:0:0:0:
231,87,6643,1,0,0:0:0:0:
196,66,6748,1,0,0:0:0:0:
120,92,6957,1,0,0:0:0:0:
52,134,7167,6,0,B|51:222,1,80
131,216,7587,2,0,B|210:180|319:233,1,160
300,297,8216,1,0,0:0:0:0:
371,260,8426,1,0,0:0:0:0:
353,181,8636,1,0,0:0:0:0:
284,139,8845,2,0,B|321:68|405:30,1,160
457,88,9475,1,0,0:0:0:0:
419,158,9685,1,0,0:0:0:0:
342,181,9894,6,0,B|304:165,1,40
193,121,10314,1,0,0:0:0:0:
121,85,10524,2,0,B|84:118,1,40
38,176,10838,1,0,0:0:0:0:
38,176,10943,1,0,0:0:0:0:
110,209,11153,2,0,B|110:297,1,80
180,335,11573,5,0,0:0:0:0:
254,306,11783,1,0,0:0:0:0:
328,335,11992,1,0,0:0:0:0:
254,306,12202,1,0,0:0:0:0:
180,335,12412,1,0,0:0:0:0:
180,214,12622,5,0,0:0:0:0:
254,186,12831,1,0,0:0:0:0:
328,215,13041,1,0,0:0:0:0:
297,118,13251,5,0,0:0:0:0:
215,117,13461,1,0,0:0:0:0:
256,46,13671,1,0,0:0:0:0:
176,46,13880,2,0,B|270:46,1,80
336,46,14300,2,0,B|242:46,1,80
255,120,14720,1,0,0:0:0:0:
175,126,14929,6,0,B|134:140|99:177,1,80
44,217,15349,1,0,0:0:0:0:
68,293,15559,2,0,B|93:323|138:336,1,80
201,288,15978,1,0,0:0:0:0:
259,342,16188,1,0,0:0:0:0:
319,289,16398,1,0,0:0:0:0:
377,343,16608,2,0,B|420:322|445:295,1,80
482,228,17027,1,0,0:0:0:0:
422,174,17237,2,0,B|392:142|347:124,1,80
289,83,17657,2,0,B|206:101|125:152,1,160
205,189,18286,6,0,B|191:268|136:344,1,160,4|0,0:0|0:0,0:0:0:0:
66,360,18915,1,0,0:0:0:0:
115,296,19125,1,0,0:0:0:0:
193,281,19335,1,0,0:0:0:0:
266,313,19545,1,0,0:0:0:0:
329,362,19755,1,0,0:0:0:0:
329,362,19964,6,0,B|385:302|411:210,1,160,4|0,0:0|0:0,0:0:0:0:
483,198,20594,1,0,0:0:0:0:
441,129,20804,1,0,0:0:0:0:
363,146,21013,1,0,0:0:0:0:
304,90,21223,1,0,0:0:0:0:
223,106,21433,1,0,0:0:0:0:
223,106,21538,1,0,0:0:0:0:
223,106,21643,2,0,B|129:106,2,80,4|0|0,0:0|0:0|0:0,0:0:0:0:
221,186,22272,2,0,B|220:268,1,80
220,346,22692,2,0,B|300:335|375:289,1,160
448,302,23321,5,0,0:0:0:0:
448,302,23426,1,0,0:0:0:0:
418,227,23636,1,0,0:0:0:0:
418,227,23741,1,0,0:0:0:0:
340,245,23950,2,0,B|345:191|370:157,1,80
407,102,24370,1,0,0:0:0:0:
333,69,24580,6,4,B|155:69,1,160
232,14,25209,1,0,0:0:0:0:
259,89,25419,1,0,0:0:0:0:
228,163,25629,1,0,0:0:0:0:
197,89,25838,2,0,B|112:89,2,80
228,163,26468,1,0,0:0:0:0:
264,146,26573,1,0,0:0:0:0:
298,165,26678,2,0,B|374:182|445:237,1,160
499,289,27307,1,0,0:0:0:0:
466,312,27412,1,0,0:0:0:0:
429,328,27517,1,0,0:0:0:0:
390,339,27622,1,0,0:0:0:0:
350,345,27727,1,0,0:0:0:0:
271,358,27936,5,0,0:0:0:0:
232,346,28041,1,0,0:0:0:0:
196,328,28146,1,0,0:0:0:0:
260,280,28356,2,0,B|193:233|105:215,1,160,4|0,0:0|0:0,0:0:0:0:
44,256,28985,1,0,0:0:0:0:
45,175,29195,1,0,0:0:0:0:
116,138,29405,1,0,0:0:0:0:
79,66,29615,2,0,B|162:73|254:127,1,160,4|0,0:0|0:0,0:0:0:0:
305,141,30244,1,0,0:0:0:0:
341,156,30349,1,0,0:0:0:0:
375,176,30454,1,0,0:0:0:0:
443,217,30664,1,0,0:0:0:0:
475,240,30769,1,0,0:0:0:0:
502,268,30873,1,0,0:0:0:0:
415,315,31083,5,0,0:0:0:0:
342,350,31293,2,0,B|168:350,1,160
220,279,31922,1,0,0:0:0:0:
260,280,32027,1,0,0:0:0:0:
300,280,32132,1,0,0:0:0:0:
259,204,32342,1,0,0:0:0:0:
376,180,32552,5,0,0:0:0:0:
317,125,32762,1,0,0:0:0:0:
258,71,32971,1,0,0:0:0:0:
199,125,33181,1,0,0:0:0:0:
145,184,33391,1,4,0:0:0:0:
43,247,33811,5,0,0:0:0:0:
44,247,34020,2,0,B|108:292|200:310,1,160
270,336,34650,1,0,0:0:0:0:
345,311,34859,1,0,0:0:0:0:
284,259,35069,2,0,B|343:216|433:199,1,160
509,180,35699,1,0,0:0:0:0:
451,125,35908,1,0,0:0:0:0:
303,62,36328,6,4,B|217:76|120:136,1,160
215,166,36957,1,0,0:0:0:0:
150,212,37167,1,0,0:0:0:0:
82,168,37377,2,0,B|82:267,1,80
80,328,37797,1,0,0:0:0:0:
119,328,37901,1,0,0:0:0:0:
159,328,38006,1,0,0:0:0:0:
159,328,38216,5,0,0:0:0:0:
160,247,38426,2,0,B|174:206|205:172,1,80
256,121,38845,1,0,0:0:0:0:
336,122,39055,1,0,0:0:0:0:
376,123,39160,1,0,0:0:0:0:
416,123,39265,2,0,B|443:152|456:199,2,80
416,123,39894,1,0,0:0:0:0:
363,62,40104,6,0,B|281:66|177:120,1,160,4|0,0:0|0:0,0:0:0:0:
138,140,40734,1,0,0:0:0:0:
138,140,40943,1,0,0:0:0:0:
138,140,41153,1,0,0:0:0:0:
138,140,41363,2,0,B|200:185|302:200,1,160
363,175,41992,1,0,0:0:0:0:
363,175,42097,1,0,0:0:0:0:
338,251,42307,1,0,0:0:0:0:
338,251,42412,1,0,0:0:0:0:
258,279,42622,5,0,0:0:0:0:
186,314,42831,1,0,0:0:0:0:
148,299,42936,1,0,0:0:0:0:
112,280,43041,1,0,0:0:0:0:
79,257,43146,1,0,0:0:0:0:
49,229,43251,1,0,0:0:0:0:
119,190,43461,6,0,B|103:144|60:110,1,80,4|0,0:0|0:0,0:0:0:0:
18,67,43880,1,0,0:0:0:0:
90,33,44090,2,0,B|168:11|269:39,1,160
319,70,44720,1,0,0:0:0:0:
397,58,44929,1,0,0:0:0:0:
397,58,45034,1,0,0:0:0:0:
397,58,45139,6,0,B|397:158,1,80,4|0,0:0|0:0,0:0:0:0:
396,218,45559,1,0,0:0:0:0:
396,218,45769,1,0,0:0:0:0:
396,218,45873,1,0,0:0:0:0:
396,218,45978,1,0,0:0:0:0:
320,190,46188,2,0,B|240:208|160:268,1,160
134,326,46818,5,0,0:0:0:0:
213,331,47027,1,0,0:0:0:0:
284,294,47237,1,0,0:0:0:0:
294,214,47447,1,0,0:0:0:0:
239,155,47657,1,0,0:0:0:0:
160,138,47866,1,0,0:0:0:0:
91,179,48076,1,0,0:0:0:0:
84,258,48286,1,0,0:0:0:0:
132,321,48496,5,4,0:0:0:0:
308,286,48811,1,4,0:0:0:0:
188,151,49125,1,4,0:0:0:0:
188,151,49335,1,4,0:0:0:0:
205,245,49545,5,0,0:0:0:0:
205,245,49650,1,0,0:0:0:0:
205,245,49755,1,2,0:0:0:0:
205,245,49859,1,0,0:0:0:0:
205,245,49964,1,0,0:0:0:0:
205,245,50069,1,0,0:0:0:0:
205,245,50174,5,4,0:0:0:0:
120,198,50384,1,0,0:0:0:0:
120,101,50594,1,0,0:0:0:0:
206,59,50804,2,0,B|205:14,1,40
301,20,51118,2,0,B|302:68,1,40
387,104,51433,1,0,0:0:0:0:
387,200,51643,1,0,0:0:0:0:
308,254,51852,5,0,0:0:0:0:
259,254,51957,1,0,0:0:0:0:
162,254,52167,1,0,0:0:0:0:
161,205,52272,1,0,0:0:0:0:
64,205,52482,1,0,0:0:0:0:
64,108,52692,2,0,B|95:71|147:66,1,80
227,69,53111,1,0,0:0:0:0:
227,69,53216,1,0,0:0:0:0:
227,69,53321,1,0,0:0:0:0:
227,69,53426,1,0,0:0:0:0:
227,69,53531,5,4,0:0:0:0:
318,40,53741,1,0,0:0:0:0:
395,95,53950,1,0,0:0:0:0:
476,146,54160,2,0,B|409:189|311:204,1,160
237,164,54790,1,0,0:0:0:0:
213,256,54999,1,0,0:0:0:0:
301,292,55209,2,0,B|380:319,1,80
421,298,55524,1,0,0:0:0:0:
466,281,55629,2,0,B|447:188,1,80
391,126,56048,5,0,0:0:0:0:
391,126,56468,1,4,0:0:0:0:
317,63,56678,1,0,0:0:0:0:
221,62,56887,5,0,0:0:0:0:
172,62,56992,1,0,0:0:0:0:
123,61,57097,1,0,0:0:0:0:
40,109,57307,1,0,0:0:0:0:
40,109,57517,2,0,B|56:184|111:265,1,160
182,199,58146,1,0,0:0:0:0:
248,268,58356,1,0,0:0:0:0:
176,332,58566,1,0,0:0:0:0:
220,350,58671,1,0,0:0:0:0:
266,360,58776,1,0,0:0:0:0:
311,347,58880,1,0,0:0:0:0:
355,328,58985,1,0,0:0:0:0:
439,283,59195,6,0,B|418:244|377:209,1,80
336,162,59615,1,0,0:0:0:0:
336,162,59825,2,0,B|348:120|388:85,2,80,0|0|4,0:0|0:0|0:0,0:0:0:0:
256,272,60664,5,0,0:0:0:0:
256,272,60873,1,0,0:0:0:0:
160,224,61083,1,0,0:0:0:0:
160,224,61293,1,0,0:0:0:0:
160,128,61503,1,0,0:0:0:0:
160,128,61713,1,0,0:0:0:0:
256,80,61922,5,0,0:0:0:0:
256,80,62027,1,0,0:0:0:0:
256,80,62132,1,0,0:0:0:0:
352,128,62342,1,0,0:0:0:0:
352,128,62447,1,0,0:0:0:0:
352,128,62552,1,0,0:0:0:0:
352,224,62762,2,0,B|352:320,2,80
352,127,63391,2,0,B|167:128,1,160
256,192,64020,12,0,64859,0:0:0:0:
122,76,65279,5,0,0:0:0:0:
66,154,65489,1,2,0:0:0:0:
122,76,65699,1,0,0:0:0:0:
174,155,65908,1,2,0:0:0:0:
122,236,66118,1,0,0:0:0:0:
122,260,66223,1,0,0:0:0:0:
122,284,66328,1,2,0:0:0:0:
122,308,66433,1,0,0:0:0:0:
122,332,66538,1,4,0:0:0:0:
252,312,66957,5,0,0:0:0:0:
326,341,67167,1,0,0:0:0:0:
400,310,67377,1,0,0:0:0:0:
326,279,67587,2,0,B|325:117,1,160
325,38,68216,1,0,0:0:0:0:
244,38,68426,1,0,0:0:0:0:
244,38,68636,6,0,B|203:112|252:204,1,160
366,112,69265,1,0,0:0:0:0:
490,192,69475,2,0,B|526:111|479:21,1,160
420,54,70104,5,0,0:0:0:0:
341,72,70314,1,0,0:0:0:0:
341,72,70419,1,0,0:0:0:0:
341,72,70524,1,0,0:0:0:0:
262,55,70734,2,0,B|188:91,1,80
190,89,71048,1,0,0:0:0:0:
119,128,71258,1,0,0:0:0:0:
119,168,71363,1,0,0:0:0:0:
189,211,71573,1,0,0:0:0:0:
189,291,71783,1,0,0:0:0:0:
255,354,71992,5,0,0:0:0:0:
255,273,72202,1,0,0:0:0:0:
255,192,72412,1,0,0:0:0:0:
255,273,72622,1,0,0:0:0:0:
255,354,72831,1,0,0:0:0:0:
323,291,73041,1,0,0:0:0:0:
323,210,73251,2,0,B|405:210,1,80
484,209,73671,5,0,0:0:0:0:
448,137,73880,1,0,0:0:0:0:
387,84,74090,1,0,0:0:0:0:
355,157,74300,2,0,B|282:201|195:208,1,160
133,169,74929,1,0,0:0:0:0:
116,205,75034,1,0,0:0:0:0:
128,243,75139,1,0,0:0:0:0:
156,271,75244,1,0,0:0:0:0:
194,282,75349,1,0,0:0:0:0:
272,266,75559,1,0,0:0:0:0:
272,266,75664,1,0,0:0:0:0:
379,318,75978,1,0,0:0:0:0:
379,318,76188,2,0,B|437:260|461:179,1,160
406,122,76818,5,0,0:0:0:0:
406,122,77027,2,0,B|326:92,1,80
262,136,77447,2,0,B|179:166,1,80
109,142,77866,2,0,B|30:121,1,80
52,199,78286,2,0,B|82:275,1,80
81,273,78601,1,0,0:0:0:0:
81,273,78706,2,0,B|178:296,1,80
232,259,79125,2,0,B|320:232,1,80
380,271,79545,1,0,0:0:0:0:
380,271,79650,1,0,0:0:0:0:
380,271,79755,1,0,0:0:0:0:
438,216,79964,2,0,B|528:248,2,80
256,192,80489,12,0,81643,0:0:0:0:
256,192,82062,12,0,83321,0:0:0:0:
256,192,83741,12,0,87097,0:0:0:0:
