osu file format v12

[General]
AudioFilename: Sakakibara Yui - Soshite Boku wa(full).mp3
AudioLeadIn: 0
PreviewTime: 57048
Countdown: 0
SampleSet: Soft
StackLeniency: 0.7
Mode: 0
LetterboxInBreaks: 0

[Editor]
DistanceSpacing: 0
BeatDivisor: 4
GridSize: 16

[Metadata]
Title:Soshite Boku wa...
TitleUnicode:そして僕は...
Artist:Sakakibara Yui
ArtistUnicode:榊原ゆい
Creator:minyeob
Version:Full-Normal
Source:PRISM ARK
Tags:quintitem
BeatmapID:51079
BeatmapSetID:13886

[Difficulty]
HPDrainRate:5
CircleSize:4
OverallDifficulty:5
ApproachRate:5
SliderMultiplier:1.4
SliderTickRate:1

[Events]
//Background and Video events
Video,-4444,"Prism Ark OP full... PV.flv"
0,0,"bg%20full.jpg",0,0
//Break Periods
2,19091,24404
2,40909,46223
2,74056,79369
2,91259,96572
2,163427,182167
//Storyboard Layer 0 (Background)
//Storyboard Layer 1 (Fail)
//Storyboard Layer 2 (Pass)
//Storyboard Layer 3 (Foreground)
//Storyboard Sound Samples
//Background Colour Transformations
3,100,163,162,255

[TimingPoints]
430,419.58041958042,4,2,0,70,1,0
127877,-100,4,1,0,80,0,0
129031,-100,4,2,0,100,0,0
129450,-100,4,2,0,70,0,0
143087,-133.333333333333,4,2,0,70,0,0
144450,-100,4,2,0,70,0,0
182947,-100,4,2,0,40,0,0
195115,-100,4,2,0,70,0,0

[Colours]
Combo1 : 255,255,255
Combo2 : 128,128,255
Combo3 : 255,255,128
Combo4 : 255,128,255

[HitObjects]
256,96,8402,1,4,0:0:0:0:
148,126,8821,2,0,B|77:139|40:212,2,140,2|0|2,0:0|0:0|0:0,0:0:0:0:
223,186,10080,1,2,0:0:0:0:
223,186,10290,1,0,0:0:0:0:
223,186,10499,2,0,B|294:197|323:291,2,140,2|0|2,0:0|0:0|0:0,0:0:0:0:
139,112,11758,6,0,B|139:37,2,70,0|2|0,0:0|0:0|0:0,0:0:0:0:
137,224,12597,1,2,0:0:0:0:
137,224,13017,1,0,0:0:0:0:
249,223,13436,2,0,B|333:223,2,70,0|2|0,0:0|0:0|0:0,0:0:0:0:
250,110,14276,2,0,B|290:46|392:33,1,140,0|2,0:0|0:0,0:0:0:0:
427,130,15115,2,0,B|476:180|500:261,1,140,0|2,0:0|0:0,0:0:0:0:
397,302,15954,6,0,B|347:340|242:365,2,140,0|2|0,0:0|0:0|0:0,0:0:0:0:
321,219,17213,1,0,0:0:0:0:
321,219,17423,1,2,0:0:0:0:
321,219,17632,1,0,0:0:0:0:
238,143,18052,2,0,B|165:159|98:216,1,140,2|2,0:0|0:0,0:0:0:0:
112,315,18891,1,4,0:0:0:0:
409,107,25604,5,4,0:0:0:0:
301,106,26024,2,0,B|230:122|189:195,1,140,0|2,0:0|0:0,0:0:0:0:
191,300,26863,1,0,0:0:0:0:
191,300,27073,1,0,0:0:0:0:
191,300,27283,2,0,B|58:288|68:156,2,210,2|0|2,0:0|0:0|0:0,0:0:0:0:
257,209,28961,5,0,0:0:0:0:
151,172,29381,1,2,0:0:0:0:
258,142,29800,1,0,0:0:0:0:
152,103,30220,1,2,0:0:0:0:
152,103,30430,2,0,B|152:18,1,70
255,75,31059,1,2,0:0:0:0:
255,75,31478,2,0,B|409:74,1,140,0|2,0:0|0:0,0:0:0:0:
433,179,32318,6,0,B|406:243|304:288,1,140,0|2,0:0|0:0,0:0:0:0:
216,220,33157,2,0,B|148:192|109:104,1,140,0|2,0:0|0:0,0:0:0:0:
118,123,33786,1,0,0:0:0:0:
118,123,33996,2,0,B|144:58|242:30,1,140,0|2,0:0|0:0,0:0:0:0:
304,112,34835,2,0,B|370:125|397:214,2,140,0|2|0,0:0|0:0|0:0,0:0:0:0:
208,171,36094,5,2,0:0:0:0:
208,171,36513,1,0,0:0:0:0:
96,172,36933,2,0,B|97:88,1,70,2|0,0:0|0:0,0:0:0:0:
189,38,37562,2,0,B|287:38,1,70,0|2,0:0|0:0,0:0:0:0:
371,39,38192,1,0,0:0:0:0:
371,150,38611,1,2,0:0:0:0:
270,212,39031,6,4,B|215:223|166:261,2,105
270,212,39870,1,0,0:0:0:0:
338,123,40290,1,2,0:0:0:0:
318,70,40499,1,0,0:0:0:0:
267,46,40709,1,4,0:0:0:0:
41,223,47423,5,0,0:0:0:0:
125,149,47842,2,0,B|168:148|174:87,1,70,2|0,0:0|0:0,0:0:0:0:
213,67,48262,2,0,B|280:76|300:165,1,140,0|2,0:0|0:0,0:0:0:0:
381,241,49101,2,0,B|470:215|476:138,1,140,0|2,0:0|0:0,0:0:0:0:
474,148,49730,1,0,0:0:0:0:
440,104,49940,2,0,B|421:28|339:11,1,140,0|2,0:0|0:0,0:0:0:0:
297,41,50569,5,0,0:0:0:0:
297,41,50779,2,0,B|298:197,2,140,0|2|0,0:0|0:0|0:0,0:0:0:0:
184,41,52038,2,0,B|106:51|75:141,1,140,2|0,0:0|0:0,0:0:0:0:
167,196,52877,2,0,B|180:267|278:293,1,140,2|0,0:0|0:0,0:0:0:0:
332,200,53716,6,0,B|341:115|457:106,2,140,2|0|2,0:0|0:0|0:0,0:0:0:0:
231,249,54975,2,0,B|222:331|149:372,2,140,2|2|4,0:0|0:0|0:0,0:0:0:0:
182,180,56129,1,4,0:0:0:0:
227,109,56443,1,4,0:0:0:0:
279,90,56653,1,4,0:0:0:0:
389,110,57073,1,2,0:0:0:0:
463,193,57492,6,0,B|446:280|348:297,1,140,0|2,0:0|0:0,0:0:0:0:
338,200,58332,1,0,0:0:0:0:
338,200,58541,2,0,B|338:119,2,70
281,200,59171,1,0,0:0:0:0:
169,201,59590,1,2,0:0:0:0:
169,201,59800,1,0,0:0:0:0:
169,201,60010,1,0,0:0:0:0:
175,85,60430,6,4,B|245:103|282:182,1,140,4|4,0:0|0:0,0:0:0:0:
276,285,61269,1,2,0:0:0:0:
183,221,61688,1,0,0:0:0:0:
183,221,61898,1,0,0:0:0:0:
183,221,62108,2,0,B|112:232|65:321,2,140,2|0|2,0:0|0:0|0:0,0:0:0:0:
285,174,63367,1,0,0:0:0:0:
392,203,63786,2,0,B|468:184|508:117,1,140,2|4,0:0|0:0,0:0:0:0:
426,42,64625,5,2,0:0:0:0:
426,42,64835,1,0,0:0:0:0:
316,66,65255,1,0,0:0:0:0:
316,66,65464,1,2,0:0:0:0:
206,43,65884,2,0,B|148:84|123:170,1,140,0|2,0:0|0:0,0:0:0:0:
126,212,66513,1,0,0:0:0:0:
182,211,66723,2,0,B|250:222|328:296,2,140,0|2|4,0:0|0:0|0:0,0:0:0:0:
256,112,68402,5,2,0:0:0:0:
160,192,68821,1,2,0:0:0:0:
256,272,69241,1,2,0:0:0:0:
256,272,69450,2,0,B|255:358,2,70,0|2|0,0:0|0:0|0:0,0:0:0:0:
312,272,70080,2,0,B|391:255|433:169,1,140,0|2,0:0|0:0,0:0:0:0:
477,190,70709,2,0,B|448:121|350:81,1,140
322,94,71339,1,4,0:0:0:0:
219,139,71758,6,2,B|146:153|102:235,1,140,2|0,0:0|0:0,0:0:0:0:
218,270,72597,2,0,B|296:270,2,70,0|2|0,0:0|0:0|0:0,0:0:0:0:
219,213,73227,2,0,B|219:140,2,70,0|2|0,0:0|0:0|0:0,0:0:0:0:
162,212,73856,1,4,0:0:0:0:
257,88,80569,5,4,0:0:0:0:
257,88,80779,1,0,0:0:0:0:
257,88,80989,2,0,B|187:99|144:173,1,140,0|2,0:0|0:0,0:0:0:0:
256,191,81828,2,0,B|330:209|370:299,1,140,0|2,0:0|0:0,0:0:0:0:
360,343,82457,1,0,0:0:0:0:
360,343,82667,2,2,B|498:344,2,105
303,343,83506,1,0,0:0:0:0:
191,344,83926,6,0,B|117:320|75:241,1,140,2|0,0:0|0:0,0:0:0:0:
168,183,84765,2,0,B|245:195|288:288,1,140,2|0,0:0|0:0,0:0:0:0:
387,266,85604,2,0,B|386:344,2,70,2|0|0,0:0|0:0|0:0,0:0:0:0:
385,153,86443,1,2,0:0:0:0:
385,153,86653,1,0,0:0:0:0:
385,153,86863,1,0,0:0:0:0:
286,99,87283,2,0,B|118:100,1,140,2|0,0:0|0:0,0:0:0:0:
256,192,87807,12,2,91059,0:0:0:0:
258,312,97772,5,4,0:0:0:0:
161,254,98192,1,2,0:0:0:0:
64,198,98611,2,0,B|92:135|151:78,1,140,0|2,0:0|0:0,0:0:0:0:
144,84,99241,1,2,0:0:0:0:
144,84,99450,1,0,0:0:0:0:
245,133,99870,1,2,0:0:0:0:
353,105,100290,2,0,B|424:119|495:171,1,140,0|2,0:0|0:0,0:0:0:0:
480,216,100919,1,2,0:0:0:0:
478,272,101129,6,0,B|414:313|330:326,1,140,0|2,0:0|0:0,0:0:0:0:
168,323,101968,2,0,B|90:320|9:270,1,140,0|2,0:0|0:0,0:0:0:0:
33,228,102597,1,2,0:0:0:0:
34,171,102807,2,0,B|66:68|203:43,1,210
301,45,103856,1,2,0:0:0:0:
301,45,104066,1,2,0:0:0:0:
326,148,104485,6,0,B|400:161|424:243,2,140,0|2|0,0:0|0:0|0:0,0:0:0:0:
197,148,105744,1,2,0:0:0:0:
197,148,105954,1,2,0:0:0:0:
196,148,106164,2,0,B|112:161|93:253,2,140,0|2|0,0:0|0:0|0:0,0:0:0:0:
257,241,107423,6,0,B|256:319,2,70,2|0|0,0:0|0:0|0:0,0:0:0:0:
257,128,108262,2,0,B|258:48,2,70,2|0|0,0:0|0:0|0:0,0:0:0:0:
158,180,109101,2,0,B|30:178|20:329,2,210,2|0|2,0:0|0:0|0:0,0:0:0:0:
258,127,110779,1,2,0:0:0:0:
354,184,111199,2,2,B|354:307,2,105,0|2|2,0:0|0:0|0:0,0:0:0:0:
410,184,112038,2,0,B|444:118|399:29,1,140,0|0,0:0|0:0,0:0:0:0:
296,52,112877,6,0,B|181:68|116:192,2,210,4|0|2,0:0|0:0|0:0,0:0:0:0:
296,164,114555,2,0,B|296:320,2,140,0|2|0,0:0|0:0|0:0,0:0:0:0:
239,164,115604,2,0,B|76:164,1,140,0|0,0:0|0:0,0:0:0:0:
98,107,116234,6,0,B|123:35|206:20,2,140,0|2|0,0:0|0:0|0:0,0:0:0:0:
211,150,117492,1,0,0:0:0:0:
211,150,117702,1,0,0:0:0:0:
211,150,117912,2,0,B|288:168|319:254,2,140,0|2|0,0:0|0:0|0:0,0:0:0:0:
132,230,119171,1,4,0:0:0:0:
209,310,119590,5,0,0:0:0:0:
365,247,120220,2,0,B|437:233|485:163,1,140
482,115,120849,2,0,B|441:51|357:39,3,140,0|0|2|0,0:0|0:0|0:0|0:0,0:0:0:0:
261,75,122527,1,4,0:0:0:0:
261,75,122737,1,0,0:0:0:0:
261,75,122947,6,0,B|188:88|158:171,1,140,0|2,0:0|0:0,0:0:0:0:
269,190,123786,2,0,B|342:200|358:289,1,140,0|2,0:0|0:0,0:0:0:0:
356,341,124416,1,0,0:0:0:0:
356,341,124625,2,0,B|434:341,2,70,0|0|2,0:0|0:0|0:0,0:0:0:0:
258,311,125464,5,0,0:0:0:0:
258,311,125674,2,0,B|179:309|112:255,1,140
77,240,126304,2,0,B|21:278|0:363,2,140,0|2|0,0:0|0:0|0:0,0:0:0:0:
156,160,127562,1,0,0:0:0:0:
156,160,127772,1,0,0:0:0:0:
156,103,127982,2,4,B|40:103,2,105
212,103,128821,1,4,0:0:0:0:
324,104,129241,5,4,0:0:0:0:
325,215,129660,6,0,B|336:293|433:305,2,140,0|2|0,0:0|0:0|0:0,0:0:0:0:
323,158,130709,1,2,0:0:0:0:
323,158,130919,2,0,B|410:158,2,70,2|0|0,0:0|0:0|0:0,0:0:0:0:
210,158,131758,1,2,0:0:0:0:
210,158,131968,1,2,0:0:0:0:
210,158,132178,2,0,B|209:73|110:64,2,140,0|6|0,0:0|0:0|0:0,0:0:0:0:
210,269,133436,6,0,B|132:269,1,70,2|0,0:0|0:0,0:0:0:0:
51,199,134066,2,0,B|51:119,1,70,0|2,0:0|0:0,0:0:0:0:
139,60,134695,2,0,B|167:125|254:143,1,140,0|2,0:0|0:0,0:0:0:0:
302,142,135325,1,0,0:0:0:0:
302,142,135534,2,0,B|302:233,1,70,0|2,0:0|0:0,0:0:0:0:
302,268,135954,2,0,B|383:268,2,70,2|0|4,0:0|0:0|0:0,0:0:0:0:
189,268,136793,5,2,0:0:0:0:
189,268,137003,2,0,B|114:252|72:187,1,140,0|0,0:0|0:0,0:0:0:0:
74,136,137632,1,2,0:0:0:0:
165,70,138052,2,0,B|239:88|277:168,1,140,0|2,0:0|0:0,0:0:0:0:
362,218,138891,2,0,B|451:219,2,70,0|2|2,0:0|0:0|0:0,0:0:0:0:
363,161,139520,1,0,0:0:0:0:
363,161,139730,1,0,0:0:0:0:
361,48,140150,6,0,B|432:64|484:142,2,140,4|0|2,0:0|0:0|0:0,0:0:0:0:
256,88,141409,1,2,0:0:0:0:
163,192,141828,1,2,0:0:0:0:
255,297,142248,1,2,0:0:0:0:
347,192,142667,1,0,0:0:0:0:
347,192,142877,1,2,0:0:0:0:
256,88,143297,1,0,0:0:0:0:
256,87,143506,2,0,B|227:151|292:209|250:304,1,209.999993741512,2|0,0:0|0:0,0:0:0:0:
332,304,144765,5,2,0:0:0:0:
378,273,144975,1,0,0:0:0:0:
415,231,145185,1,2,0:0:0:0:
401,176,145395,1,0,0:0:0:0:
362,135,145604,1,2,0:0:0:0:
234,103,146024,5,4,0:0:0:0:
128,141,146443,2,0,B|76:154|31:187,2,105,2|0|0,0:0|0:0|0:0,0:0:0:0:
173,173,147283,2,0,B|172:320,1,140,2|0,0:0|0:0,0:0:0:0:
220,341,147912,1,2,0:0:0:0:
220,341,148122,2,0,B|276:332|332:301,1,105,2|0,0:0|0:0,0:0:0:0:
394,270,148751,1,2,0:0:0:0:
394,270,148961,2,0,B|466:288|508:355,2,140,2|0|2,0:0|0:0|0:0,0:0:0:0:
329,178,150220,6,0,B|329:98,1,70,2|0,0:0|0:0,0:0:0:0:
194,107,150849,2,0,B|194:193,1,70,0|2,0:0|0:0,0:0:0:0:
194,289,151478,1,0,0:0:0:0:
81,289,151898,1,2,0:0:0:0:
79,176,152318,2,0,B|124:112|203:100,1,140,0|4,0:0|0:0,0:0:0:0:
193,101,152947,1,0,0:0:0:0:
193,101,153157,5,0,0:0:0:0:
304,101,153576,1,2,0:0:0:0:
304,213,153996,2,0,B|368:229|412:302,2,140,0|2|0,0:0|0:0|0:0,0:0:0:0:
191,211,155255,2,0,B|121:225|64:316,2,140,2|0|2,0:0|0:0|0:0,0:0:0:0:
192,154,156304,1,2,0:0:0:0:
192,154,156513,5,0,0:0:0:0:
296,113,156933,1,2,0:0:0:0:
342,215,157353,1,0,0:0:0:0:
236,252,157772,1,2,0:0:0:0:
189,149,158192,2,0,B|45:149,1,140,0|2,0:0|0:0,0:0:0:0:
49,92,158821,1,2,0:0:0:0:
49,92,159031,1,0,0:0:0:0:
160,91,159450,2,0,B|235:96|280:182,1,140,2|0,0:0|0:0,0:0:0:0:
273,278,160290,6,0,B|351:266|408:181,1,140,2|0,0:0|0:0,0:0:0:0:
391,94,161129,1,2,0:0:0:0:
279,94,161548,2,0,B|240:108|211:138,2,70,0|0|2,0:0|0:0|0:0,0:0:0:0:
277,150,162178,2,0,B|317:156|340:189,2,70,0|0|2,0:0|0:0|0:0,0:0:0:0:
277,206,162807,1,0,0:0:0:0:
277,206,163227,1,4,0:0:0:0:
416,86,183367,5,4,0:0:0:0:
255,242,184206,1,0,0:0:0:0:
75,102,185045,1,0,0:0:0:0:
292,155,185884,1,2,0:0:0:0:
145,324,186723,5,4,0:0:0:0:
173,101,187562,1,0,0:0:0:0:
391,153,188402,1,0,0:0:0:0:
184,240,189241,1,2,0:0:0:0:
285,40,190080,5,4,0:0:0:0:
111,181,190919,1,0,0:0:0:0:
220,155,191339,1,2,0:0:0:0:
302,230,191758,1,0,0:0:0:0:
229,315,192178,1,2,0:0:0:0:
121,283,192597,1,0,0:0:0:0:
71,182,193017,1,2,0:0:0:0:
113,78,193436,1,4,0:0:0:0:
221,48,193856,5,0,0:0:0:0:
221,48,194066,1,0,0:0:0:0:
221,48,194276,1,2,0:0:0:0:
319,101,194695,1,0,0:0:0:0:
239,180,195115,2,4,B|276:241|366:261,1,140
450,204,195954,1,4,0:0:0:0:
490,308,196374,1,4,0:0:0:0:
433,336,196583,5,0,0:0:0:0:
433,336,196793,2,0,B|300:336,1,105
328,251,197423,2,0,B|331:170|275:117,1,140
243,81,198052,2,0,B|177:93|121:156,3,140
123,207,199520,1,0,0:0:0:0:
123,207,199730,1,0,0:0:0:0:
179,207,199940,6,0,B|179:289,1,70
269,342,200569,1,0,0:0:0:0:
269,342,200779,2,0,B|353:329|401:252,1,140
389,216,201409,1,0,0:0:0:0:
472,141,201828,6,0,B|444:74|347:46,1,140
312,53,202457,1,0,0:0:0:0:
312,53,202667,2,0,B|237:74|188:160,1,140
200,192,203297,6,0,B|115:192,1,70,0|4,0:0|0:0,0:0:0:0:
130,304,203926,2,0,B|208:305,1,70
312,306,204555,2,0,B|312:384,2,70
368,306,205185,1,0,0:0:0:0:
368,306,205395,2,0,B|369:152,1,140
369,109,206024,1,0,0:0:0:0:
369,57,206234,6,4,B|303:26|217:63,1,140,0|0,0:0|0:0,0:0:0:0:
231,107,206863,1,0,0:0:0:0:
149,183,207283,1,4,0:0:0:0:
229,260,207702,1,0,0:0:0:0:
229,260,207912,1,0,0:0:0:0:
229,260,208122,2,0,B|314:260,2,70,4|0|0,0:0|0:0|0:0,0:0:0:0:
116,262,208961,2,0,B|38:275|11:352,2,140,4|0|4,0:0|0:0|0:0,0:0:0:0:
117,203,210010,5,0,0:0:0:0:
118,90,210430,1,0,0:0:0:0:
118,90,210639,1,4,0:0:0:0:
230,90,211059,6,0,B|301:110|352:200,1,140,0|4,0:0|0:0,0:0:0:0:
337,231,211688,1,0,0:0:0:0:
337,231,211898,2,2,B|460:231,2,105
280,229,212737,2,0,B|280:307,2,70,0|0|4,0:0|0:0|0:0,0:0:0:0:
195,157,213576,6,0,B|124:170|87:243,2,140,2|0|2,0:0|0:0|0:0,0:0:0:0:
270,217,214835,1,2,0:0:0:0:
270,217,215045,1,0,0:0:0:0:
270,217,215254,2,0,B|341:228|389:313,2,140,2|0|2,0:0|0:0|0:0,0:0:0:0:
267,104,216513,6,0,B|267:24,2,70
154,103,217353,1,2,0:0:0:0:
154,103,217562,2,0,B|84:116|48:207,1,140
52,249,218192,1,2,0:0:0:0:
163,250,218611,2,0,B|326:250,1,140,0|2,0:0|0:0,0:0:0:0:
304,362,219450,2,0,B|378:348|422:262,1,140,0|6,0:0|0:0,0:0:0:0:
415,223,220080,5,0,0:0:0:0:
359,233,220290,2,0,B|289:244|246:318,2,140,0|2|0,0:0|0:0|0:0,0:0:0:0:
359,344,221548,1,2,0:0:0:0:
359,344,221758,1,0,0:0:0:0:
359,344,221968,2,2,B|507:344,2,140
246,342,223227,6,0,B|172:318|130:239,1,140
140,143,224066,2,0,B|140:60,1,70,2|0,0:0|0:0,0:0:0:0:
252,74,224695,2,0,B|251:152,2,70,0|2|0,0:0|0:0|0:0,0:0:0:0:
308,74,225325,2,0,B|373:87|403:180,2,140,0|2|0,0:0|0:0|0:0,0:0:0:0:
251,73,226374,1,2,0:0:0:0:
251,73,226583,1,0,0:0:0:0:
256,192,227003,12,0,230360,0:0:0:0:
