osu file format v12

[General]
AudioFilename: Sakakibara Yui - Soshite Boku wa(full).mp3
AudioLeadIn: 0
PreviewTime: 57048
Countdown: 0
SampleSet: Soft
StackLeniency: 0.7
Mode: 0
LetterboxInBreaks: 0

[Editor]
Bookmarks: 218506
DistanceSpacing: 0.8
BeatDivisor: 4
GridSize: 16

[Metadata]
Title:Soshite Boku wa...
TitleUnicode:そして僕は...
Artist:Sakakibara Yui
ArtistUnicode:榊原ゆい
Creator:minyeob
Version:Full-Hard
Source:PRISM ARK
Tags:quintitem
BeatmapID:51316
BeatmapSetID:13886

[Difficulty]
HPDrainRate:7
CircleSize:5
OverallDifficulty:7
ApproachRate:7
SliderMultiplier:1.6
SliderTickRate:1

[Events]
//Background and Video events
Video,-4444,"Prism Ark OP full... PV.flv"
0,0,"bg%20full.jpg",0,0
//Break Periods
2,19091,24704
2,91259,96872
2,163427,172397
2,183567,189180
//Storyboard Layer 0 (Background)
//Storyboard Layer 1 (Fail)
//Storyboard Layer 2 (Pass)
//Storyboard Layer 3 (Foreground)
//Storyboard Sound Samples
//Background Colour Transformations
3,100,163,162,255

[TimingPoints]
430,419.58041958042,4,2,0,70,1,0
109835,-200,4,2,0,70,0,0
110674,-100,4,2,0,70,0,0
127877,-100,4,1,0,80,0,0
129031,-100,4,2,0,100,0,0
129450,-100,4,2,0,70,0,0
142772,-200,4,2,0,70,0,0
144450,-100,4,2,0,70,0,0
144450,-100,4,2,0,70,0,0
181583,-200,4,2,0,30,0,0
183314,-100,4,2,0,70,0,0
189660,-100,4,2,0,40,0,0
195115,-100,4,2,0,70,0,0

[Colours]
Combo1 : 255,255,255
Combo2 : 128,128,255
Combo3 : 255,255,128
Combo4 : 255,128,255

[HitObjects]
256,96,8402,1,4,0:0:0:0:
148,126,8821,2,0,B|77:139|40:212,2,120,2|0|2,0:0|0:0|0:0,0:0:0:0:
190,174,9660,2,0,B|191:338,1,160,0|2,0:0|0:0,0:0:0:0:
247,364,10290,1,0,0:0:0:0:
247,364,10499,2,0,B|312:354|381:288,2,120,0|2|0,0:0|0:0|0:0,0:0:0:0:
189,334,11339,2,0,B|188:168,1,160
188,174,11968,1,0,0:0:0:0:
188,174,12178,5,0,0:0:0:0:
78,108,12597,1,2,0:0:0:0:
190,46,13017,1,0,0:0:0:0:
246,77,13227,1,0,0:0:0:0:
300,110,13436,2,0,B|384:110,2,80,2|0|0,0:0|0:0|0:0,0:0:0:0:
207,199,14276,1,2,0:0:0:0:
154,163,14485,1,0,0:0:0:0:
100,128,14695,2,0,B|100:37,2,80,0|0|2,0:0|0:0|0:0,0:0:0:0:
158,102,15325,5,0,0:0:0:0:
158,102,15534,2,0,B|240:112|288:200,1,160,0|2,0:0|0:0,0:0:0:0:
284,260,16164,1,0,0:0:0:0:
284,260,16374,2,0,B|378:246|436:164,1,160,0|2,0:0|0:0,0:0:0:0:
378,135,17003,2,0,B|360:97|313:84,1,80
198,38,17632,5,2,0:0:0:0:
151,82,17842,1,0,0:0:0:0:
204,117,18052,2,0,B|237:143,2,40
149,151,18471,1,2,0:0:0:0:
36,212,18891,1,4,0:0:0:0:
81,79,25604,6,0,B|84:175|203:183,1,160,4|0,0:0|0:0,0:0:0:0:
185,116,26234,2,0,B|356:116,1,160
346,180,26863,2,0,B|437:165|445:64,2,160,0|0|0,0:0|0:0|0:0,0:0:0:0:
346,244,27912,1,0,0:0:0:0:
346,244,28122,2,0,B|167:243,1,160,0|2,0:0|0:0,0:0:0:0:
132,207,28751,5,0,0:0:0:0:
132,207,28961,2,0,B|72:273|136:358,2,160,0|0|0,0:0|0:0|0:0,0:0:0:0:
187,174,30010,1,0,0:0:0:0:
132,140,30220,1,0,0:0:0:0:
188,110,30430,1,0,0:0:0:0:
243,140,30639,2,0,B|319:88|413:155,2,160,0|0|0,0:0|0:0|0:0,0:0:0:0:
243,204,31688,1,0,0:0:0:0:
243,204,31898,1,2,0:0:0:0:
303,226,32108,6,0,B|307:281|389:278,1,80
369,213,32527,1,0,0:0:0:0:
369,213,32632,1,0,0:0:0:0:
461,187,32947,2,0,B|455:88|343:83,1,160
311,41,33576,1,0,0:0:0:0:
283,100,33786,1,0,0:0:0:0:
228,65,33996,2,0,B|87:64,2,120,0|0|0,0:0|0:0|0:0,0:0:0:0:
283,100,34835,5,0,0:0:0:0:
283,100,35045,1,0,0:0:0:0:
238,146,35255,1,2,0:0:0:0:
238,146,35464,1,0,0:0:0:0:
262,205,35674,6,0,B|246:296|132:310,1,160,0|0,0:0|0:0,0:0:0:0:
110,258,36304,2,0,B|131:176|226:154,1,160
264,203,36933,1,2,0:0:0:0:
264,203,37143,1,0,0:0:0:0:
308,156,37353,2,0,B|383:177|419:266,1,160,0|0,0:0|0:0,0:0:0:0:
369,305,37982,2,0,B|279:288|260:188,1,160,0|0,0:0|0:0,0:0:0:0:
259,135,38611,2,0,B|259:80,4,40
212,50,39346,1,2,0:0:0:0:
307,51,39660,1,0,0:0:0:0:
346,101,39870,5,0,0:0:0:0:
297,143,40080,1,0,0:0:0:0:
306,206,40290,1,2,0:0:0:0:
251,238,40499,1,0,0:0:0:0:
186,248,40709,6,0,B|84:245|52:129,1,160,0|0,0:0|0:0,0:0:0:0:
174,153,41339,1,0,0:0:0:0:
174,153,41548,1,0,0:0:0:0:
139,58,41758,1,0,0:0:0:0:
139,57,41968,2,0,B|214:32|272:96|281:155,1,160,2|0,0:0|0:0,0:0:0:0:
308,242,42807,1,2,0:0:0:0:
309,177,43017,2,0,B|360:168|365:118,1,80
391,68,43436,1,0,0:0:0:0:
391,68,43646,2,0,B|449:80|455:144,1,80,2|0,0:0|0:0,0:0:0:0:
450,181,44066,6,0,B|450:354,1,160,0|0,0:0|0:0,0:0:0:0:
370,287,44695,1,0,0:0:0:0:
336,358,44905,2,0,B|171:357,1,160,0|2,0:0|0:0,0:0:0:0:
143,288,45534,1,0,0:0:0:0:
68,335,45744,2,0,B|68:148,1,160,0|0,0:0|0:0,0:0:0:0:
68,110,46374,2,0,B|22:110,2,40
148,141,46793,5,0,0:0:0:0:
256,55,47003,1,2,0:0:0:0:
369,141,47213,1,0,0:0:0:0:
328,191,47423,6,0,B|366:268,1,80
190,191,47842,2,0,B|143:284,1,80,0|0,0:0|0:0,0:0:0:0:
256,352,48262,1,0,0:0:0:0:
256,352,48471,2,0,B|256:192,1,160
225,135,49101,1,0,0:0:0:0:
289,136,49311,1,0,0:0:0:0:
334,77,49520,1,2,0:0:0:0:
334,77,49730,2,0,B|174:77,1,160
172,141,50360,6,0,B|220:215|168:302,2,160,2|0|2,0:0|0:0|0:0,0:0:0:0:
107,141,51409,1,0,0:0:0:0:
137,85,51618,2,0,B|315:85,1,160,0|2,0:0|0:0,0:0:0:0:
324,143,52248,1,0,0:0:0:0:
260,144,52457,2,0,B|209:223|278:323,1,160,0|2,0:0|0:0,0:0:0:0:
325,296,53087,1,0,0:0:0:0:
325,231,53297,2,0,B|328:179|399:170,1,80
435,153,53716,2,0,B|426:64|324:42,1,160,2|0,0:0|0:0,0:0:0:0:
276,73,54346,1,0,0:0:0:0:
276,73,54555,5,2,0:0:0:0:
224,111,54765,1,0,0:0:0:0:
224,111,54975,2,0,B|97:111,2,120,0|2|0,0:0|0:0|0:0,0:0:0:0:
224,175,55814,1,0,0:0:0:0:
269,220,56024,1,0,0:0:0:0:
269,220,56129,1,4,0:0:0:0:
313,98,56443,1,4,0:0:0:0:
375,84,56653,1,4,0:0:0:0:
437,95,56863,1,0,0:0:0:0:
437,95,56968,1,0,0:0:0:0:
437,95,57073,1,6,0:0:0:0:
496,221,57492,6,0,B|463:303|363:324,1,160,0|2,0:0|0:0,0:0:0:0:
317,267,58122,1,0,0:0:0:0:
316,186,58332,2,0,B|315:97,1,80
235,107,58751,2,0,B|156:144|80:107,1,160,2|0,0:0|0:0,0:0:0:0:
115,34,59381,1,0,0:0:0:0:
194,35,59590,1,2,0:0:0:0:
154,105,59800,2,0,B|154:192,1,80
73,185,60220,5,0,0:0:0:0:
75,104,60430,1,2,0:0:0:0:
188,55,60639,1,0,0:0:0:0:
253,160,60849,2,0,B|221:197|259:246,1,80
327,210,61269,1,2,0:0:0:0:
325,289,61478,2,0,B|429:284|434:180,1,160
508,166,62108,2,0,B|501:110|436:104,1,80,2|0,0:0|0:0,0:0:0:0:
409,45,62527,2,0,B|326:70|308:163,1,160,0|2,0:0|0:0,0:0:0:0:
389,158,63157,1,0,0:0:0:0:
389,158,63367,2,0,B|190:158,1,160,0|4,0:0|0:0,0:0:0:0:
166,107,63996,5,0,0:0:0:0:
230,59,64206,1,2,0:0:0:0:
426,42,64625,5,0,0:0:0:0:
426,42,64835,1,0,0:0:0:0:
349,67,65045,1,0,0:0:0:0:
349,67,65254,1,0,0:0:0:0:
272,44,65464,1,2,0:0:0:0:
205,89,65674,1,0,0:0:0:0:
129,62,65884,2,0,B|71:103|46:189,1,120,0|0,0:0|0:0,0:0:0:0:
57,156,66304,1,2,0:0:0:0:
116,210,66513,1,0,0:0:0:0:
190,181,66723,2,0,B|244:197|300:242,1,120
294,237,67143,1,2,0:0:0:0:
260,303,67353,1,0,0:0:0:0:
327,345,67562,6,0,B|409:322|457:253,2,160,0|2|0,0:0|0:0|0:0,0:0:0:0:
260,303,68611,1,0,0:0:0:0:
194,348,68821,1,2,0:0:0:0:
136,291,69031,1,0,0:0:0:0:
59,261,69241,1,2,0:0:0:0:
127,116,69660,1,2,0:0:0:0:
280,71,70080,1,2,0:0:0:0:
419,149,70499,1,0,0:0:0:0:
419,149,70709,1,2,0:0:0:0:
448,306,71129,1,0,0:0:0:0:
448,306,71339,1,4,0:0:0:0:
304,228,71758,6,0,B|211:245|188:343,2,160,0|2|0,0:0|0:0|0:0,0:0:0:0:
375,191,72807,1,2,0:0:0:0:
304,152,73017,1,0,0:0:0:0:
374,113,73227,1,2,0:0:0:0:
302,77,73436,1,2,0:0:0:0:
277,78,73541,1,0,0:0:0:0:
252,78,73646,1,2,0:0:0:0:
227,78,73751,1,0,0:0:0:0:
202,78,73856,1,2,0:0:0:0:
91,142,74276,6,0,B|154:119|132:32,2,120
46,187,75115,2,0,B|37:288|140:325,1,160
172,244,75744,1,0,0:0:0:0:
255,282,75954,6,0,B|192:305|214:392,2,120
300,237,76793,2,0,B|309:136|206:99,1,160
195,51,77423,1,0,0:0:0:0:
195,51,77632,6,0,B|104:47|56:148,2,160
248,85,78681,1,0,0:0:0:0:
309,67,78891,1,0,0:0:0:0:
355,111,79101,1,0,0:0:0:0:
355,111,79311,2,0,B|420:82|416:6,2,120
317,162,80150,2,0,B|332:209|384:207,1,80
413,155,80569,1,0,0:0:0:0:
181,141,80989,5,0,0:0:0:0:
123,214,81304,1,0,0:0:0:0:
181,290,81618,1,0,0:0:0:0:
181,290,81828,2,0,B|253:350|336:284,1,160
391,291,82457,1,0,0:0:0:0:
361,234,82667,5,0,0:0:0:0:
417,164,82982,1,0,0:0:0:0:
362,84,83297,1,0,0:0:0:0:
362,84,83506,2,0,B|359:30|300:28,1,80
249,29,83926,1,0,0:0:0:0:
249,29,84136,1,0,0:0:0:0:
249,29,84346,6,0,B|251:125|113:137,1,160
83,132,84975,1,0,0:0:0:0:
83,196,85185,2,0,B|269:195,1,160
455,307,86024,6,0,B|453:211|332:191,1,160
293,197,86653,1,0,0:0:0:0:
293,261,86863,2,0,B|99:261,1,160
27,188,87702,5,0,0:0:0:0:
57,328,88122,1,2,0:0:0:0:
121,328,88332,1,0,0:0:0:0:
122,264,88541,2,0,B|126:214|188:208,1,80
236,212,88961,1,2,0:0:0:0:
435,157,89381,6,0,B|477:191,2,40
389,112,89800,1,2,0:0:0:0:
333,79,90010,1,0,0:0:0:0:
277,110,90220,1,2,0:0:0:0:
244,109,90325,1,0,0:0:0:0:
212,109,90429,1,2,0:0:0:0:
177,109,90534,1,0,0:0:0:0:
147,109,90639,1,2,0:0:0:0:
37,109,91059,1,4,0:0:0:0:
471,340,97772,5,4,0:0:0:0:
363,270,98192,1,0,0:0:0:0:
363,270,98402,2,0,B|280:225|286:125,1,160
229,108,99031,2,0,B|184:194,1,80
191,178,99450,1,0,0:0:0:0:
239,297,99870,1,0,0:0:0:0:
201,349,100080,2,0,B|108:347|73:265,1,160
103,210,100709,1,2,0:0:0:0:
79,151,100919,6,0,B|67:100|15:95,2,80
79,215,101548,2,0,B|79:300,1,80
143,300,101968,2,0,B|200:344|266:288,2,120
195,258,102807,2,0,B|250:179|185:94,1,160
131,108,103436,1,0,0:0:0:0:
166,54,103646,1,0,0:0:0:0:
230,55,103856,1,0,0:0:0:0:
264,109,104066,1,2,0:0:0:0:
367,229,104485,6,0,B|436:239|456:324,2,120
367,164,105325,2,0,B|277:142|283:40,1,160
282,45,105954,1,0,0:0:0:0:
218,45,106164,2,0,B|98:45,2,120
218,109,107003,1,0,0:0:0:0:
256,283,107423,6,0,B|301:348,4,40,2|0|2|0|2,0:0|0:0|0:0|0:0|0:0,0:0:0:0:
138,231,108262,1,0,0:0:0:0:
187,190,108471,1,2,0:0:0:0:
146,140,108681,2,0,B|196:81|296:71,1,160,0|2,0:0|0:0,0:0:0:0:
351,73,109311,2,0,B|338:104|366:122|344:159,1,80
348,217,109730,5,0,0:0:0:0:
287,215,109940,2,0,B|255:191|220:227|168:208,1,120
136,263,110779,1,2,0:0:0:0:
106,250,110884,1,0,0:0:0:0:
76,237,110989,1,2,0:0:0:0:
49,219,111094,1,0,0:0:0:0:
27,195,111199,1,2,0:0:0:0:
258,126,111513,1,0,0:0:0:0:
479,197,111828,1,2,0:0:0:0:
444,143,112038,6,0,B|394:137|371:199,1,80
326,144,112457,2,0,B|279:148|271:78,1,80,2|0,0:0|0:0,0:0:0:0:
303,37,112877,6,0,B|223:-19|137:48,1,160
190,88,113506,2,0,B|201:192|111:223,1,160
68,183,114136,2,0,B|57:79|147:48,2,160
18,223,115185,2,0,B|-7:315|86:356,1,160
120,304,115814,2,0,B|190:368|275:298,1,160,2|0,0:0|0:0,0:0:0:0:
265,305,116548,5,0,0:0:0:0:
351,264,116863,1,0,0:0:0:0:
351,264,117073,2,0,B|438:233|420:121,1,160
421,136,117702,1,0,0:0:0:0:
334,72,117912,6,0,B|272:78|287:148,1,80,0|0,0:0|0:0,0:0:0:0:
288,246,118332,2,0,B|343:240|339:185,1,80
333,72,118751,1,0,0:0:0:0:
211,31,118961,1,0,0:0:0:0:
239,155,119171,1,2,0:0:0:0:
394,65,119590,6,0,B|435:80|453:123,1,80
453,182,120010,1,0,0:0:0:0:
416,234,120220,2,0,B|376:324|279:334,1,160,0|0,0:0|0:0,0:0:0:0:
248,290,120849,2,0,B|235:245|182:240,1,80,2|0,0:0|0:0,0:0:0:0:
190,241,121269,1,0,0:0:0:0:
72,288,121688,1,2,0:0:0:0:
35,235,121898,1,0,0:0:0:0:
70,181,122108,2,0,B|126:174|128:110,1,80
125,67,122527,1,2,0:0:0:0:
183,40,122737,6,0,B|154:-4,2,40
254,104,123262,1,2,0:0:0:0:
326,40,123576,1,0,0:0:0:0:
375,81,123786,2,0,B|374:246,1,160,0|2,0:0|0:0,0:0:0:0:
334,289,124416,2,0,B|390:335,2,40
258,236,124940,1,2,0:0:0:0:
176,289,125255,1,0,0:0:0:0:
133,241,125464,2,0,B|85:229|76:176,1,80
136,158,125884,2,0,B|161:79|262:60,1,160,2|0,0:0|0:0,0:0:0:0:
253,61,126513,5,2,0:0:0:0:
253,61,126723,1,0,0:0:0:0:
253,61,126933,1,2,0:0:0:0:
253,61,127143,1,0,0:0:0:0:
288,183,127562,1,2,0:0:0:0:
225,196,127772,1,0,0:0:0:0:
172,158,127982,1,4,0:0:0:0:
172,158,128087,1,0,0:0:0:0:
191,96,128297,1,4,0:0:0:0:
191,96,128402,1,0,0:0:0:0:
245,63,128611,1,4,0:0:0:0:
307,49,128821,2,0,B|382:74|436:153,1,160,0|4,0:0|0:0,0:0:0:0:
378,182,129450,1,0,0:0:0:0:
325,215,129660,6,0,B|343:306|446:361,2,160,0|2|0,0:0|0:0|0:0,0:0:0:0:
372,150,130709,1,0,0:0:0:0:
324,85,130919,1,2,0:0:0:0:
278,150,131129,1,0,0:0:0:0:
278,150,131339,2,0,B|86:149,1,160,0|2,0:0|0:0,0:0:0:0:
69,85,131968,1,0,0:0:0:0:
69,85,132178,2,0,B|258:85,1,160,0|4,0:0|0:0,0:0:0:0:
285,28,132807,5,0,0:0:0:0:
342,83,133017,1,0,0:0:0:0:
342,83,133436,1,2,0:0:0:0:
419,62,133646,1,0,0:0:0:0:
419,62,134066,1,0,0:0:0:0:
452,134,134276,1,2,0:0:0:0:
419,206,134485,1,0,0:0:0:0:
355,158,134695,2,0,B|301:155|300:100,1,80
240,57,135115,2,0,B|176:62|181:119,1,80,2|0,0:0|0:0,0:0:0:0:
199,178,135534,1,0,0:0:0:0:
233,251,135744,1,0,0:0:0:0:
174,306,135954,1,2,0:0:0:0:
109,258,136164,1,0,0:0:0:0:
31,277,136374,6,0,B|27:186|114:138,1,160,0|2,0:0|0:0,0:0:0:0:
164,197,137003,2,0,B|216:260|308:267,1,160
370,309,137632,1,2,0:0:0:0:
370,228,137842,1,0,0:0:0:0:
302,186,138052,1,0,0:0:0:0:
148,55,138471,1,2,0:0:0:0:
148,55,138681,2,0,B|331:55,1,160
376,12,139311,1,2,0:0:0:0:
378,91,139520,1,0,0:0:0:0:
311,135,139730,1,0,0:0:0:0:
354,34,140150,6,0,B|433:56|498:130,2,160,2|0|2,0:0|0:0|0:0,0:0:0:0:
336,112,141199,1,0,0:0:0:0:
256,88,141409,1,2,0:0:0:0:
163,192,141618,1,0,0:0:0:0:
255,297,141828,1,6,0:0:0:0:
347,192,142038,1,0,0:0:0:0:
257,89,142248,1,2,0:0:0:0:
256,88,142667,5,0,0:0:0:0:
256,88,142877,2,0,B|256:182,1,80
257,208,143506,2,0,B|233:256|280:309|250:372,1,160
107,298,144765,2,0,B|42:306|-7:378,2,120,2|0|2,0:0|0:0|0:0,0:0:0:0:
178,262,145604,1,0,0:0:0:0:
133,195,145814,1,0,0:0:0:0:
179,130,146024,1,4,0:0:0:0:
179,130,146443,6,0,B|120:104|109:34,2,120,0|0|0,0:0|0:0|0:0,0:0:0:0:
220,178,147283,2,0,B|216:268|306:339,1,160,0|0,0:0|0:0,0:0:0:0:
337,285,147912,1,0,0:0:0:0:
337,285,148122,1,0,0:0:0:0:
405,217,148436,1,0,0:0:0:0:
382,123,148751,1,0,0:0:0:0:
329,86,148961,2,0,B|290:28|223:33|189:94,1,160,0|0,0:0|0:0,0:0:0:0:
70,106,149800,6,0,B|18:183|84:279,1,160,0|0,0:0|0:0,0:0:0:0:
134,258,150430,1,0,0:0:0:0:
261,259,150849,1,0,0:0:0:0:
290,315,151059,1,0,0:0:0:0:
354,316,151269,1,0,0:0:0:0:
323,259,151478,2,0,B|390:182|318:110,1,160,0|0,0:0|0:0,0:0:0:0:
259,115,152108,1,0,0:0:0:0:
297,63,152318,1,0,0:0:0:0:
360,63,152527,1,0,0:0:0:0:
392,118,152737,1,2,0:0:0:0:
392,118,152947,5,0,0:0:0:0:
363,175,153157,1,0,0:0:0:0:
396,264,153471,1,0,0:0:0:0:
335,338,153786,1,0,0:0:0:0:
278,307,153996,1,0,0:0:0:0:
278,307,154416,5,2,0:0:0:0:
217,325,154625,1,0,0:0:0:0:
169,282,154835,1,0,0:0:0:0:
209,194,155150,1,0,0:0:0:0:
143,124,155464,1,0,0:0:0:0:
181,72,155674,2,0,B|196:32|250:24,1,80
292,64,156094,2,0,B|363:140|446:52,1,160,2|0,0:0|0:0,0:0:0:0:
292,64,156933,5,2,0:0:0:0:
189,162,157353,2,0,B|144:155|134:105,1,80
135,46,157772,1,2,0:0:0:0:
70,46,157982,1,0,0:0:0:0:
35,46,158087,1,0,0:0:0:0:
35,78,158192,1,0,0:0:0:0:
35,142,158402,6,0,B|126:143,1,80,0|2,0:0|0:0,0:0:0:0:
179,145,158821,2,0,B|220:230|176:309,1,160
118,285,159450,2,0,B|74:326,2,40,2|0|0,0:0|0:0|0:0,0:0:0:0:
118,285,159870,5,0,0:0:0:0:
94,225,160080,1,0,0:0:0:0:
159,201,160290,1,2,0:0:0:0:
147,138,160499,2,0,B|224:139|306:189,1,160
267,241,161129,1,2,0:0:0:0:
321,274,161339,1,0,0:0:0:0:
263,301,161548,2,0,B|218:306|184:344,2,80,0|2|0,0:0|0:0|0:0,0:0:0:0:
321,274,162178,2,0,B|362:282|401:314,2,80,0|2|0,0:0|0:0|0:0,0:0:0:0:
287,219,162807,1,0,0:0:0:0:
288,187,162912,1,0,0:0:0:0:
287,154,163017,1,2,0:0:0:0:
286,121,163122,1,0,0:0:0:0:
286,88,163227,1,4,0:0:0:0:
235,167,173297,6,0,B|186:123|172:59,2,120
303,214,174136,2,0,B|356:180|440:170,2,120
227,247,174975,2,0,B|195:299|139:339,2,120
313,289,175814,5,0,0:0:0:0:
369,211,176024,1,0,0:0:0:0:
318,129,176234,1,2,0:0:0:0:
224,110,176443,1,0,0:0:0:0:
140,157,176653,6,0,B|116:212|48:267,2,120
128,73,177492,2,0,B|64:50|22:7,2,120
204,112,178332,2,0,B|264:117|344:78,2,120
132,175,179171,5,0,0:0:0:0:
179,258,179381,1,0,0:0:0:0:
269,289,179590,1,2,0:0:0:0:
348,235,179800,1,0,0:0:0:0:
376,143,180010,5,0,0:0:0:0:
376,143,180115,1,0,0:0:0:0:
376,143,180220,1,2,0:0:0:0:
310,72,180430,1,2,0:0:0:0:
310,72,180534,1,0,0:0:0:0:
310,72,180639,1,2,0:0:0:0:
218,41,180849,2,0,B|174:51|145:85,1,80,0|2,0:0|0:0,0:0:0:0:
149,128,181164,1,0,0:0:0:0:
150,176,181269,2,0,B|126:213|72:229,1,80,0|2,0:0|0:0,0:0:0:0:
88,302,181688,6,0,B|253:302,1,160
280,302,182737,1,0,0:0:0:0:
312,302,182947,1,0,0:0:0:0:
344,302,183157,1,2,0:0:0:0:
378,302,183367,1,4,0:0:0:0:
256,48,190080,5,4,0:0:0:0:
128,192,190499,1,0,0:0:0:0:
256,336,190919,1,2,0:0:0:0:
384,192,191339,1,0,0:0:0:0:
256,128,191758,1,0,0:0:0:0:
256,128,191968,2,0,B|256:224,1,80,0|2,0:0|0:0,0:0:0:0:
325,248,192388,1,0,0:0:0:0:
253,283,192597,1,0,0:0:0:0:
182,245,192807,1,0,0:0:0:0:
182,164,193017,1,2,0:0:0:0:
110,199,193227,1,0,0:0:0:0:
111,119,193436,1,0,0:0:0:0:
258,57,193856,5,2,0:0:0:0:
258,57,194066,1,0,0:0:0:0:
258,57,194276,1,0,0:0:0:0:
432,192,194695,1,2,0:0:0:0:
256,192,195115,12,4,196374,0:0:0:0:
427,330,196583,5,0,0:0:0:0:
351,304,196793,2,0,B|288:260|277:160,1,160,0|2,0:0|0:0,0:0:0:0:
346,125,197423,1,0,0:0:0:0:
290,68,197632,1,0,0:0:0:0:
210,55,197842,1,0,0:0:0:0:
135,84,198052,1,2,0:0:0:0:
81,143,198262,1,0,0:0:0:0:
155,172,198471,2,0,B|172:249|247:314,1,160,0|2,0:0|0:0,0:0:0:0:
311,274,199101,1,0,0:0:0:0:
372,222,199311,2,0,B|435:195|452:118,2,120,0|2|0,0:0|0:0|0:0,0:0:0:0:
311,168,200150,6,0,B|312:84|208:49,1,160,0|2,0:0|0:0,0:0:0:0:
216,132,200779,1,0,0:0:0:0:
219,350,201199,1,0,0:0:0:0:
297,332,201409,1,2,0:0:0:0:
373,353,201618,1,0,0:0:0:0:
373,353,201828,2,0,B|440:316|451:244,2,120,0|2|0,0:0|0:0|0:0,0:0:0:0:
326,287,202667,2,0,B|284:215|206:182,1,160,0|4,0:0|0:0,0:0:0:0:
140,139,203297,6,0,B|100:160|81:203,1,80
161,335,203926,1,0,0:0:0:0:
161,335,204136,2,0,B|248:319|299:251,1,160,0|0,0:0|0:0,0:0:0:0:
348,195,204765,1,2,0:0:0:0:
302,129,204975,1,0,0:0:0:0:
332,55,205185,2,0,B|394:60|445:105,2,120,0|2|0,0:0|0:0|0:0,0:0:0:0:
262,94,206024,1,0,0:0:0:0:
186,66,206234,1,0,0:0:0:0:
127,119,206443,2,0,B|80:128|64:170,1,80,2|0,0:0|0:0,0:0:0:0:
63,245,206863,6,0,B|106:309|192:343,1,160,0|6,0:0|0:0,0:0:0:0:
267,343,207492,1,0,0:0:0:0:
267,343,207702,2,0,B|350:319|410:227,1,160,0|6,0:0|0:0,0:0:0:0:
395,169,208332,1,0,0:0:0:0:
395,169,208541,2,0,B|373:128|327:113,1,80
275,168,208961,2,0,B|196:184|144:268,2,160,4|0|4,0:0|0:0|0:0,0:0:0:0:
333,222,210010,5,0,0:0:0:0:
178,179,210430,1,0,0:0:0:0:
178,179,210639,1,4,0:0:0:0:
333,106,211059,1,0,0:0:0:0:
180,57,211478,1,4,0:0:0:0:
180,57,211688,1,0,0:0:0:0:
180,57,211898,2,2,B|123:63|60:109,2,120
239,110,212737,2,0,B|260:191|330:250,1,160,0|4,0:0|0:0,0:0:0:0:
322,243,213367,1,0,0:0:0:0:
378,212,213576,6,0,B|437:227|485:267,2,120
325,175,214416,1,0,0:0:0:0:
199,148,214835,1,2,0:0:0:0:
152,191,215045,1,0,0:0:0:0:
212,211,215255,2,0,B|251:239|264:322,2,120
212,211,216094,1,0,0:0:0:0:
267,104,216513,6,0,B|268:15,2,80
145,62,217353,1,0,0:0:0:0:
145,62,217562,2,0,B|54:74|32:168,1,160
32,226,218192,1,0,0:0:0:0:
88,195,218402,1,0,0:0:0:0:
88,258,218611,2,0,B|98:301|147:308,1,80
192,349,219031,2,0,B|239:344|248:294,1,80
246,299,219450,1,0,0:0:0:0:
342,305,219765,1,2,0:0:0:0:
299,218,220080,5,0,0:0:0:0:
239,194,220290,2,0,B|163:204|120:278,2,120
208,137,221129,1,0,0:0:0:0:
250,89,221339,1,0,0:0:0:0:
304,122,221548,2,0,B|344:145|391:118,1,80,2|0,0:0|0:0,0:0:0:0:
441,90,221968,5,0,0:0:0:0:
484,136,222178,1,0,0:0:0:0:
484,136,222283,1,0,0:0:0:0:
403,215,222597,1,0,0:0:0:0:
353,259,222807,1,0,0:0:0:0:
305,215,223017,1,0,0:0:0:0:
258,259,223227,6,0,B|259:353,2,80
151,188,224066,1,2,0:0:0:0:
215,77,224485,1,0,0:0:0:0:
279,77,224695,1,0,0:0:0:0:
279,141,224905,2,0,B|294:186|346:199,1,80,2|0,0:0|0:0,0:0:0:0:
397,198,225325,2,0,B|398:363,1,160,0|2,0:0|0:0,0:0:0:0:
324,360,225954,1,0,0:0:0:0:
291,360,226059,1,0,0:0:0:0:
258,359,226164,2,0,B|171:340|137:258,1,160,0|2,0:0|0:0,0:0:0:0:
138,198,226793,1,0,0:0:0:0:
256,192,227003,12,0,230360,0:0:0:0:
