osu file format v12

[General]
AudioFilename: Sakakibara Yui - Soshite Boku wa(full).mp3
AudioLeadIn: 0
PreviewTime: 57048
Countdown: 0
SampleSet: Soft
StackLeniency: 0.7
Mode: 0
LetterboxInBreaks: 0

[Editor]
DistanceSpacing: 0.6
BeatDivisor: 4
GridSize: 16

[Metadata]
Title:Soshite Boku wa...
TitleUnicode:そして僕は...
Artist:Sakakibara Yui
ArtistUnicode:榊原ゆい
Creator:minyeob
Version:Full-Easy
Source:PRISM ARK
Tags:quintitem
BeatmapID:51099
BeatmapSetID:13886

[Difficulty]
HPDrainRate:3
CircleSize:3
OverallDifficulty:3
ApproachRate:3
SliderMultiplier:1
SliderTickRate:1

[Events]
//Background and Video events
Video,-4444,"Prism Ark OP full... PV.flv"
0,0,"bg%20full.jpg",0,0
//Break Periods
2,19091,24164
2,40909,45983
2,74056,79549
2,91259,96332
//Storyboard Layer 0 (Background)
//Storyboard Layer 1 (Fail)
//Storyboard Layer 2 (Pass)
//Storyboard Layer 3 (Foreground)
//Storyboard Sound Samples
//Background Colour Transformations
3,100,163,162,255

[TimingPoints]
430,419.58041958042,4,2,0,70,1,0
57492,-100,4,2,0,70,0,1
57597,-100,4,2,0,70,0,0
127877,-100,4,1,0,80,0,0
129031,-100,4,2,0,100,0,0
129450,-100,4,2,0,70,0,0
143087,-133.333333333333,4,2,0,70,0,0
144450,-100,4,2,0,70,0,0

[Colours]
Combo1 : 255,255,255
Combo2 : 128,128,255
Combo3 : 255,255,128
Combo4 : 255,128,255

[HitObjects]
258,301,8402,1,4,0:0:0:0:
315,285,8821,2,0,B|372:280|407:227,2,100,2|0|2,0:0|0:0|0:0,0:0:0:0:
273,242,10080,1,0,0:0:0:0:
230,199,10499,2,0,B|180:116|54:100,1,200
61,161,11758,6,0,B|60:267,1,100
180,258,13017,1,2,0:0:0:0:
299,259,13856,2,0,B|411:260,1,100,0|2,0:0|0:0,0:0:0:0:
399,199,14695,2,0,B|381:141|338:101,1,100,0|2,0:0|0:0,0:0:0:0:
306,71,15534,6,0,B|142:95|116:284,1,300
177,276,17213,1,2,0:0:0:0:
236,276,17632,1,2,0:0:0:0:
296,275,18052,2,0,B|297:152,2,100,0|2|4,0:0|0:0|0:0,0:0:0:0:
103,277,25604,5,4,0:0:0:0:
102,186,26234,2,0,B|133:116|224:93,1,150
273,82,27283,2,0,B|369:90|469:169,1,200
407,268,28961,5,0,0:0:0:0:
298,216,29800,1,0,0:0:0:0:
237,217,30220,1,0,0:0:0:0:
177,216,30639,2,0,B|119:199|90:146,1,100,0|2,0:0|0:0,0:0:0:0:
58,113,31478,2,0,B|114:29|237:25,1,200,0|4,0:0|0:0,0:0:0:0:
367,63,33157,5,0,0:0:0:0:
469,125,33996,2,0,B|415:213|284:237,1,200,0|0,0:0|0:0,0:0:0:0:
186,230,35674,5,2,0:0:0:0:
188,110,36513,1,0,0:0:0:0:
248,109,36933,2,0,B|248:211,1,100,0|0,0:0|0:0,0:0:0:0:
248,267,37772,2,0,B|142:245|78:155,1,200
124,118,39031,6,0,B|150:68|221:51,2,100,4|0|4,0:0|0:0|0:0,0:0:0:0:
124,178,40290,1,0,0:0:0:0:
125,237,40709,1,4,0:0:0:0:
432,195,47423,6,0,B|393:290|271:323,1,200
208,294,48681,1,0,0:0:0:0:
151,237,49101,2,0,B|160:127|277:66,2,200
212,292,51199,5,2,0:0:0:0:
270,237,51618,2,0,B|319:245|356:304,2,100,0|2|0,0:0|0:0|0:0,0:0:0:0:
211,182,52877,2,0,B|157:189|122:233,2,100,2|0|2,0:0|0:0|0:0,0:0:0:0:
264,122,54136,1,0,0:0:0:0:
362,53,54765,6,0,B|416:109|434:196,1,150,0|2,0:0|0:0,0:0:0:0:
418,263,55814,2,4,B|344:289,1,75
294,316,56443,2,4,B|230:289,1,50
43,191,57492,6,0,B|76:117|176:88,1,150,0|0,0:0|0:0,0:0:0:0:
273,96,58751,1,0,0:0:0:0:
273,176,59171,1,0,0:0:0:0:
352,176,59590,1,0,0:0:0:0:
352,176,60010,2,0,B|406:196|432:244,2,100,0|4|0,0:0|0:0|0:0,0:0:0:0:
251,110,61478,6,0,B|169:125|116:202,1,150
125,267,62527,2,0,B|108:316|45:332,2,100
125,186,63786,1,2,0:0:0:0:
125,186,64206,1,4,0:0:0:0:
259,98,65045,1,0,0:0:0:0:
407,276,65884,5,0,0:0:0:0:
451,209,66304,1,2,0:0:0:0:
409,140,66723,2,0,B|331:66,2,100,0|2|4,0:0|0:0|0:0,0:0:0:0:
254,271,68402,5,2,0:0:0:0:
256,112,69241,1,4,0:0:0:0:
256,112,69660,1,4,0:0:0:0:
175,112,70080,2,0,B|121:130|87:181,2,100
255,113,71339,1,4,0:0:0:0:
334,113,71758,2,0,B|387:133|424:183,1,100,0|4,0:0|0:0,0:0:0:0:
328,206,72597,6,2,B|258:247|168:198,1,150
258,155,73856,1,4,0:0:0:0:
33,341,80989,6,0,B|33:240,1,100,0|0,0:0|0:0,0:0:0:0:
93,239,81828,2,0,B|150:246|150:176,1,100
313,50,83926,6,0,B|368:69|398:123,1,100
389,170,84765,2,0,B|362:224|287:231,1,100,2|0,0:0|0:0,0:0:0:0:
251,227,85604,1,2,0:0:0:0:
190,227,86024,2,0,B|103:246|96:340,2,150,0|0|2,0:0|0:0|0:0,0:0:0:0:
256,192,87702,12,2,91059,0:0:0:0:
254,72,97772,5,4,0:0:0:0:
307,99,98192,1,0,0:0:0:0:
359,128,98611,2,0,B|352:170|304:211,1,100
263,252,99450,2,0,B|153:229|77:151,1,200
63,78,100919,6,0,B|128:52,1,50
175,55,101548,1,0,0:0:0:0:
234,62,101968,2,0,B|285:62|345:109,1,100
372,134,102807,2,0,B|367:224|261:247,1,150
192,236,104066,1,4,0:0:0:0:
192,236,104485,6,0,B|126:218|96:162,2,100
251,225,105744,1,0,0:0:0:0:
310,236,106164,1,0,0:0:0:0:
311,236,106583,2,0,B|367:228|399:173,3,100,0|0|0|4,0:0|0:0|0:0|0:0,0:0:0:0:
363,66,108681,5,0,0:0:0:0:
363,66,109101,2,0,B|254:67,1,100
202,69,109940,2,0,B|188:198|54:188,1,200
70,248,111199,2,2,B|69:373,2,100
216,332,112877,6,0,B|298:318|362:250,2,150,4|0|0,0:0|0:0|0:0,0:0:0:0:
214,251,114555,2,0,B|214:95,1,150
330,102,115814,1,4,0:0:0:0:
332,181,116234,6,0,B|393:191|420:248,2,100
330,260,117492,1,0,0:0:0:0:
330,260,117912,2,0,B|242:248|213:162,2,150,0|0|4,0:0|0:0|0:0,0:0:0:0:
331,179,119590,5,0,0:0:0:0:
255,85,120220,2,0,B|183:99|116:176,1,150
74,220,121269,2,0,B|116:286|206:311,1,150
313,307,122527,1,4,0:0:0:0:
313,307,122947,6,0,B|386:294|431:218,1,150
430,100,124206,1,4,0:0:0:0:
350,98,124625,2,0,B|289:116|249:162,1,100
262,226,125464,5,0,0:0:0:0:
262,226,125674,2,0,B|90:226,1,150
112,145,126723,2,0,B|140:92|198:76,2,100
110,225,127982,6,4,B|110:320,2,75
110,225,128821,1,4,0:0:0:0:
190,225,129241,1,4,0:0:0:0:
190,145,129660,6,0,B|153:70|56:53,2,150,2|0|2,0:0|0:0|0:0,0:0:0:0:
251,197,131339,1,0,0:0:0:0:
313,246,131758,1,2,0:0:0:0:
313,246,132178,2,0,B|340:289|414:307,2,100,0|4|0,0:0|0:0|0:0,0:0:0:0:
313,166,133436,6,0,B|314:111,1,50,2|0,0:0|0:0,0:0:0:0:
394,119,134066,2,0,B|394:179,1,50,0|2,0:0|0:0,0:0:0:0:
393,249,134695,1,0,0:0:0:0:
315,270,135115,1,2,0:0:0:0:
238,246,135534,2,0,B|237:175,1,50,0|2,0:0|0:0,0:0:0:0:
239,65,136164,5,2,0:0:0:0:
239,65,136374,1,4,0:0:0:0:
323,116,136793,2,0,B|374:124|417:181,1,100,0|2,0:0|0:0,0:0:0:0:
462,224,137632,5,0,0:0:0:0:
462,224,138052,2,0,B|430:264|365:279,1,100,0|2,0:0|0:0,0:0:0:0:
304,306,138891,1,0,0:0:0:0:
231,272,139311,1,2,0:0:0:0:
166,224,139730,1,0,0:0:0:0:
163,304,140150,6,0,B|102:287|72:240,2,100,4|0|0,0:0|0:0|0:0,0:0:0:0:
256,296,141409,1,2,0:0:0:0:
325,223,141828,1,2,0:0:0:0:
256,150,142248,1,2,0:0:0:0:
187,222,142667,1,0,0:0:0:0:
187,222,142877,1,2,0:0:0:0:
256,296,143297,5,0,0:0:0:0:
256,297,143506,2,0,B|273:246|237:224|265:135,1,149.999995529652
193,100,144765,1,2,0:0:0:0:
138,168,145185,1,2,0:0:0:0:
161,200,145395,1,0,0:0:0:0:
186,230,145604,1,2,0:0:0:0:
259,257,146024,5,4,0:0:0:0:
316,239,146443,2,0,B|368:226|416:191,2,100,2|0|2,0:0|0:0|0:0,0:0:0:0:
317,178,147702,1,0,0:0:0:0:
317,117,148122,2,0,B|261:118|207:152,3,100,2|0|2|0,0:0|0:0|0:0|0:0,0:0:0:0:
217,203,149800,1,2,0:0:0:0:
217,263,150220,6,0,B|217:332,2,50
277,264,151059,2,0,B|276:152,1,100,2|0,0:0|0:0,0:0:0:0:
277,103,151898,1,2,0:0:0:0:
337,104,152318,2,0,B|391:124|424:182,2,100,0|6|0,0:0|0:0|0:0,0:0:0:0:
277,105,153576,5,2,0:0:0:0:
216,105,153996,2,0,B|179:201|216:304,1,200
274,302,155255,1,2,0:0:0:0:
276,242,155674,1,0,0:0:0:0:
336,242,156094,2,0,B|388:242,2,50
276,242,156933,6,0,B|219:232|181:181,1,100,4|0,0:0|0:0,0:0:0:0:
104,142,157772,2,0,B|135:98|205:80,1,100,4|0,0:0|0:0,0:0:0:0:
269,33,158611,2,0,B|321:47|371:95,1,100,4|0,0:0|0:0,0:0:0:0:
354,181,159450,1,4,0:0:0:0:
256,192,159870,12,4,163227,0:0:0:0:
