osu file format v9

[General]
AudioFilename: Scarlet.mp3
AudioLeadIn: 1500
PreviewTime: 64691
Countdown: 0
SampleSet: Soft
StackLeniency: 0.7
Mode: 0
LetterboxInBreaks: 0

[Editor]
DistanceSpacing: 1
BeatDivisor: 4
GridSize: 4

[Metadata]
Title:Scarlet
Artist:Sakakibara Yui
Creator:Star Stream
Version:S.S
Source:DRACU-RIOT!
Tags:yuzusoft hentai eroge game visual novel opening Mythol

[Difficulty]
HPDrainRate:7
CircleSize:4
OverallDifficulty:7
ApproachRate:9
SliderMultiplier:2
SliderTickRate:2

[Events]
//Background and Video events
Video,0,"movie.avi"
0,0,"img_292313_4578868_0.jpg"
//Break Periods
//Storyboard Layer 0 (Background)
//Storyboard Layer 1 (Fail)
//Storyboard Layer 2 (Pass)
//Storyboard Layer 3 (Foreground)
//Storyboard Sound Samples
//Background Colour Transformations
3,100,163,162,255

[TimingPoints]
748,342.857142857143,4,2,1,50,1,0
5033,-100,4,1,1,50,0,0
6233,-100,4,1,1,40,0,0
17205,-142.857142857143,4,2,1,50,0,0
19948,-100,4,1,1,40,0,0
22690,-142.857142857143,4,2,1,50,0,0
25433,-100,4,1,1,40,0,0
39148,-142.857142857143,4,2,1,50,0,0
41890,-100,4,1,1,40,0,0
44633,-142.857142857143,4,2,1,50,0,0
47376,-100,4,1,1,40,0,0
64519,-100,4,1,1,20,0,0
65033,342.857142857143,4,1,1,50,1,0
65033,-83.3333333333333,4,1,1,50,0,1
75319,-83.3333333333333,4,1,1,50,0,0
76005,-83.3333333333333,4,1,1,50,0,1
87148,-100,4,1,1,50,0,0

[Colours]
Combo1 : 128,255,128
Combo2 : 255,128,64
Combo3 : 128,128,255
Combo4 : 255,128,128

[HitObjects]
256,160,576,1,0
348,56,747,2,0,B|256:-12|164:56,1,200,2|2
104,136,1262,2,0,B|72:240,1,100
0,168,1605,2,0,B|32:64,1,100,0|2
104,136,1948,1,0
104,136,2290,2,0,B|216:136,2,100,0|2|0
0,168,2805,2,0,B|100:204|148:304,1,200,0|2
64,356,3319,1,0
8,272,3490,6,0,B|72:196|192:188,1,200,0|2
276,228,4005,1,0
360,176,4176,2,0,B|408:212|476:212,2,100,0|0|2
172,48,4690,5,4
56,212,5033,5,8
228,132,5205,1,8
212,320,5376,1,8
172,228,5548,1,8
172,228,5633,1,8
172,228,5719,1,8
228,132,5890,1,8
212,320,6062,1,8
56,212,6233,6,0,B|104:184|116:132,1,100,4|0
268,44,6576,2,0,B|152:44,1,100,8|0
68,44,6919,2,0,B|20:72|8:124,2,100,0|0|8
164,68,7433,6,0,B|232:144,1,100
334,118,7776,2,0,B|268:44,1,100,0|8
132,160,8119,1,0
44,252,8290,1,0
44,252,8376,1,0
44,252,8462,1,0
144,336,8633,1,8
232,244,8804,1,0
232,244,8890,1,0
232,244,8976,6,0,B|260:300|320:312,1,100
360,156,9319,2,0,B|360:264,1,100,8|0
416,104,9662,2,0,B|388:48|328:36,1,100
288,192,10005,1,8
192,160,10176,6,0,B|124:88,1,100
320,88,10519,2,0,B|388:160,1,100,0|8
460,228,10862,1,0
376,328,11033,1,0
376,328,11119,1,0
376,328,11205,1,0
272,252,11376,1,8
160,320,11548,1,0
160,320,11633,1,0
160,320,11719,6,0,B|32:320,1,100,4|0
352,320,12062,2,0,B|480:320,1,100,8|0
176,224,12405,1,0
336,224,12576,1,0
256,364,12748,1,8
256,264,12919,6,0,B|256:148,1,100
328,32,13262,2,0,B|328:148,1,100,0|8
184,132,13605,2,0,B|184:32,1,100
112,164,13948,2,0,B|112:264,2,100,0|8|0
16,60,14462,6,0,B|68:36|112:60,1,100
184,132,14805,1,8
256,60,14976,2,0,B|308:36|352:60,2,100
184,132,15490,1,8
184,132,15662,1,0
108,196,15833,6,0,B|132:244|108:292,1,100
20,244,16176,1,8
20,244,16262,2,0,B|212:244,1,150,8|0
470,244,16690,2,0,B|170:244,1,300,8|4
52,124,17548,5,0
112,64,17719,2,0,B|160:116|248:116,1,139.99999666214,2|0
312,76,18233,1,0
380,128,18405,2,0,B|400:204|472:240,2,139.99999666214,2|0|2
312,76,19262,1,0
244,128,19433,2,0,B|152:128,2,69.99999833107,0|0|2
328,184,19948,6,0,B|280:272,1,100,4|0
184,292,20290,2,0,B|232:204,1,100,8|0
328,184,20633,2,0,B|376:272,2,100,0|0|8
236,144,21148,1,0
140,164,21319,6,0,B|67:122|131:11|204:53,1,200,0|8
252,228,21833,2,0,B|210:300|99:236|141:164,1,200
176,112,22348,2,0,B|228:140|200:196,2,100,8|0|4
68,240,23033,5,0
36,316,23205,2,0,B|192:316,1,139.99999666214,2|0
216,240,23719,1,0
248,164,23891,2,0,B|92:164,1,139.99999666214,2|0
68,88,24405,1,0
36,12,24577,2,0,B|192:12,1,139.99999666214,2|0
320,12,25090,2,0,B|224:12,2,69.99999833107,0|2|4
420,12,25605,6,0,B|444:60|420:108,2,100,0|8|0
332,60,26119,2,0,B|308:108|332:156,1,100
420,204,26462,2,0,B|444:156|420:108,1,100,8|0
332,156,26805,6,0,B|259:114|195:225|268:267,1,200,0|8
443,220,27319,2,0,B|485:147|374:83|332:156,1,200,0|8
332,154,27748,1,8
332,154,27833,1,8
356,252,28005,1,8
444,304,28176,6,0,B|424:352|368:368,1,100
284,316,28519,2,0,B|304:268|360:252,1,100,8|0
444,304,28862,1,0
370,368,29033,1,0
284,316,29205,1,8
210,380,29376,1,0
124,328,29548,5,0
124,328,29719,2,0,B|32:280,2,100,0|8|0
212,272,30233,1,0
212,272,30404,2,0,B|304:320,2,100,0|8|0
276,196,30919,5,0
212,272,31090,1,0
112,272,31262,1,8
48,196,31433,1,0
48,96,31605,5,0
112,20,31776,1,0
212,20,31948,1,8
276,96,32119,1,0
276,196,32290,5,0
48,96,32462,1,0
212,20,32633,1,8
112,272,32805,1,0
276,96,32976,5,0
48,196,33148,1,0
212,272,33319,1,0
112,20,33490,1,8
8,104,33662,6,0,B|112:104,1,100,4|0
244,172,34005,2,0,B|140:172,1,100,8|0
276,104,34348,2,0,B|380:104,1,100
512,172,34691,2,0,B|408:172,1,100,8|0
328,228,35033,5,0
328,228,35205,2,0,B|344:280|400:300,2,100,0|8|0
444,100,35719,2,0,B|494:117|510:169,1,100
394,298,36062,2,0,B|343:280|327:228,1,100,8|0
256,160,36405,6,0,B|232:260|124:320,1,200,4|8
64,240,36919,1,0
152,160,37090,2,0,B|176:260|284:320,1,200,0|8
344,240,37604,1,0
436,196,37776,6,0,B|476:96,1,100
384,60,38119,2,0,B|344:160,1,100,8|0
248,152,38462,2,0,B|210:59,1,100
121,102,38805,2,0,B|158:194,1,100,8|0
220,344,39148,6,0,B|132:344|112:340|96:324|96:296,1,139.99999666214,4|2
160,248,39662,2,0,B|248:248|268:244|284:228|284:200,1,139.99999666214
344,152,40176,1,2
400,88,40348,6,0,B|440:152|396:220,2,139.99999666214,0|2|2
328,44,41205,1,0
212,164,41376,1,8
212,164,41462,1,8
212,164,41548,1,10
68,80,41719,1,8
0,224,41890,6,0,B|8:284|64:300,1,100,4|0
176,320,42233,2,0,B|168:260|112:244,1,100,8|0
240,244,42576,2,0,B|248:304|304:320,1,100
416,340,42919,2,0,B|408:280|352:264,1,100,8|0
304,180,43262,6,0,B|412:184|468:84,1,200,0|8
368,64,43776,2,0,B|260:60|204:160,1,200
112,200,44290,1,8
40,132,44462,1,8
40,132,44548,1,8
40,132,44633,6,0,B|96:84|168:80,1,139.99999666214,4|2
372,132,45148,2,0,B|316:84|244:80,1,139.99999666214
204,152,45662,1,2
268,204,45833,6,0,B|204:252|140:204,2,139.99999666214,0|2|2
448,72,46690,1,10
448,72,46776,1,8
360,140,46948,1,8
360,140,47033,1,8
444,216,47205,1,8
444,216,47376,6,0,B|396:236|372:288,1,100,4|0
224,340,47719,2,0,B|332:340,1,100,8|0
220,216,48062,2,0,B|172:236|148:288,1,100
0,340,48405,2,0,B|108:340,1,100,8|0
200,280,48748,5,0
267,204,48920,1,0
219,121,49091,1,8
120,140,49262,2,0,B|35:140|35:268|120:268,1,200
196,204,49776,1,8
248,204,49862,1,0
300,204,49948,1,0
352,204,50033,1,0
404,204,50119,6,0,B|404:104,1,100,4|0
460,256,50462,2,0,B|460:356,1,100,8|0
372,308,50805,1,0
272,308,50976,1,0
188,364,51148,1,8
104,308,51319,1,0
188,256,51490,5,0
188,256,51662,2,0,B|188:152,2,100,0|8|0
88,256,52176,1,0
88,256,52348,2,0,B|88:360,2,100,0|8|0
168,192,52862,6,0,B|224:176|236:116,1,100
240,224,53205,2,0,B|280:182|260:124,1,100,8|0
320,216,53548,2,0,B|334:159|288:119,1,100
384,164,53890,2,0,B|368:108|308:95,1,100,8|0
148,28,54234,5,0
92,200,54405,1,0
240,96,54576,1,8
56,96,54748,1,0
204,200,54919,1,0
148,28,55090,1,0
92,200,55262,1,8
148,128,55433,1,0
204,200,55605,6,0,B|248:240|292:200,1,100,4|0
460,88,55948,2,0,B|416:48|372:88,1,100,8|0
372,200,56290,2,0,B|416:240|460:200,1,100
292,88,56633,2,0,B|247:47|203:87,1,100,8|0
108,164,56976,5,0
108,164,57148,2,0,B|56:152|32:100,2,100,0|8|0
216,220,57662,2,0,B|240:268|216:316,1,100,0|0
104,268,58005,2,0,B|220:268,1,100,8|0
408,268,58348,5,4
408,268,58519,2,0,B|292:268,2,100,0|8|0
488,176,59033,1,0
412,32,59205,1,0
300,144,59376,1,8
148,92,59548,6,0,B|64:156|68:268,1,200
172,204,60062,1,8
172,204,60233,1,0
172,204,60319,1,0
172,204,60405,2,0,B|216:236|224:288,1,100
344,286,60748,2,0,B|352:234|396:202,1,100,8|0
460,104,61090,5,4
460,104,61262,2,0,B|332:104,2,100,0|8|0
396,202,61776,2,0,B|288:202,1,100
116,202,62119,2,0,B|216:202,1,100,8|0
52,104,62462,1,0
52,104,62633,2,0,B|152:104,2,100,0|8|0
256,24,63148,5,8
296,56,63233,1,8
312,104,63319,1,8
296,152,63405,1,8
256,180,63490,1,8
216,212,63575,1,8
200,260,63661,1,8
216,308,63747,1,8
256,340,63833,1,10
256,340,64005,6,0,B|256:232,2,100,10|0|10
256,340,64519,5,8
444,192,64690,1,8
68,192,64862,1,8
256,44,65033,6,0,B|256:288,1,240.000005722046,6|0
144,236,65548,1,10
36,284,65719,1,0
144,336,65890,1,2
256,184,66062,1,0
368,336,66233,1,8
476,284,66405,6,0,B|428:112|392:252|348:80,1,240.000005722046,2|0
472,108,66919,1,10
380,264,67090,1,0
380,264,67176,1,0
380,264,67262,1,2
272,216,67433,1,0
344,120,67605,1,8
236,72,67776,6,0,B|228:204|96:248,1,240.000005722046,2|0
132,132,68290,1,10
236,72,68462,1,0
96,248,68633,2,0,B|36:272|16:336,2,120.000002861023,2|0|8
196,316,69148,6,0,B|320:256|280:384|428:324,1,240.000005722046,2|0
364,220,69662,1,10
248,384,69833,1,0
248,384,69919,1,0
248,384,70005,1,2
96,248,70176,1,0
40,356,70348,1,8
160,356,70519,6,0,B|252:316|252:208|336:172,1,240.000005722046,6|0
420,244,71033,1,10
344,340,71205,1,0
260,252,71376,2,0,B|216:208|156:196,2,120.000002861023,2|0|8
372,208,71890,6,0,B|280:168|280:60|196:24,1,240.000005722046,6|0
104,88,72404,1,10
156,196,72576,1,0
156,196,72662,1,0
156,196,72748,1,2
332,68,72919,1,0
180,68,73090,1,8
356,196,73262,6,0,B|464:196|460:340|356:340,1,240.000005722046,6|0
155,340,73776,2,0,B|52:340|48:196|156:196,1,240.000005722046,10|2
364,268,74290,1,0
148,268,74462,1,8
256,372,74633,6,0,B|316:288|172:248|256:136,1,240.000005722046,6|0
356,200,75148,1,10
156,332,75319,1,6
56,268,75490,1,8
56,268,75576,1,8
56,268,75662,1,8
56,268,75748,1,8
56,268,75833,1,8
176,72,76005,6,0,B|208:148|208:148|284:148|356:200,1,240.000005722046,6|0
244,252,76519,1,10
312,64,76690,1,0
420,120,76862,2,0,B|444:180|504:204,2,120.000002861023,2|0|8
312,64,77376,6,0,B|280:140|280:140|204:140|132:192,1,240.000005722046,2|0
244,244,77890,1,10
176,56,78061,1,0
176,56,78148,1,0
176,56,78233,2,0,B|216:172,2,120.000002861023,2|0|8
52,104,78748,6,0,B|16:184|80:240|80:240|48:328,1,240.000005722046,2|0
116,160,79262,1,10
49,325,79433,1,0
224,284,79605,2,0,B|288:300|324:352,2,120.000002861023,2|0|8
100,232,80119,6,0,B|-3:231|-7:87|100:87,1,240.000005722046,2|0
332,160,80633,1,10
212,160,80805,1,0
212,160,80890,1,0
212,160,80976,2,0,B|88:160,2,120.000002861023,2|0|8
324,120,81490,6,0,B|375:30|502:98|448:192,1,240.000005722046,6|0
180,120,82005,2,0,B|180:16|324:12|324:120,1,240.000005722046,10|2
448,192,82519,1,0
324,120,82690,1,8
55,192,82862,6,0,B|1:98|128:30|180:120,1,240.000005722046,6|0
180,263,83376,2,0,B|126:357|4:281|56:192,1,240.000005722046,10|2
180,120,83890,1,0
180,264,84062,1,8
372,192,84233,6,0,B|124:192,1,240.000005722046,6|0
36,120,84748,1,10
36,264,84918,1,0
132,192,85090,2,0,B|8:192,2,120.000002861023,2|0|8
372,192,85605,6,0,B|128:192,1,240.000005722046,6|0
256,312,86119,2,2,B|256:68,1,240.000005722046,14|2
256,72,86633,1,0
256,192,86805,5,10
256,192,86890,1,0
256,192,86976,1,0
256,192,87062,1,0
256,192,87148,6,0,B|200:176|180:128,1,100,6|0
256,192,87490,2,0,B|240:248|192:268,1,100,8|0
256,192,87833,2,0,B|312:208|332:256,1,100,2|0
256,192,88176,2,0,B|272:136|320:116,1,100,8|0
392,256,88519,6,0,B|372:308|322:323,1,100,2|0
322,60,88862,2,0,B|372:76|392:128,1,100,8|0
120,128,89205,2,0,B|140:76|192:60,1,100,2|0
189,323,89548,2,0,B|140:308|120:256,1,100,8|0
256,100,89890,5,8
256,100,90062,2,0,B|256:208,2,100,10|10|8
88,324,90576,1,10
424,324,90748,1,10
256,100,90919,1,8
256,300,91090,6,2,B|256:76,1,200,14|8
256,100,91605,1,10
256,100,91776,1,14
