osu file format v9

[General]
AudioFilename: Scarlet.mp3
AudioLeadIn: 1500
PreviewTime: 64691
Countdown: 0
SampleSet: Soft
StackLeniency: 0.7
Mode: 0
LetterboxInBreaks: 0

[Editor]
DistanceSpacing: 1.2
BeatDivisor: 4
GridSize: 4

[Metadata]
Title:Scarlet
Artist:Sakakibara Yui
Creator:Star Stream
Version:Hard
Source:DRACU-RIOT!
Tags:yuzusoft hentai eroge game visual novel opening Mythol

[Difficulty]
HPDrainRate:6
CircleSize:4
OverallDifficulty:6
ApproachRate:7
SliderMultiplier:1.5
SliderTickRate:2

[Events]
//Background and Video events
Video,0,"movie.avi"
0,0,"img_292313_4578868_0.jpg"
//Break Periods
//Storyboard Layer 0 (Background)
//Storyboard Layer 1 (Fail)
//Storyboard Layer 2 (Pass)
//Storyboard Layer 3 (Foreground)
//Storyboard Sound Samples
//Background Colour Transformations
3,100,163,162,255

[TimingPoints]
748,342.857142857143,4,2,1,50,1,0
5033,-100,4,1,1,40,0,0
17548,-100,4,2,1,50,0,0
19948,-100,4,1,1,40,0,0
22690,-100,4,2,1,50,0,0
25433,-100,4,1,1,40,0,0
39148,-100,4,2,1,50,0,0
41890,-100,4,1,1,40,0,0
44633,-100,4,2,1,50,0,0
47376,-100,4,1,1,40,0,0
64519,-100,4,1,1,20,0,0
65033,342.857142857143,4,1,1,50,1,0
65033,-83.3333333333333,4,1,1,50,0,1
75319,-83.3333333333333,4,1,1,50,0,0
76005,-83.3333333333333,4,1,1,50,0,1
87148,-100,4,1,1,50,0,0

[Colours]
Combo1 : 128,255,128
Combo2 : 255,128,64
Combo3 : 128,128,255
Combo4 : 255,128,128

[HitObjects]
200,324,576,1,0
124,292,747,2,0,B|44:264|24:180,1,150,2|2
26,112,1262,2,0,B|26:204,1,75
112,200,1605,2,0,B|112:108,1,75,0|2
196,96,1948,5,0
376,96,2290,2,0,B|284:96,2,75,0|2|0
460,132,2805,2,0,B|384:168|368:248,1,150,0|2
204,312,3490,6,0,B|280:276|296:196,1,150,0|2
364,140,4005,1,0
448,168,4176,2,0,B|448:268,2,75,0|0|2
448,76,4690,5,4
296,176,5033,1,8
256,96,5205,1,8
216,176,5376,1,8
132,140,5548,1,8
132,140,5633,1,8
132,140,5719,1,8
64,200,5890,2,0,B|60:248|92:280,2,75,0|0|4
12,28,6576,6,0,B|168:28,1,150,8|0
240,72,7090,1,0
320,28,7262,1,8
396,72,7433,2,0,B|432:144|396:216,2,150,0|8|8
340,144,8290,1,0
340,144,8376,1,0
340,144,8462,1,0
284,72,8633,2,0,B|248:144|284:216,1,150,8|0
432,320,9319,5,8
256,276,9662,2,0,B|172:276,2,75,0|0|8
312,348,10176,2,0,B|348:275|312:203,2,150,0|8|8
256,276,11033,1,0
256,276,11119,1,0
256,276,11205,1,0
188,336,11376,2,0,B|148:264|64:252,1,150,8|4
192,120,12062,5,8
12,120,12405,2,0,B|100:120,2,75,0|0|8
50,201,12919,1,0
188,316,13262,1,8
328,200,13605,2,0,B|364:127|328:55,1,150,8|0
328,55,14119,1,8
256,192,14462,12,4,17205
212,192,17548,5,0
156,120,17719,2,0,B|120:192|156:265,2,150,2|0|2
320,192,18748,1,0
230,36,19090,1,2
230,216,19433,2,0,B|230:366,1,150,0|2
316,336,19948,6,0,B|372:280,1,75,4|0
452,252,20290,2,0,B|396:196,1,75,8|0
316,160,20633,2,0,B|372:104,1,75
452,76,20975,2,0,B|396:20,1,75,8|0
308,36,21319,2,0,B|276:116|200:140,1,150,0|8
124,100,21833,2,0,B|68:152|56:232,2,150,0|8|0
204,60,22690,5,4
372,128,23033,1,0
462,115,23204,2,0,B|436:192|360:218,1,150,2|0
194,146,23890,2,0,B|158:218|194:291,2,150,2|0|2
249,218,24748,1,0
249,218,24919,2,0,B|328:218,2,75,0|0|2
158,218,25433,6,0,B|82:218,1,75,4|0
40,140,25776,2,0,B|116:140,1,75,8|0
268,140,26119,2,0,B|192:140,1,75
250,218,26462,2,0,B|326:218,1,75,8|0
380,146,26805,6,0,B|416:218|380:291,1,150,0|8
325,362,27319,2,0,B|289:289|325:217,1,150,0|8
380,144,27833,1,0
324,72,28005,1,8
236,88,28176,6,0,B|188:156|112:168,1,150,4|8
40,116,28690,1,0
4,200,28862,2,0,B|68:240|72:328,1,150,0|8
152,288,29376,1,0
232,332,29548,6,0,B|304:304,1,75
376,256,29890,2,0,B|304:228,1,75,8|0
224,192,30233,1,0
224,192,30405,1,0
136,216,30576,1,8
136,216,30748,1,0
56,256,30919,6,0,B|-16:256|-16:176|56:176,2,150,0|8|0
136,216,31776,1,0
224,192,31948,1,8
306,228,32119,1,0
392,204,32290,6,0,B|456:144,1,75
404,72,32633,2,0,B|340:132,1,75,8|0
260,124,32976,2,0,B|205:72,1,75
160,152,33319,2,0,B|214:203,1,75,8|0
284,264,33662,6,0,B|284:336|364:336|364:264,2,150,4|8|0
216,204,34519,1,0
148,264,34690,1,8
80,204,34862,1,0
12,264,35033,6,0,B|56:332,1,75
144,328,35376,2,0,B|184:265,1,75,8|0
256,208,35719,2,0,B|284:292|368:308,1,150,0|8
420,136,36405,6,0,B|344:124|304:44,1,150,4|8
92,136,37090,2,0,B|168:124|208:44,1,150,0|8
320,192,37776,5,0
320,192,37948,1,0
256,128,38119,1,8
256,128,38291,1,0
192,192,38462,1,0
192,192,38634,1,0
256,256,38805,2,0,B|256:352,2,75,8|0|4
256,76,39490,5,0
329,132,39661,2,0,B|256:168|184:132,2,150,2|0|2
496,204,40690,1,0
436,372,41033,1,2
269,300,41376,1,0
269,300,41462,1,0
269,300,41548,2,0,B|160:300,1,75,0|2
144,228,41890,6,0,B|90:177,1,75,4|0
135,97,42233,2,0,B|190:149,1,75,8|0
279,148,42576,2,0,B|333:96,1,75
376,177,42919,2,0,B|321:228,1,75,8|0
268,300,43262,2,0,B|268:372|188:372|188:300,1,150,0|8
188,208,43776,2,0,B|188:136|268:136|268:208,2,150,0|8|0
112,260,44633,5,4
4,116,44976,1,0
60,43,45147,2,0,B|96:116|60:188,2,150,2|0|2
224,116,46176,1,0
388,44,46519,2,0,B|424:117|388:189,2,150,2|0|2
332,116,47376,5,4
272,184,47548,1,0
188,156,47719,1,8
128,224,47891,1,0
48,264,48062,2,0,B|64:304|120:316,1,75
192,312,48405,2,0,B|230:304|246:264,1,75,8|0
324,216,48748,2,0,B|396:256|420:336,1,150,0|8
488,276,49262,2,0,B|488:120,1,150
420,68,49776,1,8
328,68,49948,1,0
240,68,50119,6,0,B|196:136,1,75,4|0
236,212,50462,2,0,B|280:144,1,75,8|0
324,228,50805,2,0,B|280:296,1,75
320,372,51148,2,0,B|364:304,1,75,8|0
444,272,51490,5,0
444,272,51662,2,0,B|444:176,2,75,0|8|0
360,309,52176,2,0,B|272:309,1,75
250,228,52519,2,0,B|338:228,1,75,8|0
212,312,52862,6,0,B|171:374,1,75
134,293,53205,2,0,B|174:230,1,75,8|0
128,152,53548,2,0,B|87:214,1,75
50,133,53891,2,0,B|90:70,1,75,8|0
220,32,54233,5,0
220,32,54405,2,0,B|308:32,2,75,0|8|0
132,32,54918,1,0
132,32,55090,2,0,B|44:32,2,75,0|8|0
176,112,55605,6,0,B|248:144|284:228,2,150,4|8|0
88,132,56462,1,0
24,196,56633,1,8
4,284,56805,1,0
36,368,56976,6,0,B|116:368,1,75
184,312,57319,1,8
184,312,57490,1,0
256,368,57662,2,0,B|336:368,1,75
404,312,58005,1,8
404,312,58176,1,0
432,228,58348,6,0,B|380:168|304:144,1,150,0|8
80,228,59033,2,0,B|132:168|208:144,1,150,0|8
256,220,59548,1,0
340,252,59719,6,0,B|328:336,1,75
256,380,60062,1,8
182,326,60233,1,0
182,326,60319,1,0
182,326,60405,2,0,B|172:252,1,75
84,228,60748,2,0,B|94:302,1,75,8|0
182,326,61090,6,0,B|228:256|328:240,1,150,0|8
384,84,61776,2,0,B|338:154|238:170,1,150,0|8
176,192,62290,1,0
124,264,62462,5,0
36,244,62633,2,0,B|36:324,2,75,8|8|0
128,192,63148,2,0,B|128:112,2,75,8|8|8
212,256,63662,1,0
372,256,63833,5,8
372,256,64005,2,0,B|288:256,2,75,8|0|8
436,192,64519,2,0,B|520:192,2,75,8|8|8
376,104,65033,6,0,B|332:184|228:212,1,180.000004291535,6|0
144,152,65548,1,10
192,56,65719,1,0
292,92,65890,2,0,B|328:64|336:16,2,90.0000021457673,2|0|8
232,188,66405,6,0,B|196:280|100:324,1,180.000004291535,2|0
16,268,66919,1,10
84,184,67090,1,0
84,184,67176,1,0
84,184,67262,2,0,B|132:192|160:236,2,90.0000021457673,2|0|8
20,96,67776,6,0,B|120:104|192:52,1,180.000004291535,2|0
296,32,68290,1,10
388,92,68462,1,0
488,56,68633,2,0,B|460:20|416:0,2,90.0000021457673,2|0|8
388,92,69148,6,0,B|304:144|292:240,1,180.000004291535,2|0
356,324,69662,1,10
464,308,69833,1,0
464,308,69919,1,0
464,308,70005,2,0,B|508:288|516:236,2,90.0000021457673,2|0|8
356,324,70519,6,0,B|172:340,1,180.000004291535,6|0
72,308,71033,1,10
164,248,71205,1,0
60,228,71376,1,2
152,168,71548,1,0
48,148,71719,1,8
140,88,71890,6,0,B|324:72,1,180.000004291535,6|0
424,104,72404,1,10
332,164,72576,1,0
436,184,72747,1,2
344,244,72919,1,0
448,264,73090,1,8
356,324,73262,6,0,B|316:393|223:344|265:272,1,180.000004291535,6|0
175,221,73776,2,0,B|215:151|307:200|265:273,1,180.000004291535,10|2
176,328,74290,1,0
68,316,74462,1,8
12,224,74633,6,0,B|8:124|108:64,1,180.000004291535,6|2
196,36,75148,1,10
292,88,75319,1,6
392,48,75490,2,0,B|448:48,4,45.0000010728836,8|8|8|8|8
292,88,76005,6,0,B|192:104|136:200,1,180.000004291535,6|0
60,248,76519,1,10
44,140,76690,1,0
146,184,76862,2,0,B|194:196|218:236,2,90.0000021457673,2|0|8
44,140,77376,6,0,B|144:128|208:60,1,180.000004291535,2|0
300,112,77890,1,10
396,64,78062,1,0
396,64,78148,1,0
396,64,78233,2,0,B|492:104,2,90.0000021457673,2|0|8
300,112,78748,6,0,B|212:156|192:252,1,180.000004291535,2|0
252,340,79262,1,10
360,356,79433,1,0
456,304,79605,1,2
464,196,79776,1,0
408,104,79948,1,8
300,112,80119,6,0,B|212:156|192:252,1,180.000004291535,2|0
252,340,80633,1,10
144,356,80804,1,0
144,356,80890,1,0
144,356,80976,2,0,B|48:364,2,90.0000021457673,2|0|8
252,340,81490,6,0,B|332:292|432:288,1,180.000004291535,6|0
504,216,82005,1,10
420,148,82176,1,0
364,240,82348,1,2
260,268,82519,1,0
168,212,82690,1,8
184,104,82862,6,0,B|268:48|356:48,1,180.000004291535,6|0
452,88,83376,1,10
380,168,83548,1,0
380,168,83633,1,0
380,168,83719,2,0,B|332:184|304:224,2,90.0000021457673,2|0|8
452,88,84233,6,0,B|508:156|512:264,1,180.000004291535,6|0
444,340,84748,2,0,B|360:380,1,90.0000021457673,10|0
272,320,85090,2,0,B|356:280,2,90.0000021457673,2|0|8
172,360,85605,6,0,B|64:212,1,180.000004291535,6|0
24,116,86119,2,0,B|208:116,1,180.000004291535,14|2
296,172,86633,1,0
392,124,86804,2,0,B|392:72,3,45.0000010728836,10|0|0|0
392,124,87148,6,0,B|448:180,1,75,6|0
408,260,87490,2,0,B|352:316,1,75,8|0
272,284,87833,2,0,B|216:228,1,75,2|0
244,144,88176,2,0,B|300:88,1,75,8|0
228,32,88519,6,0,B|174:85,1,75,2|0
137,168,88862,2,0,B|190:221,1,75,8|0
285,254,89205,2,0,B|338:200,1,75,2|0
364,114,89547,2,0,B|310:60,1,75,8|0
228,32,89890,5,8
228,32,90062,2,0,B|160:76,2,75,10|10|0
320,32,90576,2,0,B|388:76,2,75,10|10|0
276,112,91090,6,2,B|276:272,1,150,14|0
276,262,91605,1,10
276,262,91776,1,14
