osu file format v14

[General]
AudioFilename: Scarlet.mp3
AudioLeadIn: 1500
PreviewTime: 64691
Countdown: 0
SampleSet: None
StackLeniency: 0.7
Mode: 1
LetterboxInBreaks: 0
WidescreenStoryboard: 0

[Editor]
Bookmarks: 742,1428,1943,2800,3485,4171,4685,6228,6914,7257,7428,7771,8114,8628,8971,9657,10000,10171,10514,10857,11371,15828,16000,16171,16257,16428,16514,16685,17028,17114,17200,62628,62800,62971,63143,63228,63400,63485,63657,84742,85085,85428,85600
DistanceSpacing: 1.1
BeatDivisor: 2
GridSize: 32
TimelineZoom: 0.9

[Metadata]
Title:Scarlet (Short Ver.)
TitleUnicode:Scarlet (Short Ver.)
Artist:Sakakibara Yui
ArtistUnicode:榊原ゆい
Creator:JUDYDANNY
Version:Kantan (SV100 ODHP10)
Source:DRACU-RIOT!
Tags:Taiko ドラクリオット Famishin 井ノ原 智 Inohara Satoru Angel Note Yuzu soft ゆずソフト Eroge Opening
BeatmapID:1116535
BeatmapSetID:167202

[Difficulty]
HPDrainRate:10
CircleSize:7
OverallDifficulty:10
ApproachRate:10
SliderMultiplier:1.4
SliderTickRate:4

[Events]
//Background and Video events
0,0,"bg.jpg",0,0
//Break Periods
//Storyboard Layer 0 (Background)
//Storyboard Layer 1 (Fail)
//Storyboard Layer 2 (Pass)
//Storyboard Layer 3 (Foreground)
//Storyboard Sound Samples

[TimingPoints]
743,342.857142857143,4,1,0,50,1,8
743,-1,4,1,0,75,0,0
4602,-1,4,1,0,75,0,0
17371,-1,4,1,0,50,0,0
19857,-1,4,1,0,75,0,0
22857,-1,4,1,0,50,0,0
25343,-1,4,1,0,75,0,0
39314,-1,4,1,0,50,0,0
41200,-1,4,1,0,75,0,0
44800,-1,4,1,0,50,0,0
46600,-1,4,1,0,75,0,0
63743,-1,4,1,0,90,0,0
65028,-1,4,1,0,95,0,1
65200,342.857142857143,4,1,0,95,1,1
65200,-1,4,1,0,95,0,1
87143,-1,4,1,0,95,0,0

[Colours]
Combo1 : 128,255,128
Combo2 : 255,128,64
Combo3 : 128,128,255
Combo4 : 255,128,128

[HitObjects]
200,172,6228,5,4,0:0:0:0:
160,32,6914,1,2,0:0:0:0:
192,160,7600,1,0,0:0:0:0:
192,0,8285,1,0,0:0:0:0:
192,160,8628,1,8,0:0:0:0:
200,172,8971,1,0,0:0:0:0:
160,32,9657,1,2,0:0:0:0:
200,172,10343,1,0,0:0:0:0:
160,64,11028,1,2,0:0:0:0:
192,64,11371,1,8,0:0:0:0:
200,172,11714,5,0,0:0:0:0:
192,32,12400,1,2,0:0:0:0:
184,152,13085,1,0,0:0:0:0:
192,0,13771,1,0,0:0:0:0:
184,152,14114,1,8,0:0:0:0:
176,124,14457,5,0,0:0:0:0:
160,32,15143,1,8,0:0:0:0:
256,192,15828,12,0,16685,0:0:0:0:
160,96,17200,5,0,0:0:0:0:
176,124,19943,5,4,0:0:0:0:
160,32,20628,1,0,0:0:0:0:
176,96,21314,1,0,0:0:0:0:
160,32,22000,1,0,0:0:0:0:
160,32,22343,1,8,0:0:0:0:
176,96,22685,1,0,0:0:0:0:
176,96,25428,5,4,0:0:0:0:
192,128,26114,1,0,0:0:0:0:
176,96,26800,1,0,0:0:0:0:
176,96,27485,1,8,0:0:0:0:
192,128,27828,1,8,0:0:0:0:
176,96,28171,5,4,0:0:0:0:
168,64,28857,1,0,0:0:0:0:
180,156,30228,1,0,0:0:0:0:
176,96,30914,5,0,0:0:0:0:
160,0,31257,1,0,0:0:0:0:
160,32,31600,1,0,0:0:0:0:
192,64,32285,1,0,0:0:0:0:
176,96,33657,5,0,0:0:0:0:
176,96,34343,1,0,0:0:0:0:
176,96,35714,1,0,0:0:0:0:
192,48,36400,5,8,0:0:0:0:
176,96,37085,1,2,0:0:0:0:
160,64,37428,1,8,0:0:0:0:
176,96,37771,1,8,0:0:0:0:
180,68,39143,5,0,0:0:0:0:
180,68,41885,5,4,0:0:0:0:
192,128,42571,1,0,0:0:0:0:
180,68,43257,1,0,0:0:0:0:
180,68,43943,1,0,0:0:0:0:
192,128,44285,1,8,0:0:0:0:
180,68,44628,5,0,0:0:0:0:
192,32,46685,1,8,0:0:0:0:
180,68,47371,5,4,0:0:0:0:
192,128,48057,1,0,0:0:0:0:
180,68,48743,1,0,0:0:0:0:
180,68,49428,1,2,0:0:0:0:
180,68,49771,1,8,0:0:0:0:
176,96,50114,5,4,0:0:0:0:
176,96,50800,1,0,0:0:0:0:
192,32,52171,1,0,0:0:0:0:
176,96,52857,5,0,0:0:0:0:
192,32,53200,1,0,0:0:0:0:
168,64,53543,1,0,0:0:0:0:
176,96,54228,1,0,0:0:0:0:
168,64,55600,1,0,0:0:0:0:
176,96,56285,1,0,0:0:0:0:
176,96,57657,1,0,0:0:0:0:
160,64,58343,1,8,0:0:0:0:
176,96,59028,1,8,0:0:0:0:
160,32,59371,1,8,0:0:0:0:
176,96,59714,1,8,0:0:0:0:
180,68,61085,5,8,0:0:0:0:
180,68,61771,1,8,0:0:0:0:
256,192,62457,12,0,63485,0:0:0:0:
180,68,63828,5,8,0:0:0:0:
176,40,64343,1,8,0:0:0:0:
128,64,65028,1,4,0:0:0:0:
192,32,65885,1,8,0:0:0:0:
192,32,66571,1,0,0:0:0:0:
192,32,66914,1,0,0:0:0:0:
192,32,67257,1,8,0:0:0:0:
180,68,67771,5,0,0:0:0:0:
192,32,68628,1,8,0:0:0:0:
192,32,69314,1,0,0:0:0:0:
192,32,69657,1,8,0:0:0:0:
180,68,70000,1,8,0:0:0:0:
188,40,70514,5,4,0:0:0:0:
188,40,71885,1,4,0:0:0:0:
160,64,73257,1,4,0:0:0:0:
160,32,74628,1,0,0:0:0:0:
188,40,75314,5,8,0:0:0:0:
188,40,76000,5,4,0:0:0:0:
192,32,76857,1,8,0:0:0:0:
160,64,77542,1,0,0:0:0:0:
188,40,77885,1,0,0:0:0:0:
192,64,78228,1,8,0:0:0:0:
192,32,78742,1,0,0:0:0:0:
192,32,79600,1,8,0:0:0:0:
188,40,80285,1,0,0:0:0:0:
160,64,80628,1,8,0:0:0:0:
192,64,80971,1,8,0:0:0:0:
188,40,81485,5,4,0:0:0:0:
188,40,82857,1,4,0:0:0:0:
160,64,84228,1,4,0:0:0:0:
192,32,85599,1,8,0:0:0:0:
208,20,86114,5,12,0:0:0:0:
128,128,87142,1,4,0:0:0:0:
96,128,87828,1,8,0:0:0:0:
128,128,88514,1,0,0:0:0:0:
192,0,88857,1,0,0:0:0:0:
128,128,89200,1,8,0:0:0:0:
152,36,90057,5,0,0:0:0:0:
160,32,90571,1,8,0:0:0:0:
152,36,91085,1,4,0:0:0:0:
152,36,91771,1,4,0:0:0:0:
