osu file format v7

[General]
AudioFilename: STAR LEGEND.mp3
AudioLeadIn: 1499
PreviewTime: 86118
Countdown: 0
SampleSet: Soft
StackLeniency: 0.7
Mode: 0
LetterboxInBreaks: 1

[Editor]
DistanceSpacing: 0.800000011920929
BeatDivisor: 4
GridSize: 8

[Metadata]
Title:STAR LEGEND (Short Ver.)
Artist:Sakakibara Yui
Creator:MeLLoN
Version:Easy
Source:77 ~And, two stars meet again~
Tags:whirlpool SEVENS taka1235

[Difficulty]
HPDrainRate:2
CircleSize:3
OverallDifficulty:2
SliderMultiplier:1
SliderTickRate:1

[Events]
//Background and Video events
Video,0,"Movie#1.wmv"
0,0,"Picture.jpg"
//Break Periods
2,26033,39473
//Storyboard Layer 0 (Background)
//Storyboard Layer 1 (Fail)
//Storyboard Layer 2 (Pass)
//Storyboard Layer 3 (Foreground)
//Storyboard Sound Samples
//Background Colour Transformations
3,100,0,0,0

[TimingPoints]
635,666.666666666667,4,2,0,60,1,0
1135,-200,4,2,0,60,0,0
22135,-100,4,2,0,60,0,0
23968,-100,4,2,0,70,0,0
24635,-100,4,2,0,80,0,0
25301,-100,4,2,0,90,0,0
25833,400,4,2,0,100,1,0
40930,-100,4,2,0,80,0,0
64133,-100,4,1,0,80,0,0
65133,-100,4,2,0,80,0,0
67330,-100,4,2,0,70,0,0
80130,-100,4,2,0,80,0,0
86530,-100,4,2,0,100,0,0
86630,-100,4,2,0,100,0,1
89430,-100,4,2,0,100,0,0
93030,-100,4,2,0,100,0,1
97430,-100,4,2,0,100,0,0
111430,-100,4,2,0,100,0,1
111530,-100,4,2,0,100,0,0
114530,-100,4,2,0,100,0,0
123130,-100,4,2,0,100,0,0
123230,-100,4,2,0,100,0,1
123330,-100,4,2,0,100,0,0

[Colours]
Combo1 : 0,221,111
Combo2 : 236,236,0
Combo3 : 255,134,62
Combo4 : 68,162,255
Combo5 : 255,155,205

[HitObjects]
160,88,1301,1,0
160,128,1968,1,0
160,168,2635,2,0,B|160:272,1,100
200,264,4635,1,2
240,264,5301,2,0,B|296:264,1,50,0|2
328,264,6635,5,0
328,224,7301,1,2
368,224,7968,1,0
368,184,8635,1,2
368,144,9301,6,0,B|368:104,2,37.5
368,144,10635,1,0
288,144,11968,5,0
248,144,12634,1,2
208,144,13301,2,0,B|208:200,1,50,0|2
208,232,14634,6,0,B|168:232,2,37.5
208,232,15968,1,0
288,232,17301,6,0,B|368:232,2,75,0|0|2
288,192,19968,1,0
288,152,20635,1,2
288,112,21301,5,0
248,112,21968,1,2
256,208,22635,12,4,25833
168,128,41033,6,0,B|112:128,2,50,2|0|0
248,128,41833,1,4
360,240,42633,6,0,B|416:240,2,50,2|0|0
280,240,43433,1,4
136,176,44233,6,0,B|136:280,2,100,2|0|2
216,176,45433,2,0,B|216:72,2,100,0|2|0
296,176,46633,1,2
424,88,47433,6,0,B|368:88,4,50,2|0|0|0|4
360,232,49033,6,0,B|304:232,4,50,2|0|0|0|4
208,192,50633,6,0,B|128:192,2,75,2|0|0
248,192,51433,2,0,B|352:192,2,100,2|0|2
224,120,52633,2,0,B|224:64,1,50,4|4
256,264,53833,6,0,B|312:264,3,50
344,264,54633,1,4
264,176,55233,6,0,B|320:176,5,50,0|2|0|0|0|4
160,152,57033,6,0,B|128:224,2,75,2|0|0
192,128,57833,2,0,B|272:128,2,75,2|0|0
192,168,58633,2,0,B|224:240,2,75,2|0|0
416,296,60633,6,0,B|360:296,1,50
328,296,61033,2,0,B|224:296,1,100,4|0
152,296,61833,1,2
152,216,62233,5,0
152,176,62433,1,0
152,136,62633,2,0,B|152:64,2,50,4|0|4
232,136,63433,1,4
384,96,64233,6,0,B|384:152,1,50,2|0
384,224,64833,1,2
256,208,65233,12,4,67033
120,160,67433,6,0,B|120:80,2,75,2|0|0
120,200,68233,2,0,B|120:288,2,75,2|0|0
160,200,69033,2,0,B|160:280,2,75,2|0|0
160,160,69833,2,0,B|160:104,2,50,2|0|0
240,160,70633,5,2
320,160,71033,1,0
400,160,71433,1,2
400,240,71833,1,0
400,320,72233,6,0,B|296:320,1,100,4|0
264,320,72833,1,0
184,320,73233,1,2
104,320,73633,2,0,B|80:208|160:128,1,200
224,104,74833,6,0,B|376:104,1,150,0|2
352,184,75833,2,0,B|240:184,1,100,0|2
232,264,76633,1,0
312,264,77033,6,0,B|400:264,2,75,2|0|0
312,224,77833,2,0,B|312:112,1,100,2|0
312,48,78633,1,2
248,88,79033,6,0,B|144:88,1,100
72,88,79833,1,0
96,160,80233,6,0,B|120:240,1,75,4|0
184,304,81033,2,0,B|207:225,1,75,4|0
232,136,81833,1,4
256,208,82233,12,4,85833
256,56,86633,5,4
176,56,87033,1,0
176,136,87433,1,2
256,136,87833,1,0
336,136,88233,1,2
336,216,88633,2,0,B|336:272,2,50,0|0|2
176,216,89833,5,2
96,216,90233,1,0
96,296,90633,1,2
176,296,91033,1,0
256,296,91433,2,0,B|312:296,3,50,4|4|4|4
256,104,93033,5,2
336,104,93433,1,0
416,104,93833,1,2
416,184,94233,5,0
336,184,94633,2,0,B|232:184,2,100,2|0|2
336,264,95833,2,0,B|440:264,2,100,0|2|0
256,264,97033,2,0,B|200:264,1,50,2|0
128,264,97633,5,0
128,264,97833,2,0,B|128:184,2,75,2|0|0
232,144,99233,5,0
232,144,99433,2,0,B|312:144,2,75,2|0|0
312,232,100633,5,0
392,232,101033,1,4
392,312,101433,1,4
312,312,101833,2,0,B|256:312,1,50,2|0
184,312,102433,6,0,B|184:208,1,100,4|0
184,136,103233,2,0,B|184:80,5,50,0|4|0|0|0|2
424,80,105433,5,0
344,80,105833,2,0,B|256:80,2,75,2|0|0
320,112,106633,2,0,B|320:200,2,75,2|0|0
352,136,107433,2,0,B|432:136,2,75,2|0|0
352,256,108633,1,0
224,160,109433,6,0,B|168:160,1,50,4|0
96,248,110233,2,0,B|96:312,1,50,4|0
216,304,111033,1,4
296,304,111433,6,0,B|376:304,2,75,2|0|0
296,264,112233,2,0,B|296:160,1,100,2|0
296,88,113033,2,0,B|192:88,1,100,2|2
120,88,113833,1,2
120,168,114233,1,0
256,208,114633,12,4,120233
184,144,121033,5,2
264,144,121433,2,0,B|320:144,1,50,0|4
314,224,122033,6,0,B|314:280,2,50,0|0|4
234,224,122833,6,0,B|178:224,2,50,0|0|4
