osu file format v9

[General]
AudioFilename: renai.mp3
AudioLeadIn: 2500
PreviewTime: 57757
Countdown: 0
SampleSet: Soft
StackLeniency: 0.7
Mode: 1
LetterboxInBreaks: 0

[Editor]
DistanceSpacing: 1
BeatDivisor: 4
GridSize: 8

[Metadata]
Title:Renai 0 Kilometer (Short Ver.)
Artist:Sakakibara Yui
Creator:BinJip
Version:Taiko DS
Source:Renai 0 Kilometer
Tags:merchat7 ASa Project KDS galgame opening

[Difficulty]
HPDrainRate:5
CircleSize:5
OverallDifficulty:5
ApproachRate:5
SliderMultiplier:1.4
SliderTickRate:1

[Events]
//Background and Video events
0,0,"Taiko.jpg"
//Break Periods
//Storyboard Layer 0 (Background)
//Storyboard Layer 1 (Fail)
//Storyboard Layer 2 (Pass)
//Storyboard Layer 3 (Foreground)
//Storyboard Sound Samples
//Background Colour Transformations
3,100,163,162,255

[TimingPoints]
-639,352.941176470588,4,2,1,100,1,0
36058,357.142857142857,4,2,1,100,1,0
47486,356.083086053412,4,2,1,100,1,0
50123,356.083086053412,4,2,1,100,1,0
53163,356.083086053412,4,2,1,100,1,0
55833,346.820809248555,4,2,1,100,1,0
57384,363.636363636364,4,2,1,100,1,0
58855,352.941176470588,4,2,1,100,1,0
58855,-100,4,2,1,100,0,1
81443,-100,4,2,1,100,0,0
98384,-100,4,2,1,100,0,1
109678,361.44578313253,4,2,1,100,1,0

[Colours]
Combo1 : 240,240,240
Combo2 : 128,255,255
Combo3 : 255,255,128
Combo4 : 255,128,255

[HitObjects]
256,192,419,8,0,1831
256,192,2184,5,0
256,192,2360,1,8
256,192,2537,1,0
256,192,2625,1,0
256,192,2713,1,8
256,192,2890,1,0
256,192,3066,1,8
256,192,3243,1,0
256,192,3331,1,0
256,192,3419,1,8
256,192,3596,1,0
256,192,3772,1,8
256,192,3949,1,0
256,192,4037,1,0
256,192,4125,1,8
256,192,4302,1,0
256,192,4478,1,8
256,192,4566,1,0
256,192,4743,1,0
256,192,4831,1,8
256,192,5008,1,0
256,192,5184,1,8
256,192,5360,1,0
256,192,5449,1,0
256,192,5537,1,8
256,192,5713,1,0
256,192,5890,1,0
256,192,5978,1,0
256,192,6066,1,0
256,192,6243,1,8
256,192,6419,1,0
256,192,6508,1,0
256,192,6596,1,8
256,192,6772,1,0
256,192,6860,1,0
256,192,6949,1,8
256,192,7125,1,8
256,192,7302,1,8
256,192,7390,1,8
256,192,7478,1,0
256,192,7566,1,0
256,192,7655,1,8
256,192,7743,1,8
256,192,7831,1,0
256,192,8008,1,0
256,192,8184,1,0
256,192,8360,1,12
256,192,8713,1,0
256,192,8890,1,8
256,192,9066,1,8
256,192,9155,1,8
256,192,9243,1,0
256,192,9419,1,0
256,192,9596,1,8
256,192,9772,1,4
256,192,10125,1,0
256,192,10302,1,8
256,192,10390,1,8
256,192,10478,1,8
256,192,10566,1,8
256,192,10655,1,0
256,192,10831,1,8
256,192,11008,1,0
256,192,11096,1,0
256,192,11184,1,8
256,192,11360,1,0
256,192,11537,1,8
256,192,11713,1,0
256,192,11890,1,12
256,192,12243,1,8
256,192,12419,1,0
256,192,12508,1,0
256,192,12596,1,0
256,192,12684,1,0
256,192,12772,1,8
256,192,12860,1,8
256,192,12949,1,8
256,192,13037,1,8
256,192,13125,1,0
256,192,13213,1,0
256,192,13302,1,0
256,192,13390,1,0
256,192,13478,1,0
256,192,13655,1,8
256,192,13831,1,0
256,192,14008,1,8
256,192,14184,1,0
256,192,14360,1,8
256,192,14537,1,0
256,192,14713,1,8
256,192,14802,1,8
256,192,14890,1,0
256,192,15066,1,8
256,192,15243,1,0
256,192,15419,1,8
256,192,15596,1,0
256,192,15772,1,8
256,192,15949,1,0
256,192,16125,1,8
256,192,16213,1,8
256,192,16302,1,0
256,192,16478,1,8
256,192,16655,1,0
256,192,16831,1,8
256,192,17008,1,0
256,192,17184,1,8
256,192,17360,1,0
256,192,17537,1,8
256,192,17625,1,8
256,192,17713,1,0
256,192,17890,1,8
256,192,18066,1,0
256,192,18155,1,0
256,192,18243,1,8
256,192,18419,1,0
256,192,18596,1,8
256,192,18684,1,8
256,192,18772,1,0
256,192,18860,1,0
256,192,18949,1,8
256,192,19037,1,8
256,192,19125,1,0
256,192,19302,1,8
256,192,19478,1,0
256,192,19655,1,8
256,192,19831,1,0
256,192,20008,1,8
256,192,20184,1,0
256,192,20360,1,8
256,192,20449,1,8
256,192,20537,1,0
256,192,20713,1,8
256,192,20890,1,0
256,192,20978,1,0
256,192,21066,1,8
256,192,21155,1,0
256,192,21331,1,0
256,192,21419,1,8
256,192,21596,1,8
256,192,21772,1,8
256,192,21860,1,8
256,192,21949,1,0
256,192,22125,1,8
256,192,22302,1,0
256,192,22478,1,8
256,192,22655,1,0
256,192,22743,1,0
256,192,22831,1,8
256,192,23008,1,8
256,192,23184,1,4
256,192,23537,1,8
256,192,23713,1,0
256,192,23890,1,8
256,192,24066,1,8
256,192,24155,1,8
256,192,24243,1,0
256,192,24331,1,0
256,192,24419,1,8
256,192,24596,1,8
256,192,24772,1,4
256,192,24949,1,8
256,192,25125,1,0
256,192,25302,1,8
256,192,25478,1,0
256,192,25655,1,8
256,192,25831,1,0
256,192,26008,1,8
256,192,26096,1,8
256,192,26184,1,0
256,192,26360,1,8
256,192,26537,1,0
256,192,26713,1,8
256,192,26890,1,0
256,192,27066,1,8
256,192,27243,1,0
256,192,27419,1,8
256,192,27508,1,8
256,192,27596,1,0
256,192,27772,1,8
256,192,27949,1,0
256,192,28125,1,8
256,192,28302,1,0
256,192,28478,1,8
256,192,28655,1,0
256,192,28831,1,8
256,192,28919,1,8
256,192,29008,1,0
256,192,29184,1,8
256,192,29360,1,0
256,192,29537,1,8
256,192,29713,1,0
256,192,29802,1,0
256,192,29890,1,8
256,192,29978,1,8
256,192,30066,1,0
256,192,30155,1,0
256,192,30243,1,8
256,192,30331,1,8
256,192,30419,1,0
256,192,30596,1,8
256,192,30772,1,0
256,192,30949,1,8
256,192,31125,1,0
256,192,31213,1,0
256,192,31302,1,0
256,192,31478,1,8
256,192,31655,1,4
256,192,32008,1,8
256,192,32184,1,8
256,192,32360,1,4
256,192,32713,1,0
256,192,32890,1,8
256,192,33066,1,8
256,192,33155,1,8
256,192,33243,1,0
256,192,33419,1,8
256,192,33596,1,0
256,192,33772,1,8
256,192,33949,1,0
256,192,34037,1,0
256,192,34125,1,8
256,192,34302,1,8
256,192,34478,1,4
256,192,34831,1,4
256,192,35008,1,4
256,192,35361,1,8
256,192,35449,1,8
256,192,35537,1,0
256,192,35625,1,0
256,192,35713,1,8
256,192,35890,1,0
256,192,36058,1,4
256,192,36415,1,0
256,192,36593,1,0
256,192,36772,1,8
256,192,37129,1,0
256,192,37308,1,8
256,192,37665,1,8
256,192,38022,1,8
256,192,38200,1,0
256,192,38379,1,0
256,192,38558,1,8
256,192,38915,1,0
256,192,39093,1,0
256,192,39450,1,0
256,192,39629,1,8
256,192,40165,1,8
256,192,40522,1,0
256,192,40700,1,8
256,192,40879,1,0
256,192,40968,1,0
256,192,41058,1,8
256,192,41147,1,0
256,192,41236,1,0
256,192,41772,1,0
256,192,41950,1,0
256,192,42308,1,0
256,192,42486,1,8
256,192,42843,1,0
256,192,43022,1,8
256,192,43379,1,8
256,192,43736,1,0
256,192,43825,1,0
256,192,43915,1,8
256,192,44093,1,0
256,192,44272,1,8
256,192,44450,1,0
256,192,44629,1,0
256,192,44808,1,0
256,192,45165,1,0
256,192,45343,1,8
256,192,45700,1,0
256,192,45879,1,8
256,192,46236,1,0
256,192,46415,1,8
256,192,46593,1,8
256,192,46772,1,0
256,192,46861,1,8
256,192,46950,1,8
256,192,47040,1,8
256,192,47129,1,0
256,192,47308,1,4
256,192,47664,1,8
256,192,47753,1,8
256,192,47842,1,0
256,192,48020,1,4
256,192,48376,1,8
256,192,48465,1,8
256,192,48554,1,8
256,192,48732,1,4
256,192,49088,1,8
256,192,49266,1,0
256,192,49444,1,0
256,192,49622,1,8
256,192,49711,1,8
256,192,49800,1,0
256,192,49978,1,8
256,192,50123,1,4
256,192,50479,1,8
256,192,50568,1,0
256,192,50657,1,0
256,192,50835,1,4
256,192,51191,1,8
256,192,51369,1,0
256,192,51547,1,4
256,192,51903,1,8
256,192,52081,1,0
256,192,52170,1,0
256,192,52259,1,0
256,192,52437,1,12
256,192,52704,1,12
256,192,52971,1,12
256,192,53163,1,4
256,192,53519,1,0
256,192,53697,1,0
256,192,53875,1,8
256,192,53964,1,0
256,192,54142,1,0
256,192,54231,1,0
256,192,54409,1,8
256,192,54498,1,0
256,192,54587,1,0
256,192,54854,1,0
256,192,54943,1,8
256,192,55121,1,0
256,192,55299,1,0
256,192,55388,1,8
256,192,55477,1,0
256,192,55833,1,12
256,192,56179,1,8
256,192,56353,1,0
256,192,56526,1,8
256,192,56700,1,0
256,192,56786,1,0
256,192,56873,1,8
256,192,57046,1,0
256,192,57133,1,0
256,192,57220,1,8
256,192,57384,1,4
256,192,57656,1,4
256,192,57929,1,4
256,192,58855,1,4
256,192,59031,1,8
256,192,59207,1,0
256,192,59296,1,0
256,192,59384,1,8
256,192,59560,1,0
256,192,59737,1,8
256,192,59913,1,0
256,192,60002,1,0
256,192,60090,1,8
256,192,60266,1,0
256,192,60443,1,8
256,192,60619,1,0
256,192,60707,1,0
256,192,60796,1,8
256,192,60972,1,0
256,192,61149,1,8
256,192,61237,1,0
256,192,61413,1,0
256,192,61502,1,8
256,192,61590,1,8
256,192,61678,1,0
256,192,61855,1,8
256,192,62031,1,0
256,192,62119,1,0
256,192,62207,1,8
256,192,62384,1,0
256,192,62560,1,8
256,192,62737,1,0
256,192,62825,1,8
256,192,62913,1,8
256,192,63090,1,0
256,192,63266,1,8
256,192,63443,1,0
256,192,63531,1,0
256,192,63619,1,8
256,192,63796,1,0
256,192,63972,1,8
256,192,64060,1,8
256,192,64149,1,8
256,192,64237,1,0
256,192,64325,1,0
256,192,64413,1,0
256,192,64502,1,8
256,192,64678,1,0
256,192,64766,1,0
256,192,64855,1,0
256,192,65031,1,12
256,192,65384,1,0
256,192,65560,1,8
256,192,65737,1,0
256,192,65825,1,8
256,192,65913,1,0
256,192,66002,1,8
256,192,66090,1,0
256,192,66266,1,0
256,192,66443,1,12
256,192,66796,1,0
256,192,66972,1,8
256,192,67060,1,8
256,192,67149,1,8
256,192,67237,1,8
256,192,67325,1,0
256,192,67502,1,8
256,192,67678,1,0
256,192,67766,1,0
256,192,67855,1,8
256,192,68031,1,0
256,192,68207,1,8
256,192,68296,1,8
256,192,68384,1,0
256,192,68560,1,12
256,192,68913,1,8
256,192,69090,1,0
256,192,69178,1,0
256,192,69266,1,0
256,192,69355,1,0
256,192,69443,1,8
256,192,69531,1,8
256,192,69619,1,8
256,192,69707,1,8
256,192,69796,1,0
256,192,69884,1,0
256,192,69972,1,0
256,192,70060,1,0
256,192,70149,1,0
256,192,70325,1,8
256,192,70502,1,0
256,192,70590,1,0
256,192,70678,1,8
256,192,70855,1,0
256,192,71031,1,8
256,192,71207,1,0
256,192,71296,1,0
256,192,71384,1,8
256,192,71560,1,0
256,192,71737,1,8
256,192,71825,1,8
256,192,71913,1,0
256,192,72090,1,8
256,192,72266,1,0
256,192,72355,1,0
256,192,72443,1,8
256,192,72531,1,0
256,192,72619,1,0
256,192,72796,1,8
256,192,72884,1,8
256,192,72972,1,0
256,192,73149,1,8
256,192,73325,1,0
256,192,73413,1,0
256,192,73502,1,8
256,192,73678,1,0
256,192,73855,1,8
256,192,74031,1,0
256,192,74119,1,8
256,192,74207,1,8
256,192,74384,1,0
256,192,74472,1,0
256,192,74560,1,8
256,192,74737,1,0
256,192,74825,1,8
256,192,74913,1,8
256,192,75090,1,0
256,192,75178,1,8
256,192,75266,1,8
256,192,75355,1,8
256,192,75443,1,8
256,192,75619,1,0
256,192,75707,1,8
256,192,75796,1,0
256,192,75972,1,0
256,192,76060,1,0
256,192,76149,1,0
256,192,76325,1,12
256,192,76678,1,0
256,192,76855,1,8
256,192,77031,1,8
256,192,77119,1,8
256,192,77207,1,0
256,192,77296,1,8
256,192,77384,1,0
256,192,77560,1,0
256,192,77737,1,12
256,192,78090,1,0
256,192,78266,1,8
256,192,78355,1,8
256,192,78443,1,8
256,192,78531,1,8
256,192,78619,1,0
256,192,78796,1,8
256,192,78972,1,0
256,192,79060,1,8
256,192,79149,1,0
256,192,79325,1,8
256,192,79502,1,0
256,192,79590,1,8
256,192,79678,1,0
256,192,79855,1,12
256,192,80207,1,8
256,192,80384,1,0
256,192,80472,1,0
256,192,80560,1,0
256,192,80649,1,0
256,192,80737,1,8
256,192,80825,1,8
256,192,80913,1,8
256,192,81002,1,8
256,192,81090,1,0
256,192,81178,1,8
256,192,81266,1,0
256,192,81443,1,4
256,192,81619,1,0
256,192,81796,1,0
256,192,81972,1,12
256,192,82325,1,0
256,192,82502,1,0
256,192,82678,1,12
256,192,83031,1,0
256,192,83207,1,8
256,192,83384,1,0
256,192,83560,1,8
256,192,83649,1,8
256,192,83737,1,0
256,192,83825,1,0
256,192,83913,1,8
256,192,84090,1,0
256,192,84266,1,4
256,192,84443,1,0
256,192,84619,1,0
256,192,84796,1,12
256,192,85149,1,0
256,192,85325,1,8
256,192,85502,1,4
256,192,85855,1,8
256,192,86031,1,0
256,192,86207,1,8
256,192,86384,1,0
256,192,86472,1,0
256,192,86560,1,8
256,192,86649,1,8
256,192,86737,1,8
256,192,86913,1,4
256,192,87090,1,4
256,192,87266,1,0
256,192,87443,1,0
256,192,87619,1,12
256,192,87972,1,0
256,192,88149,1,8
256,192,88325,1,12
256,192,88678,1,8
256,192,88855,1,0
256,192,89031,1,0
256,192,89207,1,8
256,192,89296,1,0
256,192,89384,1,0
256,192,89472,1,0
256,192,89560,1,8
256,192,89737,1,0
256,192,89913,1,12
256,192,90266,1,0
256,192,90443,1,12
256,192,90796,1,12
256,192,91149,1,0
256,192,91325,1,4
256,192,91678,1,0
256,192,92031,1,4
256,192,92384,1,12
256,192,92560,1,12
256,192,92737,8,0,94855
256,192,95384,5,0
256,192,95560,1,8
256,192,95913,1,0
256,192,96090,1,8
256,192,96443,1,8
256,192,96796,1,0
256,192,96972,1,4
256,192,97325,1,12
256,192,97678,1,4
256,192,98031,1,12
256,192,98207,1,8
256,192,98384,1,4
256,192,98560,1,8
256,192,98737,1,0
256,192,98825,1,0
256,192,98913,1,8
256,192,99090,1,0
256,192,99266,1,8
256,192,99443,1,0
256,192,99531,1,0
256,192,99619,1,8
256,192,99796,1,0
256,192,99972,1,8
256,192,100149,1,0
256,192,100237,1,0
256,192,100325,1,8
256,192,100502,1,0
256,192,100678,1,8
256,192,100766,1,0
256,192,100943,1,0
256,192,101031,1,8
256,192,101207,1,0
256,192,101384,1,8
256,192,101560,1,0
256,192,101649,1,0
256,192,101737,1,8
256,192,101913,1,0
256,192,102090,1,0
256,192,102178,1,0
256,192,102266,1,0
256,192,102443,1,8
256,192,102619,1,0
256,192,102707,1,0
256,192,102796,1,8
256,192,102972,1,0
256,192,103060,1,0
256,192,103149,1,8
256,192,103325,1,8
256,192,103502,1,8
256,192,103590,1,8
256,192,103678,1,0
256,192,103766,1,0
256,192,103855,1,8
256,192,103943,1,8
256,192,104031,1,0
256,192,104207,1,0
256,192,104384,1,0
256,192,104560,1,12
256,192,104913,1,0
256,192,105090,1,8
256,192,105266,1,8
256,192,105355,1,8
256,192,105443,1,0
256,192,105619,1,8
256,192,105796,1,8
256,192,105972,1,4
256,192,106325,1,0
256,192,106502,1,8
256,192,106590,1,8
256,192,106678,1,8
256,192,106766,1,8
256,192,106855,1,0
256,192,107031,1,8
256,192,107207,1,0
256,192,107296,1,0
256,192,107384,1,0
256,192,107560,1,8
256,192,107737,1,0
256,192,107825,1,0
256,192,107913,1,0
256,192,108090,1,12
256,192,108443,1,8
256,192,108619,1,0
256,192,108707,1,0
256,192,108796,1,0
256,192,108884,1,0
256,192,108972,1,8
256,192,109060,1,8
256,192,109149,1,8
256,192,109237,1,8
256,192,109325,1,0
256,192,109413,1,0
256,192,109502,1,0
256,192,109590,1,0
256,192,109678,8,0,111846
256,192,112208,5,4
256,192,112388,1,12
