osu file format v10

[General]
AudioFilename: renai.mp3
AudioLeadIn: 2500
PreviewTime: 57757
Countdown: 0
SampleSet: Soft
StackLeniency: 0.7
Mode: 0
LetterboxInBreaks: 0

[Editor]
DistanceSpacing: 2
BeatDivisor: 4
GridSize: 4

[Metadata]
Title:Renai 0 Kilometer (Short Ver.)
TitleUnicode:
Artist:Sakakibara Yui
ArtistUnicode:
Creator:BinJip
Version:Insane
Source:Renai 0 Kilometer
Tags:merchat7 ASa Project KDS galgame opening
BeatmapID:177437
BeatmapSetID:37945

[Difficulty]
HPDrainRate:7
CircleSize:4
OverallDifficulty:8
ApproachRate:8
SliderMultiplier:1.8
SliderTickRate:2

[Events]
//Background and Video events
Video,176,"video.flv"
0,0,"Insane.jpg"
//Break Periods
//Storyboard Layer 0 (Background)
//Storyboard Layer 1 (Fail)
//Storyboard Layer 2 (Pass)
//Storyboard Layer 3 (Foreground)
//Storyboard Sound Samples
//Background Colour Transformations
3,100,163,162,255

[TimingPoints]
-639,352.941176470588,4,2,1,100,1,0
2184,-100,4,2,1,70,0,0
7478,-100,4,2,1,60,0,0
7919,-100,4,2,1,70,0,0
8978,-100,4,2,1,60,0,0
9155,-100,4,2,1,70,0,0
9684,-100,4,2,1,60,0,0
9860,-100,4,2,1,70,0,0
10302,-100,4,2,1,60,0,0
10390,-100,4,2,1,70,0,0
10478,-100,4,2,1,60,0,0
10566,-100,4,2,1,70,0,0
10655,-100,4,2,1,60,0,0
10743,-100,4,2,1,70,0,0
12243,-100,4,2,1,60,0,0
13478,-100,4,2,1,60,0,0
13566,-100,4,2,1,70,0,0
16390,-100,4,1,1,60,0,0
16566,-100,4,2,1,70,0,0
19037,-100,4,2,1,60,0,0
19213,-100,4,2,1,70,0,0
23802,-100,4,1,1,60,0,0
23978,-100,4,2,1,70,0,0
24772,-100,4,2,1,60,0,0
24860,-100,4,2,1,70,0,0
25919,-100,4,1,1,60,0,0
26096,-100,4,2,1,70,0,0
30331,-100,4,2,1,60,0,0
30508,-100,4,2,1,70,0,0
32625,-100,4,1,1,60,0,0
32802,-100,4,2,1,70,0,0
33243,-100,4,2,1,60,0,0
33331,-100,4,2,1,70,0,0
35096,-100,4,2,1,60,0,0
35272,-100,4,2,1,70,0,0
36058,357.142857142857,4,2,1,60,1,0
36058,-200,4,2,1,60,0,0
36683,-200,4,2,1,60,0,0
36861,-200,4,2,1,70,0,0
37218,-200,4,2,1,60,0,0
37397,-200,4,2,1,70,0,0
38200,-200,4,2,1,60,0,0
38290,-200,4,2,1,70,0,0
39004,-200,4,2,1,60,0,0
39183,-200,4,2,1,70,0,0
39540,-200,4,2,1,60,0,0
39718,-200,4,2,1,70,0,0
40611,-200,4,2,1,60,0,0
40790,-200,4,2,1,70,0,0
41058,-200,4,2,1,60,0,0
41325,-200,4,2,1,70,0,0
41683,-200,4,2,1,60,0,0
41861,-200,4,2,1,70,0,0
42397,-200,4,2,1,60,0,0
42575,-200,4,2,1,70,0,0
43825,-200,4,2,1,60,0,0
44004,-200,4,2,1,70,0,0
45433,-200,4,2,1,60,0,0
45968,-200,4,2,1,70,0,0
46504,-200,4,2,1,60,0,0
46683,-200,4,2,1,70,0,0
46950,-100,4,2,1,70,0,0
47486,356.083086053412,4,2,1,70,1,0
50123,356.083086053412,4,2,1,70,1,0
52882,-100,4,2,1,60,0,0
53060,-100,4,2,1,70,0,0
53163,356.083086053412,4,2,1,70,1,0
53519,-100,4,2,1,70,0,0
55744,-100,4,2,1,60,0,0
55833,346.820809248555,4,2,1,70,1,0
55919,-100,4,2,1,70,0,0
56093,-100,4,2,1,60,0,0
56266,-100,4,2,1,70,0,0
56439,-100,4,2,1,60,0,0
56613,-100,4,2,1,70,0,0
56786,-100,4,2,1,60,0,0
56960,-100,4,2,1,70,0,0
57133,-100,4,2,1,60,0,0
57384,363.636363636364,4,2,1,70,1,0
58020,-100,4,2,1,70,0,0
58855,352.941176470588,4,2,1,70,1,1
59031,-83.3333333333333,4,2,1,70,0,1
60002,-83.3333333333333,4,2,1,70,0,1
60178,-83.3333333333333,4,2,1,60,0,1
60355,-83.3333333333333,4,2,1,70,0,1
60531,-83.3333333333333,4,2,1,60,0,1
60884,-83.3333333333333,4,2,1,70,0,1
61060,-83.3333333333333,4,2,1,60,0,1
61590,-83.3333333333333,4,2,1,60,0,1
61766,-83.3333333333333,4,2,1,70,0,1
62119,-83.3333333333333,4,2,1,60,0,1
62296,-83.3333333333333,4,2,1,70,0,1
62825,-83.3333333333333,4,2,1,60,0,1
63178,-83.3333333333333,4,2,1,70,0,1
63355,-83.3333333333333,4,2,1,60,0,1
63884,-83.3333333333333,4,2,1,70,0,1
64590,-83.3333333333333,4,2,1,60,0,1
64766,-83.3333333333333,4,2,1,70,0,1
65296,-83.3333333333333,4,2,1,60,0,1
65472,-83.3333333333333,4,2,1,70,0,1
66355,-83.3333333333333,4,2,1,60,0,1
66531,-83.3333333333333,4,2,1,70,0,1
70149,-83.3333333333333,4,2,1,60,0,1
70237,-83.3333333333333,4,2,1,70,0,1
71472,-83.3333333333333,4,2,1,60,0,1
71649,-83.3333333333333,4,2,1,70,0,1
71825,-83.3333333333333,4,2,1,60,0,1
72178,-83.3333333333333,4,2,1,70,0,1
72354,-83.3333333333333,4,2,1,60,0,1
72531,-83.3333333333333,4,2,1,70,0,1
72884,-83.3333333333333,4,2,1,60,0,1
73060,-83.3333333333333,4,2,1,70,0,1
73413,-83.3333333333333,4,2,1,60,0,1
73590,-83.3333333333333,4,2,1,70,0,1
74119,-83.3333333333333,4,2,1,60,0,1
74472,-83.3333333333333,4,2,1,70,0,1
74649,-83.3333333333333,4,2,1,60,0,1
75178,-83.3333333333333,4,2,1,70,0,1
75531,-83.3333333333333,4,2,1,60,0,1
75707,-83.3333333333333,4,2,1,70,0,1
75972,-83.3333333333333,4,2,1,60,0,1
76766,-83.3333333333333,4,2,1,60,0,1
76943,-83.3333333333333,4,2,1,70,0,1
81090,-83.3333333333333,4,2,1,70,0,1
81443,-83.3333333333333,4,2,1,70,0,0
82590,-83.3333333333333,4,2,1,70,0,0
83472,-83.3333333333333,4,1,1,60,0,0
83649,-83.3333333333333,4,2,1,60,0,0
84002,-83.3333333333333,4,2,1,70,0,0
84531,-83.3333333333333,4,2,1,60,0,0
84707,-83.3333333333333,4,2,1,70,0,0
86649,-83.3333333333333,4,2,1,60,0,0
87002,-83.3333333333333,4,2,1,70,0,0
88413,-83.3333333333333,4,2,1,70,0,0
92031,-83.3333333333333,4,2,1,60,0,0
92472,-83.3333333333333,4,2,1,70,0,0
92649,-83.3333333333333,4,2,1,60,0,0
93178,-83.3333333333333,4,2,1,70,0,0
95031,-83.3333333333333,4,2,1,5,0,0
95207,-83.3333333333333,4,2,1,60,0,0
95649,-83.3333333333333,4,2,1,70,0,0
97678,-83.3333333333333,4,2,1,70,0,0
98384,-83.3333333333333,4,2,1,70,0,1
103590,-83.3333333333333,4,2,1,60,0,1
103766,-83.3333333333333,4,2,1,70,0,1
103854,-83.3333333333333,4,2,1,60,0,1
103943,-83.3333333333333,4,2,1,70,0,1
104031,-83.3333333333333,4,2,1,60,0,1
104119,-83.3333333333333,4,2,1,60,0,1
104119,-83.3333333333333,4,2,1,70,0,1
104296,-83.3333333333333,4,2,1,70,0,1
104825,-83.3333333333333,4,2,1,60,0,1
105002,-83.3333333333333,4,2,1,70,0,1
105884,-83.3333333333333,4,2,1,60,0,1
106060,-83.3333333333333,4,2,1,70,0,1
106502,-83.3333333333333,4,2,1,60,0,1
106590,-83.3333333333333,4,2,1,70,0,1
106678,-83.3333333333333,4,2,1,60,0,1
106766,-83.3333333333333,4,2,1,70,0,1
106854,-83.3333333333333,4,2,1,60,0,1
106943,-83.3333333333333,4,2,1,70,0,1
108090,-83.3333333333333,4,2,1,60,0,1
109678,361.44578313253,4,2,1,70,1,0
111485,-100,4,2,1,70,0,0
111756,-100,4,2,2,70,0,0
112298,-100,4,2,1,60,0,0

[Colours]
Combo1 : 240,240,240
Combo2 : 128,255,255
Combo3 : 255,255,128
Combo4 : 255,128,255

[HitObjects]
256,192,419,12,0,1831,0:0:0
120,120,2184,5,2,0:0:0
84,200,2360,2,0,B|84:256|36:280,2,90,0|0|0,0:0|0:0|0:0,0:0:0
172,184,2890,1,2,0:0:0
160,272,3066,2,0,B|248:272,2,90,0|0|0,0:0|0:0|0:0,0:0:0
308,220,3596,5,2,0:0:0
272,136,3772,1,0,0:0:0
328,68,3949,1,0,0:0:0
416,80,4125,2,0,B|432:132|404:184,1,90,0|2,0:0|0:0,0:0:0
396,256,4478,1,0,0:0:0
452,328,4655,1,0,0:0:0
364,344,4831,2,0,B|304:344|272:268,1,90,0|2,0:0|0:0,0:0:0
204,276,5184,1,0,0:0:0
164,200,5360,1,0,0:0:0
224,132,5537,5,0,0:0:0
264,212,5713,1,2,0:0:0
348,244,5890,2,0,B|392:268|444:244,2,90,0|0|0,0:0|0:0|0:0,0:0:0
288,88,6419,2,0,B|244:56|192:88,2,90,2|0|0,0:0|0:0|0:0,0:0:0
392,52,6949,5,0,0:0:0
460,136,7125,1,2,0:0:0
364,188,7302,1,2,0:0:0
256,144,7478,1,2,0:0:0
208,144,7566,1,0,0:0:0
176,192,7655,1,2,0:0:0
208,240,7743,1,0,0:0:0
256,240,7831,1,2,0:0:0
256,192,7919,12,4,9066,0:0:0
432,292,9243,5,2,0:0:0
472,212,9419,1,0,0:0:0
464,124,9596,2,0,B|448:88|384:64,1,90,0|4,0:0|0:0,0:0:0
308,80,9949,1,2,0:0:0
332,168,10125,1,2,0:0:0
264,224,10302,1,2,0:0:0
232,256,10390,1,0,0:0:0
192,272,10478,1,2,0:0:0
152,256,10566,1,0,0:0:0
120,224,10655,1,2,0:0:0
48,172,10831,6,0,B|60:124|104:100,1,90,0|0,0:0|0:0,0:0:0
164,40,11184,1,0,0:0:0
172,128,11360,2,0,B|268:128,1,90,2|0,0:0|0:0,0:0:0
316,72,11713,1,0,0:0:0
316,72,11890,2,2,B|420:58|451:161,1,180,0|0,0:0|0:0,0:0:0
451,161,12331,1,0,0:0:0
451,161,12419,1,2,0:0:0
396,236,12596,5,2,0:0:0
368,272,12684,1,0,0:0:0
328,292,12772,1,0,0:0:0
288,308,12860,1,0,0:0:0
244,308,12949,1,2,0:0:0
256,192,13125,1,2,0:0:0
256,48,13302,1,2,0:0:0
256,48,13390,1,0,0:0:0
256,48,13478,5,6,0:0:0
176,80,13655,2,2,B|128:80|96:120,1,90,0|0,0:0|0:0,0:0:0
64,200,14008,1,2,0:0:0
80,288,14184,1,0,0:0:0
160,312,14360,2,0,B|192:312|216:264,1,45,2|0,0:0|0:0,0:0:0
240,308,14537,2,0,B|296:300|320:232,1,90,0|2,0:0|0:0,0:0:0
352,264,14802,1,0,0:0:0
376,224,14890,2,0,B|416:188|492:240,1,90,0|2,0:0|0:0,0:0:0
464,92,15243,5,0,0:0:0
384,56,15419,1,2,0:0:0
292,60,15596,1,0,0:0:0
264,156,15772,2,0,B|296:120|380:128,1,90,2|0,0:0|0:0,0:0:0
392,132,16037,2,0,B|424:144|448:172,1,45,0|0,0:0|0:0,0:0:0
340,224,16302,2,0,B|264:296|176:224,1,180,0|0,0:0|0:0,0:0:0
96,64,16831,6,0,B|32:144,1,90,2|0,0:0|0:0,0:0:0
128,136,17184,2,0,B|92:236,1,90,2|0,0:0|0:0,0:0:0
192,184,17537,2,0,B|192:281|144:356,1,180,2|2,0:0|0:0,0:0:0
76,296,18066,1,0,0:0:0
260,340,18243,6,0,B|384:340|424:240,1,180,2|2,0:0|0:0,0:0:0
464,168,18772,1,0,0:0:0
412,72,18949,1,2,0:0:0
380,44,19037,1,0,0:0:0
336,40,19125,1,6,0:0:0
276,108,19302,5,2,0:0:0
200,152,19478,1,0,0:0:0
108,156,19655,2,0,B|77:128|77:128|69:80,1,90,2|0,0:0|0:0,0:0:0
56,212,20008,2,0,B|-16:228,1,45,2|0,0:0|0:0,0:0:0
56,268,20184,2,0,B|0:300,1,45,0|0,0:0|0:0,0:0:0
84,320,20360,2,2,B|204:340|224:208,2,180,2|2|2,0:0|0:0|0:0,0:0:0
152,200,21243,5,0,0:0:0
236,168,21419,1,2,0:0:0
248,80,21596,1,0,0:0:0
172,36,21772,1,2,0:0:0
92,76,21949,6,0,B|37:90|12:172,1,90,0|2,0:0|0:0,0:0:0
60,224,22302,1,0,0:0:0
136,300,22478,2,0,B|184:248|184:248|240:248|308:288,2,180,2|2|2,0:0|0:0|0:0,0:0:0
236,344,23360,5,0,0:0:0
344,332,23537,1,2,0:0:0
428,264,23713,2,0,B|300:232|308:112,1,180,0|0,0:0|0:0,0:0:0
200,152,24243,1,2,0:0:0
208,260,24419,1,0,0:0:0
116,332,24596,1,2,0:0:0
116,332,24684,1,0,0:0:0
116,332,24772,2,6,B|76:304|60:256,1,90,4|2,0:0|0:0,0:0:0
40,156,25125,1,0,0:0:0
116,80,25302,6,0,B|161:105|151:155,1,90,2|0,0:0|0:0,0:0:0
208,244,25655,1,2,0:0:0
268,148,25831,2,0,B|356:132|356:132|420:68,1,180,0|0,0:0|0:0,0:0:0
456,152,26360,2,0,B|422:190|447:235,1,90,2|0,0:0|0:0,0:0:0
372,284,26713,1,2,0:0:0
288,316,26890,1,0,0:0:0
208,272,27066,2,0,B|140:360|16:280,1,180,2|2,0:0|0:0,0:0:0
152,196,27596,6,0,B|152:112|152:112|192:24,1,180,0|0,0:0|0:0,0:0:0
268,72,28125,1,2,0:0:0
268,164,28302,2,0,B|311:138|311:138|351:138,1,90,0|2,0:0|0:0,0:0:0
336,228,28655,1,0,0:0:0
320,316,28831,1,2,0:0:0
192,272,29008,1,0,0:0:0
128,152,29184,1,2,0:0:0
204,40,29360,1,0,0:0:0
340,44,29537,6,0,B|428:76|428:220,1,180,2|2,0:0|0:0,0:0:0
380,288,30066,1,0,0:0:0
280,136,30243,1,2,0:0:0
216,304,30419,1,4,0:0:0
156,236,30596,1,2,0:0:0
72,204,30772,1,0,0:0:0
64,48,30949,6,0,B|64:88|64:88|104:128,1,90,2|0,0:0|0:0,0:0:0
192,120,31302,2,0,B|296:120,1,90,2|0,0:0|0:0,0:0:0
256,232,31655,2,0,B|168:280|72:232,1,180,2|2,0:0|0:0,0:0:0
24,64,32184,1,0,0:0:0
212,52,32360,2,0,B|276:64|276:144|276:144,1,90,2|0,0:0|0:0,0:0:0
360,96,32713,1,0,0:0:0
444,132,32890,1,0,0:0:0
416,216,33066,5,2,0:0:0
416,216,33155,1,0,0:0:0
416,216,33243,1,4,0:0:0
336,288,33419,1,2,0:0:0
256,336,33596,1,0,0:0:0
176,288,33772,1,2,0:0:0
32,40,34125,5,2,0:0:0
136,128,34302,1,2,0:0:0
32,224,34478,1,2,0:0:0
480,40,34831,5,2,0:0:0
376,128,35008,1,2,0:0:0
480,224,35184,1,6,0:0:0
256,328,35537,5,2,0:0:0
256,328,35713,1,0,0:0:0
256,240,35890,1,2,0:0:0
256,240,36058,6,0,B|256:136,1,90,6|0,0:0|0:0,0:0:0
192,104,36593,1,2,0:0:0
320,104,36772,1,2,0:0:0
120,104,37308,6,0,B|48:160,1,90,6|2,0:0|0:0,0:0:0
136,192,37843,1,0,0:0:0
224,192,38022,1,2,0:0:0
240,192,38111,1,0,0:0:0
256,192,38200,1,2,0:0:0
344,192,38379,1,2,0:0:0
360,120,38558,5,2,0:0:0
428,152,38736,1,2,0:0:0
428,232,38915,1,2,0:0:0
360,264,39093,1,6,0:0:0
432,88,39450,1,2,0:0:0
432,88,39629,1,0,0:0:0
432,88,39808,6,2,B|388:64|336:88,1,90,2|2,0:0|0:0,0:0:0
120,260,40522,2,0,B|120:212,1,45,2|2,0:0|0:0,0:0:0
260,90,40879,1,2,0:0:0
252,104,40968,1,0,0:0:0
244,117,41058,1,2,0:0:0
336,156,41236,1,6,0:0:0
168,192,41772,6,0,B|72:192,1,90,4|0,0:0|0:0,0:0:0
120,112,42486,1,2,0:0:0
256,192,42843,1,2,0:0:0
256,192,43022,1,2,0:0:0
256,32,43915,6,0,B|256:122,1,90,2|4,0:0|0:0,0:3:0
256,192,44450,1,2,0:0:0
170,163,44629,2,0,B|147:53|256:32,1,180,0|4,0:0|0:0,0:3:0
312,104,45522,1,2,0:0:0
344,188,45700,1,4,0:0:0
296,268,45879,2,0,B|364:312|364:312|476:320,1,180,6|6,0:0|0:0,0:0:0
416,168,46950,5,2,0:0:0
492,212,47129,1,0,0:0:0
416,264,47308,2,0,B|368:228|288:228|288:228|216:260,1,180,2|2,0:0|0:0,0:0:0
116,232,47842,1,0,0:0:0
112,144,48020,2,0,B|211:194|276:124,2,180,2|2|2,0:0|0:0|0:0,0:0:0
164,68,48910,5,0,0:0:0
256,32,49088,1,2,0:0:0
340,68,49266,2,0,B|388:52|444:88,1,90,0|2,0:0|0:0,0:0:0
440,168,49622,1,0,0:0:0
380,236,49800,2,0,B|256:236,1,90,2|0,0:0|0:0,0:0:0
168,164,50123,6,0,B|256:112|372:184,1,180,2|2,0:0|0:0,0:0:0
256,40,50657,1,0,0:0:0
169,32,50835,2,0,B|105:56|105:56|53:108|52:152,1,180,2|2,0:0|0:0,0:0:0
88,236,51369,1,0,0:0:0
156,292,51547,6,0,B|236:324|236:324|276:308|344:244,1,180,2|2,0:0|0:0,0:0:0
368,200,52081,1,0,0:0:0
336,116,52259,1,2,0:0:0
256,72,52437,1,0,0:0:0
256,344,52704,5,0,0:0:0
256,40,52971,1,6,0:0:0
256,160,53163,1,0,0:0:0
256,344,53519,5,0,0:0:0
208,264,53697,1,2,0:0:0
304,264,53875,2,0,B|392:272|424:200,2,135,0|2|2,0:0|0:0|0:0,0:0:0
256,192,54587,1,2,0:0:0
256,96,54765,1,2,0:0:0
256,96,54854,1,0,0:0:0
256,96,54943,1,2,0:0:0
65,91,55299,5,0,0:0:0
100,172,55477,2,0,B|176:224,1,90,2|0,0:0|0:0,0:0:0
132,300,55833,1,2,0:0:0
208,348,56006,1,0,0:0:0
256,272,56179,1,2,0:0:0
336,232,56353,1,0,0:0:0
208,148,56526,5,2,0:0:0
132,196,56700,1,0,0:0:0
256,44,56873,5,2,0:0:0
344,68,57046,1,0,0:0:0
432,44,57220,1,2,0:0:0
416,192,57384,5,2,0:0:0
144,336,57656,1,2,0:0:0
144,48,57929,1,2,0:0:0
92,192,58111,5,0,0:0:0
92,192,58293,1,0,0:0:0
368,192,58656,5,0,0:0:0
368,192,58855,2,0,B|280:148|280:148|256:32,1,180,2|0,0:0|0:0,0:0:0
120,148,59384,2,0,B|16:240,1,108.000002574921,2|0,0:0|0:0,0:0:0
202,183,59737,2,0,B|304:246|336:366|332:348,1,216.000005149841,2|2,0:0|0:0,0:0:0
304,140,60266,1,0,0:0:0
408,167,60443,1,2,0:0:0
436,63,60619,1,0,0:0:0
332,36,60796,1,2,0:0:0
228,64,60972,5,0,0:0:0
123,88,61149,2,0,B|48:136|28:184|28:184|42:261,1,216.000005149841,2|2,0:0|0:0,0:0:0
116,196,61678,2,0,B|192:128|344:196,1,216.000005149841,2|0,0:0|0:0,0:0:0
288,288,62207,2,0,B|428:328|488:204,2,216.000005149841,2|2|2,0:0|0:0|0:0,0:0:0
352,160,63090,5,2,0:0:0
256,112,63266,1,2,0:0:0
160,160,63443,1,2,0:0:0
192,56,63619,1,2,0:0:0
320,56,63796,6,8,B|440:56|464:200,1,216.000005149841,2|0,0:0|0:0,0:0:0
192,56,64325,2,0,B|72:56|48:200,1,216.000005149841,2|6,0:0|0:0,0:0:0
136,256,64855,2,0,B|208:208|208:208|280:208|322:261,1,216.000005149841,2|2,0:0|0:0,0:0:0
320,112,65560,5,0,0:0:0
320,112,65737,2,0,B|316:54|384:1,1,108.000002574921,2|0,0:0|0:0,0:0:0
440,96,66090,2,0,B|440:224|324:280,1,216.000005149841,2|6,0:0|0:0,0:0:0
96,96,66619,1,2,0:0:0
296,180,66972,5,2,0:0:0
296,180,67060,1,0,0:0:0
296,180,67149,1,2,0:0:0
244,276,67325,2,0,B|232:245|140:225|140:225|44:249,1,216.000005149841,2|0,0:0|0:0,0:0:0
48,140,67855,1,2,0:0:0
140,88,68031,1,0,0:0:0
248,84,68207,1,2,0:0:0
348,48,68384,1,0,0:0:0
452,28,68560,6,0,B|504:136|420:252,1,216.000005149841,2|2,0:0|0:0,0:0:0
356,156,69090,1,0,0:0:0
272,224,69266,1,2,0:0:0
336,312,69443,5,2,0:0:0
336,312,69531,1,0,0:0:0
336,312,69619,2,0,B|200:328|136:204,1,216.000005149841,2|2,0:0|0:0,0:0:0
213,122,70149,2,0,B|256:144|256:144|320:112|304:119,1,108.000002574921,6|2,0:0|0:0,0:0:0
256,24,70502,1,0,0:0:0
304,200,70678,2,0,B|360:278|445:226|445:226|497:311,2,216.000005149841,2|0|2,0:0|0:0|0:0,0:0:0
224,272,71560,2,8,B|176:300|120:269,1,108.000002574921,2|2,0:0|0:0,0:0:0
79,172,71913,1,2,0:0:0
28,76,72090,5,2,0:0:0
121,22,72266,1,0,0:0:0
175,116,72443,2,0,B|236:76|324:64|324:64|408:120,1,216.000005149841,2|0,0:0|0:0,0:0:0
208,200,72972,2,0,B|151:278|66:226|66:226|14:311,1,216.000005149841,2|0,0:0|0:0,0:0:0
360,320,73502,2,0,B|256:360|136:320,2,216.000005149841,2|0|2,0:0|0:0|0:0,0:0:0
448,256,74384,2,0,B|472:132,1,108.000002574921,2|2,0:0|0:0,0:0:0
380,84,74737,1,2,0:0:0
252,60,74913,5,2,0:0:0
64,136,75090,2,0,B|188:136|260:252,1,216.000005149841,2|0,0:0|0:0,0:0:0
340,176,75619,1,2,0:0:0
256,352,75972,1,4,0:0:0
256,352,76149,1,4,0:0:0
360,316,76325,1,2,0:0:0
452,256,76502,1,0,0:0:0
384,172,76678,1,2,0:0:0
436,72,76855,5,2,0:0:0
332,48,77031,2,0,B|224:73|224:73|160:157,2,216.000005149841,2|0|0,0:0|0:0|0:0,0:0:0
448,168,77913,2,0,B|336:224,1,108.000002574921,2|2,0:0|0:0,0:0:0
280,296,78266,5,0,0:0:0
184,244,78443,1,2,0:0:0
64,84,78619,2,0,B|152:120|240:56,1,162.000003862381,2|0,0:0|0:0,0:0:0
244,64,78972,1,2,0:0:0
240,168,79149,2,0,B|464:296,1,216.000005149841,2|2,0:0|0:0,0:0:0
448,168,79678,1,0,0:0:0
420,64,79855,2,0,B|324:28|324:28|208:40|132:160,1,324.000007724762,2|0,0:0|0:0,0:0:0
72,224,80560,1,2,0:0:0
160,288,80737,2,2,B|392:284,1,216.000005149841
52,288,81443,5,2,0:0:0
88,208,81619,1,0,0:0:0
140,136,81796,1,2,0:0:0
204,80,81972,2,0,B|276:96|276:96|360:140|392:224,1,216.000005149841,2|6,0:0|0:0,0:0:0
420,268,82502,1,6,0:0:0
336,288,82678,2,0,B|279:372|141:329,1,216.000005149841,2|2,0:0|0:0,0:0:0
188,256,83207,1,2,0:0:0
220,176,83384,2,0,B|140:176|46:220,1,162.000003862381,2|0,0:0|0:0,0:0:0
20,164,83737,2,0,B|-8:208|0:252|40:276,1,108.000002574921,2|2,0:0|0:0,0:0:0
256,364,84266,6,0,B|256:256,1,108.000002574921,2|0,0:0|0:0,0:0:0
332,212,84619,1,6,0:0:0
344,128,84796,2,0,B|232:168|128:72,1,216.000005149841,2|2,0:0|0:0,0:0:0
104,164,85325,1,2,0:0:0
152,236,85502,2,0,B|257:187|361:243,2,216.000005149841,2|2|2,0:0|0:0|0:0,0:0:0
168,152,86384,5,2,0:0:0
212,80,86560,1,2,0:0:0
300,80,86737,1,6,0:0:0
344,152,86913,1,6,0:0:0
424,188,87090,6,0,B|400:236|432:292,1,108.000002574921,0|2,0:0|0:0,0:0:0
344,280,87443,1,0,0:0:0
268,320,87619,2,0,B|257:251|133:251|133:251|89:274,1,216.000005149841,2|6,0:0|0:0,0:0:0
76,188,88149,1,4,0:0:0
160,180,88325,6,0,B|272:152|280:6,1,216.000005149841,6|2,0:0|0:0,0:0:0
352,64,88855,1,2,0:0:0
360,148,89031,2,0,B|464:200|472:344,1,216.000005149841,2|2,0:0|0:0,0:0:0
256,148,89737,5,2,0:0:0
208,220,89913,2,0,B|104:272|4:196,1,216.000005149841,0|2,0:0|0:0,0:0:0
236,296,90443,2,0,B|300:393|460:373,2,216.000005149841,2|2|2,0:0|0:0|0:0,0:0:0
316,264,91325,2,0,B|336:136|228:48,1,216.000005149841,2|2,0:0|0:0,0:0:0
128,32,92031,5,2,0:0:0
96,48,92119,1,0,0:0:0
72,72,92207,1,2,0:0:0
56,104,92296,1,0,0:0:0
48,136,92384,2,0,B|64:200|144:208,1,108.000002574921,2|2,0:0|0:0,0:0:0
180,328,92737,5,4,0:0:0
256,288,92913,1,6,0:0:0
332,328,93090,1,4,0:0:0
436,288,93266,2,2,B|432:256|316:160|188:160|72:256|64:292,1,432.000010299683,2|6,0:0|0:0,0:0:0
12,232,94149,2,2,B|62:178|186:82|314:82|438:178|496:234,1,540.000012874604,2|0,0:0|0:0,0:0:0
357,243,95207,5,2,0:0:0
357,243,95296,1,0,0:0:0
357,243,95384,1,2,0:0:0
357,243,95472,1,0,0:0:0
357,243,95560,2,2,B|252:300|152:236,1,216.000005149841,2|2,0:0|0:0,0:0:0
68,264,96090,2,0,B|60:201|108:169,1,108.000002574921,2|0,0:0|0:0,0:0:0
28,136,96443,2,0,B|92:80|92:80|184:72|214:113,1,216.000005149841,2|2,0:0|0:0,0:0:0
188,196,96972,6,0,B|260:196|309:109,1,108.000002574921,2|0,0:0|0:0,0:0:0
312,68,97325,2,0,B|356:100|369:158,1,108.000002574921,2|0,0:0|0:0,0:0:0
384,240,97678,1,2,0:0:0
464,272,97855,2,0,B|420:336|324:332,1,108.000002574921,2|0,0:0|0:0,0:0:0
256,192,98207,12,0,100855,0:0:0
424,280,101031,5,2,0:0:0
424,280,101119,1,0,0:0:0
424,280,101207,1,2,0:0:0
440,176,101384,2,0,B|352:64,1,108.000002574921,2|0,0:0|0:0,0:0:0
264,84,101737,1,2,0:0:0
196,168,101913,2,0,B|68:140,1,108.000002574921,0|2,0:0|0:0,0:0:0
68,260,102266,5,0,0:0:0
176,280,102443,2,0,B|213:318|277:302,1,108.000002574921,2|0,0:0|0:0,0:0:0
392,214,102796,2,0,B|408:152|369:114,1,108.000002574921,2|0,0:0|0:0,0:0:0
276,168,103149,1,2,0:0:0
204,88,103325,1,2,0:0:0
100,56,103502,1,2,0:0:0
184,184,103678,5,2,0:0:0
160,160,103766,1,0,0:0:0
128,152,103855,1,2,0:0:0
96,160,103943,1,0,0:0:0
72,184,104031,1,2,0:0:0
128,244,104207,2,0,B|112:300|128:356,1,108.000002574921,6|0,0:0|0:0,0:0:0
232,304,104560,5,2,0:0:0
320,240,104737,1,2,0:0:0
304,132,104913,1,6,0:0:0
204,92,105090,1,6,0:0:0
296,40,105266,2,0,B|359:41|382:96,1,108.000002574921,2|2,0:0|0:0,0:0:0
360,200,105619,5,2,0:0:0
460,284,105796,1,0,0:0:0
340,332,105972,1,6,0:0:0
248,240,106149,1,2,0:0:0
216,116,106325,1,2,0:0:0
108,56,106502,1,2,0:0:0
108,56,106590,1,0,0:0:0
108,56,106678,1,2,0:0:0
108,56,106766,1,0,0:0:0
108,56,106855,2,0,B|44:152,1,108.000002574921,6|0,0:0|0:0,0:0:0
120,240,107207,6,8,B|168:288|232:304,1,108.000002574921,2|0,0:0|0:0,0:0:0
316,284,107560,1,2,0:0:0
368,188,107737,1,2,0:0:0
256,172,107913,1,2,0:0:0
256,80,108090,5,2,0:0:0
256,80,108266,1,2,0:0:0
176,304,108443,1,2,0:0:0
176,304,108531,1,0,0:0:0
176,304,108619,1,2,0:0:0
384,176,108796,1,2,0:0:0
384,176,108884,1,0,0:0:0
384,176,108972,1,2,0:0:0
128,176,109149,5,0,0:0:0
336,304,109325,1,2,0:0:0
336,304,109413,1,2,0:0:0
336,304,109502,1,2,0:0:0
256,192,109678,12,0,111485,0:0:0
252,104,111846,6,2,B|252:156,2,45
144,192,112208,1,0,0:0:0
368,192,112388,1,4,0:0:0
