osu file format v10

[General]
AudioFilename: renai.mp3
AudioLeadIn: 2500
PreviewTime: 57757
Countdown: 0
SampleSet: Soft
StackLeniency: 0.7
Mode: 0
LetterboxInBreaks: 0

[Editor]
Bookmarks: 107463
DistanceSpacing: 1.3
BeatDivisor: 4
GridSize: 4

[Metadata]
Title:Renai 0 Kilometer (Short Ver.)
TitleUnicode:
Artist:Sakakibara Yui
ArtistUnicode:
Creator:BinJip
Version:Hard
Source:Renai 0 Kilometer
Tags:merchat7 ASa Project KDS galgame opening
BeatmapID:180375
BeatmapSetID:37945

[Difficulty]
HPDrainRate:7
CircleSize:4
OverallDifficulty:7
ApproachRate:8
SliderMultiplier:1.4
SliderTickRate:2

[Events]
//Background and Video events
Video,176,"video.flv"
0,0,"Insane.jpg"
//Break Periods
//Storyboard Layer 0 (Background)
//Storyboard Layer 1 (Fail)
//Storyboard Layer 2 (Pass)
//Storyboard Layer 3 (Foreground)
//Storyboard Sound Samples
//Background Colour Transformations
3,100,163,162,255

[TimingPoints]
-639,352.941176470588,4,2,1,70,1,0
36058,357.142857142857,4,2,1,70,1,0
36593,-200,4,2,1,70,0,0
47129,-100,4,2,1,70,0,0
47486,356.083086053412,4,2,1,100,1,0
50123,356.083086053412,4,2,1,100,1,0
53163,356.083086053412,4,2,1,100,1,0
55833,346.820809248555,4,2,1,100,1,0
57384,363.636363636364,4,2,1,100,1,0
58855,352.941176470588,4,2,1,70,1,1
81090,-100,4,2,1,70,0,1
81443,-100,4,2,1,70,0,0
93972,-100,4,2,1,5,0,0
95384,-100,4,2,1,70,0,0
98384,-100,4,2,1,70,0,1
109678,361.44578313253,4,2,1,70,1,0
109858,-100,4,2,1,70,0,0
111485,-100,4,2,1,70,0,0
111846,-100,4,2,0,70,0,0
112388,-100,4,2,1,70,0,0

[Colours]
Combo1 : 240,240,240
Combo2 : 128,255,255
Combo3 : 255,255,128
Combo4 : 255,128,255

[HitObjects]
256,192,419,12,0,1831,0:0:0
128,80,2184,6,0,B|104:120|136:176,1,70,0|2,0:0|0:0,0:0:0
192,192,2537,1,0,0:0:0
192,192,2713,1,2,0:0:0
128,304,2890,2,0,B|104:264|136:208,1,70,0|2,0:0|0:0,0:0:0
192,192,3243,2,0,B|288:192,1,70,0|2,0:0|0:0,0:0:0
256,108,3596,5,2,0:0:0
312,48,3772,1,2,0:0:0
396,32,3949,1,0,0:0:0
476,56,4125,1,2,0:0:0
460,140,4302,2,0,B|476:184|452:232,1,70,2|2,0:0|0:0,0:0:0
404,268,4655,1,0,0:0:0
324,296,4831,1,2,0:0:0
328,192,5008,5,2,0:0:0
328,192,5184,1,2,0:0:0
272,120,5360,2,0,B|208:80,1,70,0|2,0:0|0:0,0:0:0
152,136,5713,2,0,B|56:168,1,70,2|2,0:0|0:0,0:0:0
152,248,6066,2,0,B|56:216,1,70,0|2,0:0|0:0,0:0:0
272,272,6419,2,0,B|208:312,1,70,2|2,0:0|0:0,0:0:0
192,192,6772,5,0,0:0:0
264,148,6949,1,2,0:0:0
332,200,7125,1,2,0:0:0
404,240,7302,1,2,0:0:0
464,192,7478,2,0,B|464:144,3,35,0|2|0|0,0:0|0:0|0:0|0:0,0:0:0
416,152,7831,2,0,B|256:48|79:155,1,350,4|6,0:0|0:0,0:0:0
160,208,8890,6,0,B|200:216|216:272,1,70,0|2,0:0|0:0,0:0:0
176,328,9243,1,2,0:0:0
256,352,9419,1,2,0:0:0
336,328,9596,1,2,0:0:0
352,208,9772,2,0,B|312:216|302:253,1,70,6|2,0:0|0:0,0:0:0
256,180,10125,1,2,0:0:0
256,96,10302,2,0,B|256:56,4,35,2|0|2|0|2,0:0|0:0|0:0|0:0|0:0,0:0:0
176,72,10831,6,0,B|160:112|176:168,1,70,2|0,0:0|0:0,0:0:0
104,192,11184,1,2,0:0:0
172,244,11360,2,0,B|163:273|179:313,1,70,0|2,0:0|0:0,0:0:0
256,276,11713,1,2,0:0:0
256,192,11890,5,2,0:0:0
0,192,12419,1,2,0:0:0
128,192,12772,1,2,0:0:0
256,192,13125,1,2,0:0:0
256,192,13478,5,6,0:0:0
472,56,14008,6,0,B|464:96|464:96|448:120,1,70,2|2,0:0|0:0,0:0:0
364,128,14360,1,2,0:0:0
364,128,14537,2,2,B|396:200|352:296,1,140,2|2,0:0|0:0,0:0:0
320,336,15066,2,0,B|284:312|296:272,1,70,2|0,0:0|0:0,0:0:0
224,320,15419,5,2,0:0:0
172,252,15596,1,2,0:0:0
132,328,15772,2,0,B|56:312|60:200,1,140,2|2,0:0|0:0,0:0:0
168,120,16302,6,0,B|144:96|144:96|88:96,1,70,2|2,0:0|0:0,0:0:0
36,144,16655,1,0,0:0:0
60,220,16831,2,2,B|140:200|196:272,1,140,2|2,0:0|0:0,0:0:0
256,212,17360,1,0,0:0:0
296,312,17537,6,0,B|344:312|368:272,1,70,2|2,0:0|0:0,0:0:0
436,252,17890,1,2,0:0:0
368,204,18066,1,2,0:0:0
444,168,18243,2,0,B|420:126|374:126,1,70,2|2,0:0|0:0,0:0:0
316,84,18596,1,2,0:0:0
236,60,18772,1,2,0:0:0
152,64,18949,1,2,0:0:0
76,100,19125,1,4,0:0:0
456,192,19655,5,2,0:0:0
456,192,19831,1,2,0:0:0
456,192,20008,2,0,B|400:136,1,70,2|0,0:0|0:0,0:0:0
336,188,20360,2,0,B|286:237,1,70,2|2,0:0|0:0,0:0:0
216,192,20713,2,0,B|60:192,1,140,2|2,0:0|0:0,0:0:0
24,124,21243,1,0,0:0:0
96,80,21419,1,2,0:0:0
256,56,21772,5,2,0:0:0
256,140,21949,2,0,B|256:228,1,70,0|2,0:0|0:0,0:0:0
316,268,22302,1,0,0:0:0
356,196,22478,2,0,B|420:204|448:172|448:172|476:124,2,140,2|2|2,0:0|0:0|0:0,0:0:0
256,136,23360,5,0,0:0:0
212,64,23537,1,2,0:0:0
136,96,23713,1,0,0:0:0
104,176,23890,1,2,0:0:0
136,256,24066,1,0,0:0:0
208,300,24243,2,0,B|248:308|272:348,2,70,2|2|2,0:0|0:0|0:0,0:0:0
208,300,24772,5,6,0:0:0
8,192,25302,5,0,0:0:0
40,112,25478,2,0,B|16:80|56:24,1,70,2|0,0:0|0:0,0:0:0
116,84,25831,2,0,B|264:84,1,140,2|0,0:0|0:0,0:0:0
244,168,26360,1,2,0:0:0
316,212,26537,1,2,0:0:0
392,192,26713,6,0,B|480:192,2,70,0|0|2,0:0|0:0|0:0,0:0:0
352,120,27243,2,0,B|344:80|304:80,2,70,0|2|2,0:0|0:0|0:0,0:0:0
304,192,27772,1,2,0:0:0
302,304,27949,2,0,B|344:304|352:264,2,70,0|2|2,0:0|0:0|0:0,0:0:0
304,192,28478,5,2,0:0:0
224,192,28655,1,0,0:0:0
160,136,28831,2,2,B|200:108|200:108|308:108,1,140,2|2,0:0|0:0,0:0:0
291,108,29360,1,0,0:0:0
376,104,29537,2,0,B|376:144|352:168,1,70,2|0,0:0|0:0,0:0:0
364,252,29890,1,2,0:0:0
312,316,30066,1,2,0:0:0
228,332,30243,1,2,0:0:0
152,296,30419,1,6,0:0:0
40,152,30949,6,2,B|32:220,2,70,0|2|0,0:0|0:0|0:0,0:0:0
36,68,31478,2,0,B|64:44|108:60,1,70,0|2,0:0|0:0,0:0:0
124,136,31831,1,0,0:0:0
192,88,32008,2,2,B|252:40|324:88,2,140
256,320,33066,6,0,B|256:280,2,35,0|0|0,0:0|0:0|0:0,0:0:0
216,216,33419,1,0,0:0:0
296,216,33596,1,2,0:0:0
256,144,33772,1,2,0:0:0
360,328,34125,2,0,B|280:288,1,70,2|0,0:0|0:0,0:0:0
153,326,34478,2,0,B|216:296,1,70,2|0,0:0|0:0,0:0:0
256,224,34831,1,4,0:0:0
256,224,35008,1,4,0:0:0
256,48,35537,6,0,B|256:124,1,70,2|2,0:0|0:0,0:0:0
184,152,35890,1,0,0:0:0
328,152,36058,1,4,0:0:0
256,336,36593,2,0,B|256:288,1,35,0|4,0:0|0:0,0:0:0
114,83,37308,2,0,B|121:118|121:118|148:140,1,70,4|0,0:0|0:0,0:0:0
92,200,37843,1,0,0:0:0
200,200,38022,1,0,0:0:0
148,264,38200,1,0,0:0:0
72,292,38379,6,0,B|56:332|96:360,1,70,4|0,0:0|0:0,0:0:0
160,348,38915,1,4,0:0:0
224,316,39093,1,0,0:0:0
368,192,39450,1,2,0:0:0
368,192,39629,1,2,0:0:0
368,192,39808,1,2,0:0:0
368,192,40165,2,0,B|336:224|288:264,1,105,2|0,0:0|0:0,0:0:0
256,200,40879,2,0,B|256:128,1,70,0|4,0:0|0:0,0:0:0
372,112,41772,6,0,B|456:132|440:228,1,140,4|0,0:0|0:0,0:0:0
368,192,42843,1,0,0:0:0
368,192,43022,1,4,0:0:0
256,88,43736,1,0,0:0:0
256,88,43915,5,0,0:0:0
104,96,44272,1,4,0:0:0
120,136,44450,1,0,0:0:0
148,168,44629,2,4,B|84:224|116:296,1,140,0|4,0:0|0:0,0:0:0
256,192,45522,1,0,0:0:0
256,192,45700,1,4,0:0:0
256,192,45879,2,0,B|328:144|400:200,1,140,0|2,0:0|0:0,0:0:0
256,356,46950,5,2,0:0:0
256,272,47129,1,2,0:0:0
256,192,47308,1,4,0:0:0
324,144,47486,6,0,B|420:144,1,70,2|0,0:0|0:0,0:0:0
368,224,47842,2,0,B|456:224,1,70,2|0,0:0|0:0,0:0:0
336,296,48198,1,2,0:0:0
256,328,48376,2,0,B|188:352|100:296,1,140
256,158,49088,5,2,0:0:0
256,158,49266,1,2,0:0:0
256,158,49444,2,0,B|256:240,1,70,0|0,0:0|0:0,0:0:0
256,304,49800,1,2,0:0:0
60,124,50123,6,0,B|20:192|72:280,1,140,0|2,0:0|0:0,0:0:0
112,192,50657,2,0,B|184:192,1,70,2|2,0:0|0:0,0:0:0
376,96,51191,2,0,B|336:160,2,70,2|0|2,0:0|0:0|0:0,0:0:0
338,228,51903,2,0,B|376:288,2,70,2|0|2,0:0|0:0|0:0,0:0:0
256,192,52437,5,4,0:0:0
192,64,52704,1,4,0:0:0
320,64,52971,1,0,0:0:0
320,64,53163,1,4,0:0:0
344,224,53519,5,2,0:0:0
256,224,53697,1,2,0:0:0
168,224,53875,2,0,B|188:332,2,105,0|2|2,0:0|0:0|0:0,0:0:0
112,160,54587,1,2,0:0:0
84,80,54765,1,2,0:0:0
84,80,54854,1,0,0:0:0
84,80,54943,1,2,0:0:0
256,40,55299,5,0,0:0:0
256,120,55477,1,0,0:0:0
256,192,55833,12,0,57220,0:0:0
256,328,57384,6,0,B|256:196,1,105,2|2,0:0|0:0,0:0:0
256,224,57929,1,2,0:0:0
256,136,58111,1,0,0:0:0
256,136,58293,1,0,0:0:0
224,272,58656,6,0,B|320:272,1,70,2|6,0:0|0:0,0:0:0
376,272,59031,1,2,0:0:0
432,208,59207,1,0,0:0:0
376,144,59384,2,0,B|296:144,1,70,2|0,0:0|0:0,0:0:0
224,144,59737,1,2,0:0:0
152,184,59913,1,2,0:0:0
132,104,60090,2,0,B|176:48|276:52,2,140,2|2|2,0:0|0:0|0:0,0:0:0
256,184,60972,5,0,0:0:0
328,144,61149,2,0,B|412:132|448:222,1,140,2|2,0:0|0:0,0:0:0
372,256,61678,2,0,B|287:244|251:334,1,140,2|0,0:0|0:0,0:0:0
258,318,62207,2,0,B|214:254,1,70,2|0,0:0|0:0,0:0:0
204,176,62560,1,2,0:0:0
300,76,62737,1,0,0:0:0
162,45,62913,2,0,B|78:33|42:123,1,140,2|2,0:0|0:0,0:0:0
256,256,63619,5,2,0:0:0
256,256,63796,1,2,0:0:0
216,96,64149,2,0,B|176:104|176:152,1,70,0|2,0:0|0:0,0:0:0
28,192,64678,5,4,0:0:0
156,252,64855,1,4,0:0:0
44,336,65031,1,0,0:0:0
288,96,65560,6,0,B|328:104|328:152,1,70,0|2,0:0|0:0,0:0:0
256,192,65913,1,0,0:0:0
256,192,66090,1,6,0:0:0
408,88,66443,5,6,0:0:0
392,228,66619,1,0,0:0:0
336,356,66796,1,6,0:0:0
256,336,66972,5,0,0:0:0
180,348,67149,1,2,0:0:0
104,328,67325,2,0,B|56:276|56:276|52:184,1,140,0|2,0:0|0:0,0:0:0
176,192,67855,2,0,B|184:168|184:168|232:128,1,70,2|0,0:0|0:0,0:0:0
336,192,68207,2,0,B|328:168|328:168|280:128,1,70,2|0,0:0|0:0,0:0:0
256,64,68560,1,2,0:0:0
312,344,69090,5,2,0:0:0
464,272,69443,1,2,0:0:0
412,208,69619,1,0,0:0:0
480,160,69796,1,2,0:0:0
428,96,69972,1,0,0:0:0
188,60,70149,6,0,B|256:8|332:72,1,140,2|0,0:0|0:0,0:0:0
316,136,70678,2,0,B|248:188|172:124,2,140,2|0|2,0:0|0:0|0:0,0:0:0
388,180,71560,2,0,B|412:236|412:236|436:248|436:248|464:316,1,140,2|0,0:0|0:0,0:0:0
289,324,72090,6,0,B|256:336|220:324,1,70,2|0,0:0|0:0,0:0:0
256,248,72443,2,0,B|256:108,1,140,2|2,0:0|0:0,0:0:0
180,140,72972,2,0,B|180:72|180:72|219:11,1,140,2|0,0:0|0:0,0:0:0
332,16,73502,2,0,B|416:36|400:132,1,140,2|2,0:0|0:0,0:0:0
328,92,74031,1,2,0:0:0
256,136,74207,1,2,0:0:0
332,172,74384,2,0,B|412:320,1,140,2|0,0:0|0:0,0:0:0
299,282,74913,6,2,B|328:304|328:344,1,70,2|0,0:0|0:0,0:0:0
256,208,75266,1,2,0:0:0
212,282,75443,2,0,B|184:304|184:344,1,70,2|6,0:0|0:0,0:0:0
256,208,75972,1,6,0:0:0
256,208,76149,1,4,0:0:0
112,56,76855,6,0,B|104:88|104:88|104:128,1,70,0|2,0:0|0:0,0:0:0
256,64,77384,2,0,B|256:216,1,140,2|6,0:0|0:0,0:0:0
400,56,78266,6,0,B|408:88|408:88|408:128,2,70,0|2|0,0:0|0:0|0:0,0:0:0
304,256,78972,1,2,0:0:0
360,192,79149,1,2,0:0:0
208,256,79502,2,0,B|152:196|152:120,1,140,0|2,0:0|0:0,0:0:0
256,40,80207,1,0,0:0:0
256,40,80560,5,2,0:0:0
256,124,80737,1,4,0:0:0
88,328,81443,5,4,0:0:0
168,328,81619,2,0,B|168:288|200:256,1,70,2|0,0:0|0:0,0:0:0
256,216,81972,1,2,0:0:0
424,216,82325,2,4,B|424:176|392:144,1,70,6|4,0:0|0:0,0:0:0
400,72,82678,1,2,0:0:0
256,32,83031,1,2,0:0:0
256,116,83207,1,2,0:0:0
328,208,83384,2,0,B|256:224|184:207,1,140,2|2,0:0|0:0,0:0:0
189,208,83913,1,2,0:0:0
80,248,84266,6,0,B|160:248,1,70,0|2,0:0|0:0,0:0:0
116,172,84619,1,0,0:0:0
176,112,84796,1,6,0:0:0
256,32,85149,2,4,B|256:112,1,70,2|4,0:0|0:0,0:0:0
256,184,85502,1,2,0:0:0
412,248,85855,5,2,0:0:0
476,192,86031,1,0,0:0:0
412,140,86207,2,0,B|332:140,1,70,2|0,0:0|0:0,0:0:0
342,140,86560,1,0,0:0:0
342,140,86737,1,6,0:0:0
342,140,86913,1,4,0:0:0
312,256,87090,6,0,B|304:296|264:312,1,70,4|2,0:0|0:0,0:0:0
184,312,87443,1,0,0:0:0
104,344,87619,2,0,B|48:280|152:280|96:200,1,140,2|6,0:0|0:0,0:0:0
20,216,88149,1,4,0:0:0
24,132,88325,2,0,B|48:44|156:52,1,140,6|2,0:0|0:0,0:0:0
168,136,88855,5,2,0:0:0
216,64,89031,1,6,0:0:0
300,64,89207,1,0,0:0:0
348,136,89384,1,2,0:0:0
336,304,89737,6,0,B|312:264|352:264|336:232,1,70,2|2,0:0|0:0,0:0:0
176,304,90266,2,0,B|200:264|160:264|176:232,1,70,0|2,0:0|0:0,0:0:0
160,48,90796,2,0,B|256:128|256:16|352:96,1,210,2|2,0:0|0:0,0:0:0
351,95,91678,1,2,0:0:0
256,332,92031,2,2,B|256:172,1,140
256,192,92560,12,0,93972,0:0:0
256,192,94149,12,0,95207,0:0:0
256,312,95384,5,2,0:0:0
256,312,95560,1,2,0:0:0
408,240,95913,2,0,B|408:336,1,70,2|2,0:0|0:0,0:0:0
404,140,96443,1,2,0:0:0
220,312,96972,6,4,B|140:368,1,70,2|0,0:0|0:0,0:0:0
288,308,97325,2,4,B|368:364,1,70,2|0,0:0|0:0,0:0:0
256,248,97678,2,0,B|256:160,1,70,2|2,0:0|0:0,0:0:0
256,104,98031,1,2,0:0:0
256,104,98207,1,0,0:0:0
256,192,98384,12,0,101031,0:0:0
200,64,101207,6,0,B|184:96|184:136,1,70,0|2,0:0|0:0,0:0:0
312,64,101560,2,0,B|328:96|328:136,1,70,0|2,0:0|0:0,0:0:0
256,176,101913,1,0,0:0:0
200,240,102090,1,2,0:0:0
232,320,102266,1,0,0:0:0
288,256,102443,1,2,0:0:0
372,272,102619,6,0,B|444:272,1,70,0|2,0:0|0:0,0:0:0
412,192,102972,1,0,0:0:0
328,192,103149,1,2,0:0:0
348,112,103325,2,8,B|278:112,1,70,0|2,0:0|0:0,0:0:0
248,192,103678,2,0,B|208:192,4,35,2|0|2|0|6,0:0|0:0|0:0|0:0|0:0,0:0:0
208,116,104207,6,0,B|160:116|144:156,1,70,2|2,0:0|0:0,0:0:0
208,268,104560,2,0,B|160:268|144:228,1,70,6|2,0:0|0:0,0:0:0
80,192,104913,1,6,0:0:0
32,120,105090,1,0,0:0:0
80,48,105266,1,2,0:0:0
168,48,105443,1,0,0:0:0
208,116,105619,1,2,0:0:0
256,184,105796,5,0,0:0:0
304,116,105972,1,6,0:0:0
344,48,106149,1,0,0:0:0
432,48,106325,1,2,0:0:0
480,120,106502,2,0,B|440:160,4,35,2|0|2|0|2,0:0|0:0|0:0|0:0|0:0,0:0:0
392,120,107031,6,0,B|392:168|376:192,1,70,2|0,0:0|0:0,0:0:0
296,168,107384,1,2,0:0:0
216,168,107560,1,0,0:0:0
120,120,107737,2,0,B|120:168|136:192,1,70,2|0,0:0|0:0,0:0:0
256,256,108090,5,2,0:0:0
200,40,108619,1,2,0:0:0
368,192,108972,1,2,0:0:0
200,344,109325,1,2,0:0:0
256,192,109678,12,0,111485,0:0:0
256,240,111846,6,2,B|256:304,2,35,2|0|0,0:0|0:0|0:0,0:0:0
152,144,112208,1,0,0:0:0
256,52,112388,1,4,0:0:0
