osu file format v10

[General]
AudioFilename: renai.mp3
AudioLeadIn: 2500
PreviewTime: 57757
Countdown: 0
SampleSet: Soft
StackLeniency: 0.7
Mode: 0
LetterboxInBreaks: 0

[Editor]
Bookmarks: -21,60433
DistanceSpacing: 0.8
BeatDivisor: 4
GridSize: 4

[Metadata]
Title:Renai 0 Kilometer (Short Ver.)
TitleUnicode:
Artist:Sakakibara Yui
ArtistUnicode:
Creator:BinJip
Version:Easy
Source:Renai 0 Kilometer
Tags:merchat7 ASa Project KDS galgame opening
BeatmapID:180374
BeatmapSetID:37945

[Difficulty]
HPDrainRate:2
CircleSize:3
OverallDifficulty:2
ApproachRate:2
SliderMultiplier:0.8
SliderTickRate:2

[Events]
//Background and Video events
Video,176,"video.flv"
0,0,"Insane.jpg"
//Break Periods
//Storyboard Layer 0 (Background)
//Storyboard Layer 1 (Fail)
//Storyboard Layer 2 (Pass)
//Storyboard Layer 3 (Foreground)
//Storyboard Sound Samples
//Background Colour Transformations
3,100,163,162,255

[TimingPoints]
-639,352.941176470588,4,2,1,80,1,0
2184,-100,4,2,1,70,0,0
2272,-100,4,2,1,80,0,0
13390,-100,4,2,1,60,0,0
13566,-100,4,2,1,80,0,0
36058,357.142857142857,4,2,1,50,1,0
47486,356.083086053412,4,2,1,80,1,0
50123,356.083086053412,4,2,1,80,1,0
53163,356.083086053412,4,2,1,80,1,0
55833,346.820809248555,4,2,1,80,1,0
57384,363.636363636364,4,2,1,80,1,0
58855,352.941176470588,4,2,1,80,1,1
58943,-100,4,2,1,80,0,1
81090,-100,4,2,1,80,0,1
81354,-100,4,2,1,60,0,1
81443,-100,4,2,1,60,0,0
81531,-100,4,2,1,80,0,0
97678,-100,4,2,1,80,0,0
98384,-100,4,2,1,70,0,1
98472,-100,4,2,1,80,0,1
109678,361.44578313253,4,2,1,80,1,0
109858,-100,4,2,1,80,0,0
111485,-100,4,2,1,80,0,0

[Colours]
Combo1 : 240,240,240
Combo2 : 128,255,255
Combo3 : 255,255,128
Combo4 : 255,128,255

[HitObjects]
40,192,2184,2,0,B|128:232|224:184|224:184,1,160,2|0,0:0|0:0,0:0:0
184,100,3419,2,0,B|156:110|252:62|340:102,1,160,2|0,0:0|0:0,0:0:0
460,192,5008,6,0,B|449:164|497:260|457:348,1,160,2|0,0:0|0:0,0:0:0
372,304,6243,2,0,B|293:339|197:291,1,160,2|0,0:0|0:0,0:0:0
256,192,7831,12,0,9949,0:0:0
256,192,10655,12,2,12419,0:0:0
60,104,13478,6,0,B|92:48|92:48|196:48,1,160,2|0,0:0|0:0,0:0:0
320,48,14890,1,2,0:0:0
376,168,15596,6,0,B|377:261|292:313,1,160,2|0,0:0|0:0,0:0:0
176,304,17008,2,0,B|104:261|105:167,1,160,2|0,0:0|0:0,0:0:0
184,72,18419,5,2,0:0:0
312,72,19125,1,2,0:0:0
376,200,19831,6,0,B|312:360,1,160,2|0,0:0|0:0,0:0:0
192,344,21243,2,0,B|132:196,1,160,2|0,0:0|0:0,0:0:0
184,76,22655,6,0,B|248:128|332:73,1,160,2|2,0:0|0:0,0:0:0
449,115,24066,2,0,B|504:200|452:263,1,160,2|6,0:0|0:0,0:0:0
327,307,25478,6,0,B|264:256|179:310,1,160,2|2,0:0|0:0,0:0:0
62,268,26890,2,0,B|8:184|59:120,1,160,2|2,0:0|0:0,0:0:0
160,192,28302,5,2,0:0:0
264,120,29008,2,0,B|320:208|248:304,1,160,2|0,0:0|0:0,0:0:0
144,296,30419,1,6,0:0:0
40,216,31125,6,0,B|136:72,1,160,2|0,0:0|0:0,0:0:0
176,200,32537,1,2,0:0:0
280,280,33243,6,4,B|280:120,1,160,2|2,0:0|0:0,0:0:0
384,192,34655,1,6,0:0:0
464,288,35361,1,2,0:0:0
472,160,36058,6,0,B|408:160|408:160|316:116,1,160,6|2,0:0|0:0,0:0:0
192,120,37486,2,0,B|104:158|104:158|40:158,1,160,2|2,0:0|0:0,0:0:0
144,232,38915,5,4,0:0:0
256,296,39629,1,2,0:0:0
368,232,40343,1,0,0:0:0
440,128,41058,6,0,B|400:72|272:72,1,160,2|4,0:0|0:0,0:0:0
352,184,42486,2,0,B|272:232|192:184,1,160,2|0,0:0|0:0,0:0:0
104,104,43915,6,0,B|64:192|104:272,1,160,2|4,0:0|0:0,0:0:0
208,320,45343,1,2,0:0:0
432,312,46593,2,0,B|488:224|408:120,1,160,2|2,0:0|0:0,0:0:0
364,52,48020,5,0,0:0:0
236,40,48732,1,2,0:0:0
116,80,49444,2,0,B|32:120|40:220,1,160,2|4,0:0|0:0,0:0:0
160,200,50835,2,0,B|167:288|83:328,1,160,2|0,0:0|0:0,0:0:0
40,176,52437,1,6,0:0:0
144,96,53163,5,2,0:0:0
224,192,53875,2,2,B|392:192,1,160,2|0,0:0|0:0,0:0:0
492,124,55299,1,0,0:0:0
492,260,56006,1,0,0:0:0
364,260,56700,5,0,0:0:0
300,160,57384,2,0,B|360:124,2,60
144,112,58855,6,2,B|144:200|256:248,1,160,6|2,0:0|0:0,0:0:0
256,112,60266,1,2,0:0:0
364,40,60972,6,2,B|451:76|451:164,1,160,2|2,0:0|0:0,0:0:0
368,260,62384,1,2,0:0:0
252,316,63090,6,2,B|148:316|148:316|116:268,1,160,2|2,0:0|0:0,0:0:0
16,192,64502,1,2,0:0:0
112,104,65207,6,2,B|143:57|143:57|247:57,1,160,2|2,0:0|0:0,0:0:0
368,64,66619,2,0,B|472:200,1,160,2|2,0:0|0:0,0:0:0
336,192,68031,5,2,0:0:0
296,312,68737,2,2,B|209:277|209:189,1,160,2|2,0:0|0:0,0:0:0
168,72,70149,6,2,B|256:40|352:80,1,160,6|2,0:0|0:0,0:0:0
256,176,71560,1,2,0:0:0
360,104,72266,6,2,B|416:152|408:264,1,160,2|2,0:0|0:0,0:0:0
328,352,73678,2,0,B|256:296|160:368,1,160,2|2,0:0|0:0,0:0:0
103,250,75090,2,0,B|96:152|152:104,1,160,6|2,0:0|0:0,0:0:0
256,184,76502,5,2,0:0:0
360,104,77207,2,0,B|416:152|409:250,1,160,2|2,0:0|0:0,0:0:0
296,328,78619,6,0,B|120:344|72:176,1,280,2|0,0:0|0:0,0:0:0
88,64,80384,2,2,B|48:32|8:72,2,80,2|2|2,0:0|0:0|0:0,0:0:0
140,104,81443,6,0,B|236:56|344:112,1,200,2|0,0:0|0:0,0:0:0
380,148,82678,2,0,B|464:148,2,80,2|0|0,0:0|0:0|0:0,0:0:0
352,208,83737,6,0,B|404:260|348:316,1,120,2|0,0:0|0:0,0:0:0
256,328,84796,1,2,0:0:0
128,320,85502,6,2,B|136:224|280:184,1,160,2|2,0:0|0:0,0:0:0
144,156,86737,1,0,0:0:0
180,104,87090,2,0,B|271:166|367:98,1,200,4|0,0:0|0:0,0:0:0
364,196,88502,2,0,B|453:216|461:312,1,160,2|0,0:0|0:0,0:0:0
328,304,89913,5,0,0:0:0
204,268,90619,1,2,0:0:0
148,156,91325,2,0,B|312:148,1,160,2|0,0:0|0:0,0:0:0
388,144,92384,1,2,0:0:0
256,192,92737,12,0,94855,0:0:0
152,160,96266,6,0,B|104:248|160:328,1,160,2|6,0:0|0:0,0:0:0
256,240,97678,1,2,0:0:0
360,312,98384,6,2,B|408:224|352:144,1,160,6|0,0:0|0:0,0:0:0
436,100,99619,2,0,B|348:52|268:108,1,160,2|0,0:0|0:0,0:0:0
224,248,101207,5,2,0:0:0
128,160,101913,2,2,B|27:162|4:248,1,160,0|2,0:0|0:0,0:0:0
128,288,103325,1,2,0:0:0
128,160,104031,6,2,B|189:176|256:80|256:80|309:168|416:160,1,320,6|2,0:0|0:0,0:0:0
256,216,106149,1,2,0:0:0
379,232,106855,6,2,B|319:352|191:352|132:228,2,320
256,192,109858,12,4,112388,0:0:0
