osu file format v10

[General]
AudioFilename: renzero.mp3
AudioLeadIn: 2000
PreviewTime: 57989
Countdown: 0
SampleSet: Normal
StackLeniency: 0.7
Mode: 0
LetterboxInBreaks: 0

[Editor]
Bookmarks: 2220,36102,46102,46189,58896,58984
DistanceSpacing: 1
BeatDivisor: 4
GridSize: 8

[Metadata]
Title:Renai 0 Kilometer
TitleUnicode:
Artist:Sakakibara Yui
ArtistUnicode:
Creator:Fionana
Version:Insane
Source:Renai 0 Kilometer
Tags:asa project jesse7419 sorda s_o_r_d_a opening
BeatmapID:167027
BeatmapSetID:54980

[Difficulty]
HPDrainRate:7
CircleSize:4
OverallDifficulty:7
ApproachRate:8
SliderMultiplier:1.8
SliderTickRate:1

[Events]
//Background and Video events
0,0,"0.jpg"
Video,0,"a.avi"
//Break Periods
//Storyboard Layer 0 (Background)
//Storyboard Layer 1 (Fail)
//Storyboard Layer 2 (Pass)
//Storyboard Layer 3 (Foreground)
//Storyboard Sound Samples
//Background Colour Transformations
3,100,163,162,255

[TimingPoints]
-604,352.941176470588,4,2,1,40,1,0
2220,-100,4,2,1,80,0,0
6102,-100,4,2,1,70,0,0
6896,-100,4,1,1,30,0,0
7249,-100,4,1,1,40,0,0
7602,-100,4,1,1,50,0,0
11837,-100,4,2,1,70,0,0
13425,-100,4,1,1,50,0,0
13602,-100,4,1,1,30,0,0
14308,-100,4,1,1,40,0,0
14661,-100,4,1,1,50,0,0
23661,-100,4,2,1,40,0,0
24543,-100,4,1,1,40,0,0
24719,-100,4,1,1,50,0,0
36102,357.142857142857,4,2,1,50,1,0
36102,-133.333333333333,4,2,1,50,0,0
36727,-133.333333333333,4,1,1,40,0,0
36905,-133.333333333333,4,2,0,50,0,0
38155,-133.333333333333,4,1,1,40,0,0
38334,-133.333333333333,4,2,0,50,0,0
38869,-133.333333333333,4,1,1,30,0,0
39048,-133.333333333333,4,2,0,50,0,0
39584,-133.333333333333,4,1,1,40,0,0
39762,-133.333333333333,4,2,0,50,0,0
40655,-133.333333333333,4,1,1,40,0,0
40834,-133.333333333333,4,2,0,50,0,0
41012,-133.333333333333,4,1,1,40,0,0
41191,-133.333333333333,4,1,1,30,0,0
41369,-133.333333333333,4,2,0,50,0,0
42441,-133.333333333333,4,1,1,40,0,0
42619,-133.333333333333,4,2,0,50,0,0
42977,-133.333333333333,4,1,1,30,0,0
43155,-133.333333333333,4,2,0,50,0,0
43869,-133.333333333333,4,1,1,40,0,0
44048,-133.333333333333,4,2,0,50,0,0
44584,-133.333333333333,4,1,1,30,0,0
44762,-133.333333333333,4,2,0,50,0,0
45834,-133.333333333333,4,2,0,30,0,0
46012,-133.333333333333,4,2,0,50,0,0
46994,-100,4,1,1,30,0,0
47173,-100,4,1,1,40,0,0
47351,352.941176470588,4,1,1,50,1,0
48321,-100,4,2,1,50,0,0
48674,-100,4,1,1,50,0,0
52468,357.142857142857,4,2,1,50,1,0
52468,-133.333333333333,4,2,1,30,0,0
53182,357.142857142857,4,2,0,70,1,0
55324,-100,4,1,1,40,0,0
55592,-100,4,2,1,50,0,0
55860,352.941176470588,4,2,1,60,1,0
58896,352.941176470588,4,1,1,50,1,1
60043,-100,4,2,1,60,0,1
60219,-100,4,1,1,50,0,1
61719,-100,4,2,1,60,0,1
61807,-100,4,1,1,50,0,1
68513,-100,4,2,1,60,0,1
68690,-100,4,1,1,50,0,1
69043,-100,4,2,1,60,0,1
69219,-100,4,1,1,50,0,1
69396,-100,4,2,1,50,0,1
69572,-100,4,1,1,50,0,1
71337,-100,4,2,1,60,0,1
71513,-100,4,1,1,50,0,1
72925,-100,4,2,1,60,0,1
73101,-100,4,1,1,50,0,1
74160,-100,4,2,1,50,0,1
74337,-100,4,1,1,50,0,1
78660,-100,4,2,1,50,0,0
79984,-100,4,1,1,30,0,0
80160,-100,4,1,1,40,0,0
80337,-100,4,1,1,50,0,0
89778,-133.333333333333,4,2,1,50,0,0
91278,-100,4,1,1,50,0,0
95601,-100,4,2,1,50,0,0
96925,-100,4,1,1,50,0,0
101072,-100,4,2,1,80,0,0
103101,-100,4,1,1,30,0,0
103454,-100,4,1,1,40,0,0
103807,-100,4,1,1,50,0,0
108043,-100,4,1,1,40,0,0
109631,-100,4,2,1,40,0,0
111660,-100,4,1,1,50,0,0

[Colours]
Combo1 : 254,170,114
Combo2 : 134,255,143
Combo3 : 120,254,254
Combo4 : 248,151,253

[HitObjects]
256,192,454,12,0,1866,0:0:0
104,80,2220,6,0,B|80:120|88:168,1,90,2|0,0:0|0:0,0:0:0
48,248,2572,2,0,B|96:272|144:240,1,90,0|0,0:0|0:0,0:0:0
184,168,2925,1,0,0:0:0
240,240,3102,1,0,0:0:0
320,208,3278,1,0,0:0:0
392,344,3455,6,0,B|432:312|432:264,1,90,2|0,0:0|0:0,0:0:0
360,128,3808,2,0,B|320:160|320:208,1,90,0|0,0:0|0:0,0:0:0
312,296,4161,2,0,B|272:320|216:304,1,90
144,344,4514,1,0,0:0:0
144,344,4602,1,0,0:0:0
144,344,4690,2,0,B|128:296|144:256,1,90
168,168,5043,6,0,B|184:120|168:72,1,90,2|0,0:0|0:0,0:0:0
88,120,5396,1,0,0:0:0
64,208,5572,1,0,0:0:0
144,256,5749,2,0,B|240:240,1,90
400,72,6278,2,0,B|304:88,1,90,2|0,0:0|0:0,0:0:0
312,176,6631,2,0,B|344:216|344:264,1,90,0|0,0:0|0:0,0:0:0
360,344,6984,1,0,0:0:0
272,320,7161,1,0,0:0:0
184,344,7337,5,0,0:0:0
144,328,7425,1,0,0:0:0
112,296,7514,1,0,0:0:0
96,256,7602,1,0,0:0:0
96,208,7690,1,0,0:0:0
112,168,7778,1,0,0:0:0
144,136,7867,6,0,B|184:104|176:48,1,90,4|0,0:0|0:0,0:0:0
48,48,8219,1,0,0:0:0
144,136,8396,2,0,B|232:184|328:152,1,180,4|0,0:0|0:0,0:0:0
400,112,8925,1,0,0:0:0
400,112,9102,1,0,0:0:0
480,160,9278,2,0,B|512:200|504:248,1,90
448,320,9631,1,0,0:0:0
376,264,9808,2,0,B|288:216|192:248,1,180
120,328,10337,1,0,0:0:0
104,320,10425,1,0,0:0:0
88,312,10514,1,0,0:0:0
72,304,10602,1,0,0:0:0
56,296,10690,6,0,B|80:256|72:208,1,90
32,128,11043,2,0,B|104:64,1,90
256,96,11396,2,0,B|184:160,1,90
192,248,11749,1,0,0:0:0
304,320,11925,6,0,B|400:296|424:200,1,180,2|0,0:0|0:0,0:0:0
424,192,12367,1,0,0:0:0
424,184,12455,1,2,0:0:0
128,144,12808,2,0,B|32:168|8:264,1,180,2|0,0:0|0:0,0:0:0
88,312,13337,1,0,0:0:0
168,264,13514,6,0,B|352:264,1,180,4|0,0:0|0:0,0:0:0
432,176,14043,1,0,0:0:0
400,96,14219,1,0,0:0:0
336,160,14396,2,0,B|248:160,1,90,0|0,0:0|0:0,0:0:0
232,72,14749,2,0,B|184:72|160:120,1,90,0|0,0:0|0:0,0:0:0
72,144,15102,2,0,B|88:192|136:208,1,90
216,232,15455,1,0,0:0:0
280,296,15631,2,0,B|320:256|304:200,1,90,0|0,0:0|0:0,0:0:0
216,232,15984,1,0,0:0:0
88,104,16161,5,0,0:0:0
88,104,16249,1,0,0:0:0
88,104,16337,2,0,B|0:152|16:256,1,180
160,208,16867,2,0,B|248:160|232:56,1,180,0|0,0:0|0:0,0:0:0
88,104,17396,1,0,0:0:0
160,208,17572,2,0,B|176:256|240:272,1,90,0|0,0:0|0:0,0:0:0
320,152,17925,2,0,B|272:144|240:184,1,90,0|0,0:0|0:0,0:0:0
320,248,18278,2,0,B|432:264|480:168,1,180,0|0,0:0|0:0,0:0:0
328,72,18808,5,0,0:0:0
312,64,18896,1,0,0:0:0
296,64,18984,1,0,0:0:0
280,72,19072,1,0,0:0:0
272,88,19161,2,0,B|200:152|104:120,1,180,4|0,0:0|0:0,0:0:0
32,176,19690,1,0,0:0:0
32,176,19867,1,0,0:0:0
72,256,20043,2,0,B|120:256|160:304,1,90,0|0,0:0|0:0,0:0:0
288,240,20396,2,0,B|240:240|200:192,1,90
248,120,20749,2,0,B|296:96|304:48,1,90
392,48,21102,2,0,B|368:144|416:224,1,180
472,296,21631,1,0,0:0:0
488,128,21808,5,0,0:0:0
488,128,21896,1,0,0:0:0
488,128,21984,2,0,B|400:144,1,90
320,104,22337,1,0,0:0:0
240,56,22514,2,0,B|144:40|64:96,1,180
120,176,23043,2,0,B|200:216,2,90
40,224,23572,1,0,0:0:0
88,304,23749,5,2,0:0:0
176,288,23925,1,0,0:0:0
192,296,24014,1,0,0:0:0
208,304,24102,1,2,0:0:0
288,344,24278,1,0,0:0:0
304,336,24367,1,0,0:0:0
320,328,24455,1,2,0:0:0
400,288,24631,1,0,0:0:0
488,176,24808,6,0,B|408:128|312:160,1,180,4|0,0:0|0:0,0:0:0
232,200,25337,2,0,B|200:232|144:224,1,90
64,192,25690,1,0,0:0:0
40,104,25867,1,0,0:0:0
64,192,26043,2,0,B|40:232|56:280,1,90
128,336,26396,2,0,B|176:320|224:328,1,90
304,344,26749,1,0,0:0:0
384,304,26925,1,0,0:0:0
384,216,27102,1,0,0:0:0
384,216,27190,1,0,0:0:0
384,216,27278,2,0,B|392:168|384:120,1,90
304,256,27631,6,0,B|256:272|208:264,1,90
128,232,27984,1,0,0:0:0
48,280,28161,2,0,B|16:184|48:96,1,180
120,56,28690,5,0,0:0:0
200,96,28867,2,0,B|248:80|304:80,1,90
272,168,29219,2,0,B|320:176|368:200,1,90
360,296,29572,2,0,B|376:200|448:136,1,180
488,216,30102,1,0,0:0:0
443,140,30278,1,0,0:0:0
368,88,30455,6,0,B|264:88,1,90,4|0,0:0|0:0,0:0:0
184,88,30808,1,0,0:0:0
48,40,30984,2,0,B|24:80|48:128,1,90
184,176,31337,2,0,B|208:136|184:88,1,90
136,248,31690,2,0,B|184:272|232:248,1,90
312,168,32043,1,0,0:0:0
312,168,32131,1,0,0:0:0
312,168,32219,1,0,0:0:0
376,64,32396,2,0,B|440:128|424:232,1,180
312,168,32925,1,0,0:0:0
208,80,33102,5,0,0:0:0
208,80,33190,1,0,0:0:0
208,80,33278,2,0,B|160:64|112:80,1,90,4|0,0:0|0:0,0:0:0
48,136,33631,1,0,0:0:0
72,224,33808,2,0,B|160:264|256:224,1,180
312,168,34337,1,0,0:0:0
432,248,34514,6,0,B|376:320|272:312,1,180
184,280,35043,1,0,0:0:0
104,320,35219,1,0,0:0:0
128,88,35572,1,0,0:0:0
208,48,35749,1,0,0:0:0
288,80,35925,1,0,0:0:0
368,112,36102,6,0,B|440:136|504:112,2,134.999995976687,0|0|0,0:0|0:0|0:0,0:0:0
184,304,37352,2,0,B|112:304,1,67.4999979883433,2|0,0:0|0:0,0:0:0
56,240,37709,1,0,0:0:0
128,184,37887,2,0,B|200:184,1,67.4999979883433
264,240,38244,1,0,0:0:0
328,304,38423,2,0,B|352:272|352:232,1,67.4999979883433,0|0,0:0|0:0,0:0:0
304,168,38780,2,0,B|280:136|280:104,2,67.4999979883433,2|4|0,0:0|0:0|0:0,0:0:0
72,56,39494,2,0,B|96:88|96:120,1,67.4999979883433
176,160,39852,6,0,B|160:192|112:200,1,67.4999979883433
80,272,40209,2,0,B|48:256|32:216,2,67.4999979883433,2|0|0,0:0|0:0|0:0,0:0:0
168,272,40744,1,0,0:0:0
240,320,40923,2,0,B|280:328|312:320,1,67.4999979883433
392,320,41280,1,4,0:0:0
392,320,41816,6,0,B|408:248|392:184,1,134.999995976687,0|0,0:0|0:0,0:0:0
176,56,42530,2,0,B|160:128|176:192,1,134.999995976687
192,280,43066,2,0,B|128:304|56:280,1,134.999995976687,4|0,0:0|0:0,0:0:0
72,192,43602,2,0,B|104:128,1,67.4999979883433
184,96,43959,6,0,B|248:72|320:96,1,134.999995976687
400,128,44494,1,0,0:0:0
440,208,44673,2,0,B|424:272|448:344,2,134.999995976687,4|0|0,0:0|0:0|0:0,0:0:0
352,200,45566,2,0,B|280:216,1,67.4999979883433
200,184,45923,2,0,B|216:120|192:48,2,134.999995976687,4|0|0,0:0|0:0|0:0,0:0:0
200,184,46994,5,0,0:0:0
144,256,47173,1,0,0:0:0
104,176,47351,2,0,B|80:128|32:120,1,90
144,256,47703,1,0,0:0:0
256,304,47880,1,0,0:0:0
360,240,48056,2,0,B|408:224|424:176,1,90
336,48,48409,2,0,B|288:64|272:112,1,90
192,144,48762,6,0,B|128:64|32:64,1,180,0|0,0:0|0:0,0:0:0
48,152,49292,2,0,B|64:240,1,90
224,320,49645,2,0,B|208:232,1,90
192,144,49998,1,0,0:0:0
192,144,50086,1,0,0:0:0
192,144,50174,6,0,B|288:160|376:128,1,180,4|0,0:0|0:0,0:0:0
432,64,50703,2,0,B|464:104|464:152,1,90
248,312,51233,2,0,B|216:272|216:224,1,90
192,144,51586,1,0,0:0:0
192,144,51939,1,0,0:0:0
152,64,52115,1,0,0:0:0
72,112,52292,1,0,0:0:0
112,192,52468,2,0,B|96:232|128:256|112:304,2,101.249996982515
192,144,53182,6,0,B|280:120|376:144,1,180,0|2,0:0|0:0,0:0:0
408,224,53717,1,0,0:0:0
370,142,53896,2,0,B|360:96|368:48,1,90
448,96,54253,1,2,0:0:0
408,224,54432,1,2,0:0:0
408,224,54521,1,2,0:0:0
408,224,54610,2,0,B|418:270|410:318,1,90,2|0,0:0|0:0,0:0:0
328,272,54967,1,2,0:0:0
240,248,55146,1,0,0:0:0
240,248,55235,1,0,0:0:0
240,248,55324,2,0,B|144:248,1,90
96,176,55682,1,0,0:0:0
256,192,55860,12,0,57271,0:0:0
424,192,57448,6,0,B|376:208|328:192,1,90
288,176,57712,1,0,0:0:0
176,80,57977,1,0,0:0:0
176,80,58896,6,0,B|144:120|152:176,1,90,4|0,0:0|0:0,0:0:0
184,256,59248,1,0,0:0:0
264,312,59425,2,0,B|344:256|448:288,2,180,0|0|2,0:0|0:0|0:0,0:0:0
168,344,60307,2,0,B|72:344,1,90
32,256,60660,1,0,0:0:0
128,104,60837,5,0,0:0:0
128,104,61013,1,0,0:0:0
224,64,61190,2,0,B|320:64,1,90
384,136,61543,1,0,0:0:0
384,136,61631,1,0,0:0:0
384,136,61719,2,0,B|344:160|336:208,1,90,2|0,0:0|0:0,0:0:0
432,216,62072,1,0,0:0:0
240,184,62248,2,0,B|224:280|304:344,2,180
280,88,63131,1,0,0:0:0
184,104,63307,2,0,B|136:96|96:112,1,90
280,88,63660,6,0,B|328:96|368:80,1,90,0|0,0:0|0:0,0:0:0
464,40,64013,2,0,B|480:80|464:128,1,90
424,216,64366,1,0,0:0:0
424,216,64454,1,0,0:0:0
424,216,64543,2,0,B|400:264|416:312,1,90,4|0,0:0|0:0,0:0:0
504,272,64896,1,0,0:0:0
320,256,65072,2,0,B|136:248,1,180,4|0,0:0|0:0,0:0:0
168,72,65601,5,0,0:0:0
216,160,65778,2,0,B|256:248|208:336,1,180
112,344,66307,1,0,0:0:0
64,256,66484,2,0,B|24:168|72:80,1,180
168,72,67013,1,0,0:0:0
184,72,67101,1,0,0:0:0
200,72,67190,1,0,0:0:0
216,72,67278,1,0,0:0:0
232,72,67366,2,0,B|280:88|328:72,1,90
416,40,67719,1,0,0:0:0
392,136,67896,2,0,B|336:208|224:216,1,180
416,256,68425,6,0,B|448:224|496:216,2,90,0|2|0,0:0|0:0|0:0,0:0:0
328,304,68954,1,0,0:0:0
232,272,69131,2,0,B|200:304|152:312,1,90,2|0,0:0|0:0,0:0:0
144,144,69484,6,0,B|176:112|224:104,1,90
312,56,69837,1,0,0:0:0
320,72,69925,1,0,0:0:0
328,88,70013,1,0,0:0:0
336,104,70101,1,0,0:0:0
344,120,70190,2,0,B|384:200,1,90,4|0,0:0|0:0,0:0:0
432,288,70543,1,0,0:0:0
312,272,70719,2,0,B|208:272|144:344,2,180,0|0|2,0:0|0:0|0:0,0:0:0
272,184,71601,1,0,0:0:0
176,160,71778,2,0,B|192:112|248:96,1,90
272,184,72131,5,0,0:0:0
136,56,72307,1,0,0:0:0
72,136,72484,2,0,B|88:232|192:272,1,180
248,344,73013,2,0,B|288:312|288:264,1,90,4|0,0:0|0:0,0:0:0
328,176,73366,1,0,0:0:0
376,88,73543,2,0,B|470:123|486:219,2,180,0|0|2,0:0|0:0|0:0,0:0:0
328,176,74425,2,0,B|240:176,1,90
136,176,74778,1,0,0:0:0
176,304,74954,5,0,0:0:0
176,304,75043,1,0,0:0:0
176,304,75131,2,0,B|128:328|80:304,1,90
136,176,75484,1,0,0:0:0
144,160,75572,1,0,0:0:0
152,144,75660,1,0,0:0:0
160,128,75748,1,0,0:0:0
168,112,75837,2,0,B|216:88|264:112,1,90,0|0,0:0|0:0,0:0:0
312,192,76190,1,0,0:0:0
280,288,76366,2,0,B|376:328|464:288,1,180,4|0,0:0|0:0,0:0:0
456,192,76895,5,0,0:0:0
384,128,77072,2,0,B|400:80|384:32,1,90
296,80,77425,2,0,B|248:96|200:80,1,90
112,112,77778,2,0,B|72:192|112:296,1,180
272,328,78307,5,0,0:0:0
296,336,78395,1,0,0:0:0
320,336,78484,1,0,0:0:0
344,336,78572,1,0,0:0:0
368,328,78660,2,0,B|416:312|464:328,1,90,0|0,0:0|0:0,0:0:0
488,240,79013,1,0,0:0:0
432,168,79190,2,0,B|344:144|248:168,2,180,0|0|2,0:0|0:0|0:0,0:0:0
488,240,80072,5,0,0:0:0
432,168,80248,1,0,0:0:0
472,88,80425,1,0,0:0:0
392,48,80601,2,0,B|296:48,1,90
216,80,80954,1,0,0:0:0
216,80,81043,1,0,0:0:0
216,80,81131,2,0,B|200:128|216:168,1,90
248,256,81484,5,4,0:0:0
104,328,81660,1,0,0:0:0
136,216,81837,1,0,0:0:0
200,344,82013,1,0,0:0:0
200,344,82366,5,0,0:0:0
248,256,82543,1,0,0:0:0
296,344,82719,2,0,B|344:320|352:264,1,90
432,248,83072,1,0,0:0:0
424,224,83160,1,0,0:0:0
410,203,83248,1,0,0:0:0
390,187,83337,1,0,0:0:0
366,180,83425,1,0,0:0:0
341,180,83513,1,0,0:0:0
317,187,83601,2,0,B|229:227|133:187,1,180,0|0,0:0|0:0,0:0:0
141,190,84307,5,4,0:0:0
232,120,84484,1,0,0:0:0
232,120,84572,1,0,0:0:0
232,120,84660,2,0,B|232:216,1,90
232,210,85190,1,0,0:0:0
176,280,85366,2,0,B|128:296|80:272,1,90
24,344,85719,1,0,0:0:0
33,195,85895,5,0,0:0:0
18,175,85984,1,0,0:0:0
8,152,86072,1,0,0:0:0
5,127,86160,1,0,0:0:0
9,102,86248,1,0,0:0:0
17,78,86337,1,0,0:0:0
32,58,86425,1,0,0:0:0
55,48,86513,1,0,0:0:0
80,44,86601,1,0,0:0:0
105,48,86690,1,0,0:0:0
128,56,86778,2,0,B|176:80|224:56,1,90
352,40,87131,5,4,0:0:0
424,96,87307,1,0,0:0:0
408,184,87484,1,0,0:0:0
336,128,87660,2,0,B|240:120|160:176,1,180
112,248,88190,1,0,0:0:0
200,280,88366,2,0,B|256:352,1,90
408,328,88719,2,0,B|352:256,2,90
456,248,89248,1,0,0:0:0
400,176,89425,1,0,0:0:0
416,160,89513,1,0,0:0:0
432,144,89601,1,0,0:0:0
448,128,89690,1,0,0:0:0
464,112,89778,6,0,B|408:64,1,67.4999979883433
328,64,90131,1,0,0:0:0
256,112,90307,2,0,B|312:160,1,67.4999979883433
296,320,90837,2,0,B|232:344|160:320,1,134.999995976687
96,264,91366,6,0,B|80:168,1,90
64,88,91719,1,0,0:0:0
136,40,91895,1,0,0:0:0
192,112,92072,1,0,0:0:0
208,120,92160,1,0,0:0:0
224,128,92248,1,0,0:0:0
240,136,92337,1,0,0:0:0
256,144,92425,2,0,B|352:184|440:144,1,180
376,72,92954,5,0,0:0:0
504,104,93131,1,0,0:0:0
464,232,93307,1,0,0:0:0
464,232,93660,1,0,0:0:0
344,288,93837,1,0,0:0:0
344,288,94190,6,0,B|296:272|256:288,1,90
176,328,94543,1,0,0:0:0
120,256,94719,1,0,0:0:0
32,272,94895,2,0,B|16:224|32:184,1,90
80,104,95248,5,0,0:0:0
104,96,95337,1,0,0:0:0
128,96,95425,1,0,0:0:0
152,104,95513,1,0,0:0:0
176,112,95601,2,0,B|224:136|272:112,1,90
352,144,95954,1,0,0:0:0
400,224,96131,2,0,B|344:264|280:200|216:232,1,180
176,304,96660,1,0,0:0:0
176,304,96837,1,0,0:0:0
88,272,97013,2,0,B|72:224|80:168,1,90
152,112,97366,1,0,0:0:0
152,112,97719,6,0,B|200:104|248:112,1,90
328,136,98072,1,0,0:0:0
256,192,98248,12,0,100895,0:0:0
376,64,101248,6,0,B|384:112|352:160,1,90,2|0,0:0|0:0,0:0:0
376,240,101601,2,0,B|320:248|288:208,1,90
272,128,101954,2,0,B|168:128,1,90,0|0,0:0|0:0,0:0:0
48,328,102484,2,0,B|152:328,1,90,0|0,0:0|0:0,0:0:0
224,344,102837,2,0,B|248:296|224:248,1,90,0|0,0:0|0:0,0:0:0
152,216,103190,1,0,0:0:0
184,128,103366,1,0,0:0:0
256,176,103543,5,0,0:0:0
296,152,103631,1,0,0:0:0
344,144,103719,1,0,0:0:0
384,152,103807,1,0,0:0:0
424,168,103895,1,0,0:0:0
456,200,103984,1,0,0:0:0
472,240,104072,6,0,B|480:296|432:328,1,90,4|0,0:0|0:0,0:0:0
352,328,104425,1,0,0:0:0
376,240,104601,2,0,B|432:56,1,180,4|0,0:0|0:0,0:0:0
336,48,105131,1,0,0:0:0
272,112,105307,1,0,0:0:0
208,48,105484,2,0,B|160:32|112:48,1,90
56,112,105837,1,0,0:0:0
112,184,106013,2,0,B|184:240|184:344,1,180
272,320,106543,1,0,0:0:0
280,296,106631,1,0,0:0:0
288,272,106719,1,0,0:0:0
296,248,106807,1,0,0:0:0
304,224,106895,6,0,B|304:176|344:144,1,90
464,112,107248,2,0,B|464:160|424:192,1,90
448,344,107601,2,0,B|448:296|488:264,1,90
426,190,107954,1,0,0:0:0
352,96,108131,6,0,B|272:32|168:40,1,180
176,40,108572,1,0,0:0:0
168,40,108660,1,0,0:0:0
64,96,108837,1,0,0:0:0
64,96,108925,1,0,0:0:0
64,96,109013,1,0,0:0:0
72,216,109190,1,0,0:0:0
184,256,109366,2,0,B|224:168,1,90
256,192,109719,12,2,111131,0:0:0
168,104,111484,5,2,0:0:0
352,200,111837,2,0,B|400:240,3,45
352,200,112190,2,0,B|256:200,1,90,0|4,0:0|0:0,0:0:0
